osu file format v12

[General]
AudioFilename: 176.Uranium.mp3
AudioLeadIn: 0
PreviewTime: 94602
Countdown: 0
SampleSet: Normal
StackLeniency: 0.7
Mode: 0
LetterboxInBreaks: 1
WidescreenStoryboard: 0

[Editor]
Bookmarks: 87727,120551
DistanceSpacing: 0.8
BeatDivisor: 4
GridSize: 4
TimelineZoom: 4.399998

[Metadata]
Title:Uranium
TitleUnicode:Uranium
Artist:Memme
ArtistUnicode:Memme
Creator:Jemmmmy
Version:?????
Source:O2Jam
Tags:Hybrid Electro Analog Game Sound Track
BeatmapID:380625
BeatmapSetID:155114

[Difficulty]
HPDrainRate:5
CircleSize:4
OverallDifficulty:9
ApproachRate:10
SliderMultiplier:2.8
SliderTickRate:1

[Events]
//Background and Video events
0,0,"Encounter.jpg",0,0
//Break Periods
2,73633,78630
//Storyboard Layer 0 (Background)
//Storyboard Layer 1 (Fail)
//Storyboard Layer 2 (Pass)
//Storyboard Layer 3 (Foreground)
//Storyboard Sound Samples
//Background Colour Transformations
3,100,163,162,255

[TimingPoints]
22,352.941176470588,4,1,0,60,1,0
73080,-66.6666666666667,4,1,0,60,0,0
73433,-100,4,1,0,60,0,0
96021,-66.6666666666667,4,1,0,60,0,1
117198,-58.8235294117647,4,1,0,60,0,1
118610,-100,4,1,0,60,0,0
129904,-133.333333333333,4,1,0,60,0,0
132727,-133.333333333333,4,1,0,5,0,0

[Colours]
Combo1 : 88,170,79
Combo2 : 203,196,180
Combo3 : 128,87,164

[HitObjects]
256,192,1786,12,0,2669,0:0:0:0:
40,352,2845,6,0,L|52:272,1,70,0|0,0:0|0:0,0:0:0:0:
72,120,3021,1,0,0:0:0:0:
84,152,3110,1,0,0:0:0:0:
104,180,3198,2,0,P|144:216|180:224,1,70,0|0,0:0|0:0,0:0:0:0:
320,208,3374,1,0,0:0:0:0:
320,208,3463,1,0,0:0:0:0:
216,368,3639,1,0,0:0:0:0:
351,84,3816,5,0,0:0:0:0:
390,112,3905,1,0,0:0:0:0:
418,152,3993,1,0,0:0:0:0:
432,200,4081,1,0,0:0:0:0:
427,248,4169,1,0,0:0:0:0:
440,28,4345,1,0,0:0:0:0:
312,140,4521,1,0,0:0:0:0:
272,168,4610,1,0,0:0:0:0:
224,180,4698,1,0,0:0:0:0:
176,172,4786,1,0,0:0:0:0:
136,144,4874,5,0,0:0:0:0:
36,276,5051,2,0,P|66:293|100:294,1,70,0|0,0:0|0:0,0:0:0:0:
200,352,5227,1,0,0:0:0:0:
200,352,5316,2,0,P|174:375|140:384,1,70,0|0,0:0|0:0,0:0:0:0:
332,328,5492,2,0,P|357:304|391:295,1,70,0|0,0:0|0:0,0:0:0:0:
240,216,5669,6,0,P|204:188|192:156,1,70,0|0,0:0|0:0,0:0:0:0:
293,51,5845,1,0,0:0:0:0:
322,12,5933,1,0,0:0:0:0:
371,2,6021,1,0,0:0:0:0:
414,28,6110,1,0,0:0:0:0:
428,76,6198,1,0,0:0:0:0:
404,120,6286,5,0,0:0:0:0:
296,232,6463,1,0,0:0:0:0:
440,372,6639,1,0,0:0:0:0:
424,328,6727,1,0,0:0:0:0:
384,296,6816,1,0,0:0:0:0:
336,288,6904,1,0,0:0:0:0:
288,300,6992,1,0,0:0:0:0:
124,384,7169,1,0,0:0:0:0:
64,224,7345,5,0,0:0:0:0:
88,184,7433,1,0,0:0:0:0:
128,160,7521,1,0,0:0:0:0:
176,152,7610,1,0,0:0:0:0:
224,160,7698,1,0,0:0:0:0:
456,236,7874,2,0,L|488:316,1,70,0|0,0:0|0:0,0:0:0:0:
371,307,8051,5,0,0:0:0:0:
322,258,8139,1,0,0:0:0:0:
274,208,8227,1,0,0:0:0:0:
224,160,8316,1,0,0:0:0:0:
175,111,8404,1,0,0:0:0:0:
126,62,8492,5,0,0:0:0:0:
126,322,8845,1,0,0:0:0:0:
28,160,9198,5,0,0:0:0:0:
484,160,9551,1,0,0:0:0:0:
200,232,9816,1,0,0:0:0:0:
200,232,9904,6,0,P|240:284|244:356,1,140,0|0,0:0|0:0,0:0:0:0:
312,152,10257,2,0,P|272:100|268:28,1,140,0|0,0:0|0:0,0:0:0:0:
420,56,10610,5,0,0:0:0:0:
492,292,10786,1,0,0:0:0:0:
392,148,10963,1,0,0:0:0:0:
464,384,11139,1,0,0:0:0:0:
296,296,11316,6,0,L|272:228,1,70,0|0,0:0|0:0,0:0:0:0:
208,280,11492,2,0,L|184:212,1,70,0|0,0:0|0:0,0:0:0:0:
120,264,11669,2,0,L|96:196,1,70,0|0,0:0|0:0,0:0:0:0:
32,248,11845,2,0,L|8:180,1,70,0|0,0:0|0:0,0:0:0:0:
120,64,12021,6,0,L|204:32,1,70,0|0,0:0|0:0,0:0:0:0:
400,72,12198,2,0,L|484:40,1,70,0|0,0:0|0:0,0:0:0:0:
252,168,12374,2,0,L|186:192,1,70,0|0,0:0|0:0,0:0:0:0:
508,212,12551,2,0,L|442:236,1,70,0|0,0:0|0:0,0:0:0:0:
208,280,12727,5,0,0:0:0:0:
124,288,12816,1,0,0:0:0:0:
51,246,12904,1,0,0:0:0:0:
17,170,12992,1,0,0:0:0:0:
34,87,13080,1,0,0:0:0:0:
97,31,13169,1,0,0:0:0:0:
181,22,13257,1,0,0:0:0:0:
254,64,13345,1,0,0:0:0:0:
288,141,13433,6,0,L|300:224,1,70,0|0,0:0|0:0,0:0:0:0:
320,380,13610,2,0,L|300:367,5,23.3333333333333,0|0|0|0|0|0,0:0|0:0|0:0|0:0|0:0|0:0,0:0:0:0:
248,336,13786,5,0,0:0:0:0:
204,320,13874,1,0,0:0:0:0:
156,320,13963,1,0,0:0:0:0:
108,336,14051,1,0,0:0:0:0:
72,368,14139,2,0,P|104:296|100:224,1,140,0|0,0:0|0:0,0:0:0:0:
112,96,14404,1,0,0:0:0:0:
112,96,14492,2,0,P|164:152|240:180,1,140,0|0,0:0|0:0,0:0:0:0:
364,188,14757,1,0,0:0:0:0:
364,188,14845,6,0,P|336:136|312:112,1,70,0|0,0:0|0:0,0:0:0:0:
276,264,15021,1,0,0:0:0:0:
308,304,15110,1,0,0:0:0:0:
352,324,15198,2,0,P|420:312|444:296,1,70,0|0,0:0|0:0,0:0:0:0:
184,320,15374,2,0,P|116:332|92:348,1,70,0|0,0:0|0:0,0:0:0:0:
4,384,15551,5,0,0:0:0:0:
144,192,15727,1,0,0:0:0:0:
184,160,15816,1,0,0:0:0:0:
232,156,15904,2,0,P|280:160|380:216,1,140,0|0,0:0|0:0,0:0:0:0:
420,300,16169,1,0,0:0:0:0:
420,300,16257,1,0,0:0:0:0:
392,340,16345,2,0,P|372:368|340:384,2,70,0|0|0,0:0|0:0|0:0,0:0:0:0:
456,156,16610,6,0,L|496:72,1,70,0|0,0:0|0:0,0:0:0:0:
288,72,16786,2,0,L|216:104,1,70,0|0,0:0|0:0,0:0:0:0:
48,152,16963,6,0,P|116:208|224:232,1,140,0|0,0:0|0:0,0:0:0:0:
304,224,17227,1,0,0:0:0:0:
304,224,17316,2,0,P|284:284|192:356,1,140,0|0,0:0|0:0,0:0:0:0:
184,356,17580,1,0,0:0:0:0:
136,356,17669,1,0,0:0:0:0:
376,320,17845,1,0,0:0:0:0:
420,336,17933,1,0,0:0:0:0:
460,364,18021,6,0,L|460:272,1,70,0|0,0:0|0:0,0:0:0:0:
396,208,18198,2,0,L|396:116,1,70,0|0,0:0|0:0,0:0:0:0:
336,48,18374,5,0,0:0:0:0:
208,228,18551,2,0,L|168:304,1,70,0|0,0:0|0:0,0:0:0:0:
104,132,18727,2,0,P|140:104|188:96,2,70,0|0|0,0:0|0:0|0:0,0:0:0:0:
68,168,18992,1,0,0:0:0:0:
60,216,19080,1,0,0:0:0:0:
80,260,19169,2,0,P|128:308|144:376,1,140,0|0,0:0|0:0,0:0:0:0:
172,272,19433,5,0,0:0:0:0:
216,220,19521,1,0,0:0:0:0:
284,200,19610,1,0,0:0:0:0:
352,216,19698,1,0,0:0:0:0:
404,264,19786,1,0,0:0:0:0:
296,384,19963,1,0,0:0:0:0:
296,384,20051,1,0,0:0:0:0:
296,384,20139,6,0,L|284:232,1,140,0|0,0:0|0:0,0:0:0:0:
276,132,20404,1,0,0:0:0:0:
276,132,20492,1,0,0:0:0:0:
140,176,20669,1,0,0:0:0:0:
100,204,20757,1,0,0:0:0:0:
76,248,20845,6,0,L|20:172,1,70,0|0,0:0|0:0,0:0:0:0:
216,324,21021,2,0,L|160:248,1,70,0|0,0:0|0:0,0:0:0:0:
364,384,21198,1,0,0:0:0:0:
452,256,21374,1,0,0:0:0:0:
220,208,21551,6,0,P|184:184|156:136,2,70,0|0|0,0:0|0:0|0:0,0:0:0:0:
348,228,21816,1,0,0:0:0:0:
404,216,21904,1,0,0:0:0:0:
436,168,21992,1,0,0:0:0:0:
432,112,22080,1,0,0:0:0:0:
396,72,22169,1,0,0:0:0:0:
340,64,22257,2,0,L|252:52,1,70,0|0,0:0|0:0,0:0:0:0:
40,100,22433,2,0,L|109:109,1,70,0|0,0:0|0:0,0:0:0:0:
300,148,22610,5,0,0:0:0:0:
420,336,22786,1,0,0:0:0:0:
184,268,22963,1,0,0:0:0:0:
216,48,23139,1,0,0:0:0:0:
300,360,23316,1,0,0:0:0:0:
40,240,23492,1,0,0:0:0:0:
60,196,23580,1,0,0:0:0:0:
96,160,23669,1,0,0:0:0:0:
116,372,23845,1,0,0:0:0:0:
216,184,24021,5,0,0:0:0:0:
368,292,24198,1,0,0:0:0:0:
412,316,24286,1,0,0:0:0:0:
460,324,24374,1,0,0:0:0:0:
440,148,24551,1,0,0:0:0:0:
396,124,24639,1,0,0:0:0:0:
348,124,24727,1,0,0:0:0:0:
304,144,24816,1,0,0:0:0:0:
280,188,24904,2,0,P|280:232|296:264,1,70,0|0,0:0|0:0,0:0:0:0:
232,380,25080,5,0,0:0:0:0:
180,332,25169,1,0,0:0:0:0:
136,280,25257,1,0,0:0:0:0:
92,228,25345,1,0,0:0:0:0:
52,172,25433,6,0,P|20:96|20:32,1,140,0|0,0:0|0:0,0:0:0:0:
152,60,25698,1,0,0:0:0:0:
152,60,25786,2,0,P|196:92|212:124,1,70,0|0,0:0|0:0,0:0:0:0:
256,252,25963,1,0,0:0:0:0:
284,292,26051,1,0,0:0:0:0:
328,308,26139,2,0,P|364:316|408:304,1,70,0|0,0:0|0:0,0:0:0:0:
500,188,26316,1,0,0:3:0:0:
472,148,26404,1,0,0:3:0:0:
428,132,26492,2,0,P|392:124|348:136,1,70,0|0,0:0|0:0,0:0:0:0:
240,204,26669,1,0,0:0:0:0:
52,360,26845,6,0,L|140:356,1,70,0|0,0:0|0:0,0:0:0:0:
232,328,27021,2,0,L|320:324,1,70,0|0,0:0|0:0,0:0:0:0:
408,296,27198,2,0,L|496:292,2,70,0|0|0,0:0|0:0|0:0,0:0:0:0:
252,244,27463,1,0,0:0:0:0:
24,36,27639,1,0,0:0:0:0:
24,36,27727,2,0,P|64:84|88:100,1,70,0|0,0:0|0:0,0:0:0:0:
268,128,27904,2,0,P|257:66|244:40,1,70,0|0,0:0|0:0,0:0:0:0:
164,244,28080,2,0,P|175:306|188:332,1,70,0|0,0:0|0:0,0:0:0:0:
352,232,28257,6,0,P|384:160|380:84,1,140,0|0,0:0|0:0,0:0:0:0:
372,32,28521,1,0,0:0:0:0:
440,56,28610,2,0,L|504:92,1,70,0|0,0:0|0:0,0:0:0:0:
456,192,28786,1,0,0:0:0:0:
464,248,28874,1,0,0:0:0:0:
460,304,28963,2,0,L|444:376,1,70,0|0,0:0|0:0,0:0:0:0:
320,280,29139,1,0,0:0:0:0:
275,314,29227,1,0,0:0:0:0:
225,339,29316,2,0,L|154:361,1,70,0|0,0:0|0:0,0:0:0:0:
32,288,29492,2,0,L|102:265,1,70,0|0,0:0|0:0,0:0:0:0:
224,224,29669,5,0,0:0:0:0:
400,96,29845,2,0,L|460:40,1,70,0|0,0:0|0:0,0:0:0:0:
204,88,30021,2,0,L|264:32,2,70
92,172,30286,1,0,0:0:0:0:
48,208,30374,1,0,0:0:0:0:
24,260,30463,2,0,P|48:332|100:304,1,140,0|0,0:0|0:0,0:0:0:0:
224,224,30727,1,0,0:0:0:0:
276,180,30815,1,0,0:0:0:0:
344,160,30904,1,0,0:0:0:0:
412,164,30992,1,0,0:0:0:0:
480,188,31080,6,0,L|488:264,1,70,0|0,0:0|0:0,0:0:0:0:
504,372,31257,1,0,0:0:0:0:
504,372,31433,6,0,L|428:236,1,140,0|0,0:0|0:0,0:0:0:0:
400,188,31698,1,0,0:0:0:0:
364,128,31786,2,0,L|324:56,1,70,0|0,0:0|0:0,0:0:0:0:
224,40,31963,1,0,0:0:0:0:
200,84,32051,1,0,0:0:0:0:
176,128,32139,6,0,L|140:188,1,70,0|0,0:0|0:0,0:0:0:0:
8,204,32316,2,0,L|44:144,1,70,0|0,0:0|0:0,0:0:0:0:
80,308,32492,1,0,0:0:0:0:
256,348,32668,1,0,0:0:0:0:
432,308,32845,2,0,P|460:272|472:244,2,70,0|0|0,0:0|0:0|0:0,0:0:0:0:
336,264,33110,1,0,0:0:0:0:
268,256,33198,1,0,0:0:0:0:
204,228,33286,1,0,0:0:0:0:
156,176,33374,6,0,L|104:112,1,70,0|0,0:0|0:0,0:0:0:0:
284,80,33551,2,0,L|232:16,1,70,0|0,0:0|0:0,0:0:0:0:
480,80,33727,2,0,L|428:16,1,70,0|0,0:0|0:0,0:0:0:0:
480,264,33904,5,0,0:0:0:0:
368,368,34080,1,0,0:0:0:0:
256,264,34257,1,0,0:0:0:0:
144,368,34433,1,0,0:0:0:0:
84,320,34521,1,0,0:0:0:0:
32,264,34610,6,0,L|32:188,1,70,0|0,0:0|0:0,0:0:0:0:
168,136,34786,2,0,L|168:60,1,70,0|0,0:0|0:0,0:0:0:0:
256,332,34963,2,0,L|256:256,1,70,0|0,0:0|0:0,0:0:0:0:
392,204,35139,2,0,L|392:128,1,70,0|0,0:0|0:0,0:0:0:0:
256,16,35316,6,0,L|176:8,1,70,0|0,0:0|0:0,0:0:0:0:
12,112,35492,2,0,L|81:118,1,70,0|0,0:0|0:0,0:0:0:0:
265,146,35669,2,0,B|340:160|392:204,1,140,0|0,0:0|0:0,0:0:0:0:
460,320,35933,2,0,L|492:396,1,70,0|0,0:0|0:0,0:0:0:0:
352,336,36110,1,0,0:0:0:0:
352,336,36198,2,0,P|276:360|200:344,1,140,0|0,0:0|0:0,0:0:0:0:
104,312,36463,1,0,0:0:0:0:
104,312,36551,2,0,L|80:216,1,70,0|0,0:0|0:0,0:0:0:0:
44,88,36727,5,0,0:0:0:0:
216,60,36904,1,0,0:0:0:0:
256,48,36992,1,0,0:0:0:0:
292,24,37080,1,0,0:0:0:0:
460,24,37257,1,0,0:0:0:0:
444,64,37345,1,0,0:0:0:0:
440,104,37433,1,0,0:0:0:0:
448,144,37521,1,0,0:0:0:0:
460,184,37610,1,0,0:0:0:0:
460,224,37698,1,0,0:0:0:0:
452,264,37786,5,0,0:0:0:0:
348,376,37963,1,0,0:0:0:0:
332,212,38139,1,0,0:0:0:0:
184,304,38316,1,0,0:0:0:0:
144,296,38404,1,0,0:0:0:0:
108,272,38492,1,0,0:0:0:0:
72,80,38669,1,0,0:0:0:0:
112,88,38757,1,0,0:0:0:0:
148,112,38845,1,0,0:0:0:0:
256,256,39021,1,0,0:0:0:0:
288,284,39110,1,0,0:0:0:0:
328,296,39198,1,0,0:0:0:0:
368,288,39286,1,0,0:0:0:0:
404,264,39374,1,0,0:0:0:0:
472,40,39551,5,0,0:0:0:0:
444,72,39639,1,0,0:0:0:0:
416,104,39727,1,0,0:0:0:0:
388,136,39816,1,0,0:0:0:0:
360,164,39904,1,0,0:0:0:0:
244,104,40080,1,0,0:0:0:0:
216,136,40169,1,0,0:0:0:0:
188,164,40257,1,0,0:0:0:0:
80,100,40433,1,0,0:0:0:0:
52,132,40522,1,0,0:0:0:0:
24,160,40610,1,0,0:0:0:0:
116,280,40786,5,0,0:0:0:0:
132,320,40874,1,0,0:0:0:0:
148,360,40963,1,0,0:0:0:0:
396,280,41139,1,0,0:0:0:0:
380,320,41227,1,0,0:0:0:0:
364,360,41316,1,0,0:0:0:0:
256,264,41492,1,0,0:0:0:0:
256,264,41580,1,0,0:0:0:0:
256,264,41669,5,0,0:0:0:0:
212,228,41757,1,0,0:0:0:0:
176,184,41845,1,0,0:0:0:0:
160,132,41933,1,0,0:0:0:0:
172,76,42021,1,0,0:0:0:0:
212,40,42110,1,0,0:0:0:0:
268,28,42198,1,0,0:0:0:0:
320,52,42286,1,0,0:0:0:0:
356,96,42374,5,0,0:0:0:0:
456,260,42551,1,0,0:0:0:0:
456,316,42639,1,0,0:0:0:0:
456,372,42727,1,0,0:0:0:0:
348,304,42904,1,0,0:0:0:0:
348,248,42992,1,0,0:0:0:0:
348,192,43080,1,0,0:0:0:0:
236,132,43257,1,0,0:0:0:0:
236,188,43345,1,0,0:0:0:0:
236,244,43433,1,0,0:0:0:0:
128,176,43610,1,0,0:0:0:0:
128,120,43698,1,0,0:0:0:0:
128,64,43786,1,0,0:0:0:0:
40,280,43963,6,0,L|88:332,1,70,0|0,0:0|0:0,0:0:0:0:
176,368,44139,2,0,P|152:292|164:216,1,140,0|0,0:0|0:0,0:0:0:0:
264,320,44404,1,0,0:0:0:0:
264,320,44492,2,0,P|356:356|408:352,1,140,0|0,0:0|0:0,0:0:0:0:
444,340,44757,1,0,0:0:0:0:
484,312,44845,1,0,0:0:0:0:
408,204,45021,1,0,0:0:0:0:
388,160,45110,1,0,0:0:0:0:
380,112,45198,6,0,L|376:24,1,70,0|0,0:0|0:0,0:0:0:0:
244,128,45374,2,0,L|196:53,1,70,0|0,0:0|0:0,0:0:0:0:
144,220,45551,2,0,L|65:179,1,70,0|0,0:0|0:0,0:0:0:0:
132,352,45727,2,0,L|44:356,1,70,0|0,0:0|0:0,0:0:0:0:
380,352,45904,2,0,L|449:355,1,70,0|0,0:0|0:0,0:0:0:0:
408,204,46080,2,0,L|459:156,1,70,0|0,0:0|0:0,0:0:0:0:
308,92,46257,2,0,L|311:22,1,70,0|0,0:0|0:0,0:0:0:0:
160,64,46433,2,0,L|112:12,1,70,0|0,0:0|0:0,0:0:0:0:
44,152,46610,5,0,0:0:0:0:
44,228,46698,1,0,0:0:0:0:
44,304,46786,1,0,0:0:0:0:
44,380,46874,1,0,0:0:0:0:
216,288,47051,5,0,0:0:0:0:
264,228,47139,1,0,0:0:0:0:
312,168,47227,1,0,0:0:0:0:
324,152,47316,1,0,0:0:0:0:
336,136,47404,1,0,0:0:0:0:
348,120,47492,1,0,0:0:0:0:
360,104,47580,1,0,0:0:0:0:
372,88,47669,1,0,0:0:0:0:
384,72,47757,1,0,0:0:0:0:
396,56,47845,1,0,0:0:0:0:
408,40,47933,1,0,0:0:0:0:
420,24,48021,6,0,L|432:176,1,140,0|0,0:0|0:0,0:0:0:0:
448,356,48374,1,0,0:0:0:0:
384,228,48551,1,0,0:0:0:0:
352,188,48639,1,0,0:0:0:0:
312,164,48727,2,0,P|232:136|144:144,1,140,0|0,0:0|0:0,0:0:0:0:
48,248,49080,1,0,0:0:0:0:
204,40,49257,1,0,0:0:0:0:
196,256,49433,2,0,P|168:328|112:384,1,140,0|0,0:0|0:0,0:0:0:0:
84,112,49786,1,0,0:0:0:0:
304,52,49963,5,0,0:0:0:0:
352,52,50051,1,0,0:0:0:0:
392,80,50139,1,0,0:0:0:0:
408,128,50227,1,0,0:0:0:0:
388,172,50316,5,0,0:0:0:0:
436,180,50404,1,0,0:0:0:0:
480,160,50492,5,0,0:0:0:0:
488,208,50580,1,0,0:0:0:0:
480,256,50669,1,0,0:0:0:0:
460,300,50757,1,0,0:0:0:0:
424,332,50845,1,0,0:0:0:0:
400,288,50933,1,0,0:0:0:0:
360,260,51021,1,0,0:0:0:0:
312,244,51110,1,0,0:0:0:0:
264,252,51198,5,0,0:0:0:0:
228,284,51286,1,0,0:0:0:0:
212,332,51374,1,0,0:0:0:0:
172,360,51463,1,0,0:0:0:0:
124,372,51551,1,0,0:0:0:0:
80,352,51639,1,0,0:0:0:0:
52,312,51727,1,0,0:0:0:0:
56,264,51816,1,0,0:0:0:0:
88,228,51904,5,0,0:0:0:0:
136,212,51992,1,0,0:0:0:0:
184,208,52080,1,0,0:0:0:0:
180,160,52169,1,0,0:0:0:0:
132,164,52257,5,0,0:0:0:0:
88,144,52345,1,0,0:0:0:0:
64,100,52433,1,0,0:0:0:0:
68,52,52521,1,0,0:0:0:0:
104,16,52610,1,0,0:0:0:0:
152,8,52698,1,0,0:0:0:0:
196,24,52786,1,0,0:0:0:0:
228,60,52874,1,0,0:0:0:0:
252,104,52963,6,0,L|288:188,1,70,0|0,0:0|0:0,0:0:0:0:
336,32,53139,2,0,L|372:116,1,70,0|0,0:0|0:0,0:0:0:0:
380,204,53316,2,0,L|416:288,1,70,0|0,0:0|0:0,0:0:0:0:
464,132,53492,2,0,L|500:216,1,70,0|0,0:0|0:0,0:0:0:0:
512,336,53669,6,0,P|440:376|248:304,1,280,0|0,0:0|0:0,0:0:0:0:
124,32,54198,1,0,0:0:0:0:
160,64,54286,1,0,0:0:0:0:
184,108,54374,2,0,P|204:204|196:264,1,140,0|0,0:0|0:0,0:0:0:0:
100,372,54727,1,0,0:0:0:0:
96,188,54904,1,0,0:0:0:0:
476,184,55080,2,0,P|485:108|372:184,1,280,0|0,0:0|0:0,0:0:0:0:
424,292,55610,2,0,L|372:360,1,70,0|0,0:0|0:0,0:0:0:0:
280,336,55786,5,0,0:0:0:0:
220,348,55874,1,0,0:0:0:0:
156,344,55963,1,0,0:0:0:0:
100,316,56051,1,0,0:0:0:0:
60,268,56139,1,0,0:0:0:0:
48,208,56227,1,0,0:0:0:0:
60,144,56316,1,0,0:0:0:0:
100,96,56404,1,0,0:0:0:0:
148,56,56492,5,0,0:0:0:0:
192,100,56580,1,0,0:0:0:0:
232,148,56669,1,0,0:0:0:0:
276,192,56757,1,0,0:0:0:0:
316,240,56845,5,0,0:0:0:0:
376,260,56933,1,0,0:0:0:0:
436,248,57021,1,0,0:0:0:0:
472,196,57110,1,0,0:0:0:0:
472,132,57198,1,0,0:0:0:0:
440,80,57286,1,0,0:0:0:0:
376,64,57374,1,0,0:0:0:0:
316,84,57463,1,0,0:0:0:0:
280,136,57551,1,0,0:0:0:0:
280,200,57639,1,0,0:0:0:0:
276,264,57727,1,0,0:0:0:0:
256,324,57816,1,0,0:0:0:0:
200,356,57904,6,0,L|128:376,1,70,0|0,0:0|0:0,0:0:0:0:
104,264,58080,2,0,L|32:284,1,70,0|0,0:0|0:0,0:0:0:0:
192,136,58257,2,0,L|120:156,1,70,0|0,0:0|0:0,0:0:0:0:
96,44,58433,2,0,L|24:64,1,70,0|0,0:0|0:0,0:0:0:0:
252,12,58610,5,0,0:0:0:0:
316,16,58698,1,0,0:0:0:0:
376,40,58786,1,0,0:0:0:0:
412,92,58874,1,0,0:0:0:0:
432,152,58963,1,0,0:0:0:0:
416,212,59051,1,0,0:0:0:0:
380,264,59139,1,0,0:0:0:0:
320,288,59227,1,0,0:0:0:0:
256,292,59316,6,0,L|96:272,1,140,0|0,0:0|0:0,0:0:0:0:
256,92,59669,2,0,L|416:112,1,140,0|0,0:0|0:0,0:0:0:0:
380,376,60021,5,0,0:0:0:0:
468,228,60198,1,0,0:0:0:0:
132,8,60374,1,0,0:0:0:0:
44,156,60551,1,0,0:0:0:0:
60,356,60727,5,0,0:0:0:0:
144,356,60816,1,0,0:0:0:0:
228,356,60904,1,0,0:0:0:0:
312,356,60992,1,0,0:0:0:0:
396,356,61080,1,0,0:0:0:0:
472,320,61169,1,0,0:0:0:0:
504,244,61257,1,0,0:0:0:0:
472,168,61345,1,0,0:0:0:0:
392,140,61433,6,0,L|172:140,1,210,0|0,0:0|0:0,0:0:0:0:
52,140,61786,2,0,L|16:140,3,35,0|0|0|0,0:0|0:0|0:0|0:0,0:0:0:0:
32,100,61963,1,0,0:0:0:0:
32,100,62139,6,0,L|184:44,1,140,0|0,0:0|0:0,0:0:0:0:
216,28,62404,1,0,0:0:0:0:
268,8,62492,2,0,L|236:88,1,70,0|0,0:0|0:0,0:0:0:0:
200,212,62669,1,0,0:0:0:0:
252,192,62757,2,0,L|196:336,1,140,0|0,0:0|0:0,0:0:0:0:
296,280,63021,1,0,0:0:0:0:
348,256,63110,1,0,0:0:0:0:
404,260,63198,1,0,0:0:0:0:
448,292,63286,1,0,0:0:0:0:
472,344,63374,1,0,0:0:0:0:
416,340,63463,5,0,0:0:0:0:
496,144,63639,1,0,0:0:0:0:
360,48,63816,1,0,0:0:0:0:
304,36,63904,1,0,0:0:0:0:
324,88,63992,1,0,0:0:0:0:
328,144,64080,1,0,0:0:0:0:
304,196,64169,5,0,0:0:0:0:
144,300,64345,1,0,0:0:0:0:
72,140,64521,1,0,0:0:0:0:
72,140,64610,2,0,L|32:48,1,70,0|0,0:0|0:0,0:0:0:0:
236,228,64786,2,0,L|263:292,1,70,0|0,0:0|0:0,0:0:0:0:
404,376,64963,6,0,L|404:296,1,70,0|0,0:0|0:0,0:0:0:0:
404,188,65139,1,0,0:0:0:0:
392,140,65227,1,0,0:0:0:0:
360,100,65316,1,0,0:0:0:0:
316,76,65404,1,0,0:0:0:0:
268,76,65492,1,0,0:0:0:0:
224,96,65580,2,0,P|144:128|72:112,1,140,0|0,0:0|0:0,0:0:0:0:
224,208,65845,1,0,0:0:0:0:
264,236,65933,1,0,0:0:0:0:
296,276,66021,2,0,P|316:320|324:360,1,70,0|0,0:0|0:0,0:0:0:0:
192,336,66198,1,0,0:0:0:0:
192,336,66286,1,0,0:0:0:0:
24,372,66463,1,0,0:0:0:0:
100,212,66639,5,0,0:0:0:0:
112,164,66727,1,0,0:0:0:0:
112,116,66816,1,0,0:0:0:0:
104,68,66904,1,0,0:0:0:0:
84,24,66992,1,0,0:0:0:0:
188,160,67169,5,0,0:0:0:0:
224,208,67257,1,0,0:0:0:0:
276,244,67345,1,0,0:0:0:0:
336,260,67433,1,0,0:0:0:0:
400,260,67521,1,0,0:0:0:0:
460,244,67610,1,0,0:0:0:0:
504,200,67698,1,0,0:0:0:0:
444,176,67786,6,0,P|400:132|364:44,1,140,0|0,0:0|0:0,0:0:0:0:
264,16,68051,1,0,0:0:0:0:
264,16,68139,2,0,P|256:85|273:152,1,140,0|0,0:0|0:0,0:0:0:0:
400,324,68404,1,0,0:0:0:0:
400,324,68492,2,0,L|464:364,2,70,0|0|0,0:0|0:0|0:0,0:0:0:0:
340,308,68757,1,0,0:0:0:0:
276,312,68845,1,0,0:0:0:0:
224,348,68933,1,0,0:0:0:0:
160,352,69021,1,0,0:0:0:0:
104,324,69110,1,0,0:0:0:0:
76,268,69198,6,0,L|44:104,1,140,0|0,0:0|0:0,0:0:0:0:
136,44,69463,1,0,0:0:0:0:
136,44,69551,2,0,L|162:181,1,140,0|0,0:0|0:0,0:0:0:0:
176,240,69816,1,0,0:0:0:0:
212,292,69904,5,0,0:0:0:0:
264,324,69992,1,0,0:0:0:0:
328,332,70080,1,0,0:0:0:0:
392,320,70169,1,0,0:0:0:0:
444,284,70257,5,0,0:0:0:0:
392,248,70345,1,0,0:0:0:0:
352,200,70433,1,0,0:0:0:0:
332,140,70521,1,0,0:0:0:0:
328,76,70610,6,0,L|328:4,1,70,0|0,0:0|0:0,0:0:0:0:
208,196,70786,2,0,L|208:268,1,70,0|0,0:0|0:0,0:0:0:0:
404,96,70963,6,0,L|440:33,1,70,0|0,0:0|0:0,0:0:0:0:
132,176,71139,2,0,L|96:238,1,70,0|0,0:0|0:0,0:0:0:0:
444,168,71316,6,0,L|506:132,1,70,0|0,0:0|0:0,0:0:0:0:
92,104,71492,2,0,L|29:140,1,70,0|0,0:0|0:0,0:0:0:0:
436,252,71669,6,0,L|508:252,1,70,0|0,0:0|0:0,0:0:0:0:
100,20,71845,2,0,L|28:20,1,70,0|0,0:0|0:0,0:0:0:0:
44,192,72021,5,0,0:0:0:0:
52,284,72110,1,0,0:0:0:0:
112,352,72198,1,0,0:0:0:0:
200,368,72286,1,0,0:0:0:0:
284,340,72374,1,0,0:0:0:0:
332,264,72463,1,0,0:0:0:0:
328,172,72551,1,0,0:0:0:0:
276,100,72639,1,0,0:0:0:0:
188,80,72727,6,0,L|188:176,1,70,0|0,0:0|0:0,0:0:0:0:
200,324,72904,2,0,L|200:352,5,23.3333333333333,0|0|0|0|0|0,0:0|0:0|0:0|0:0|0:0|0:0,0:0:0:0:
200,288,73080,6,0,P|245:193|348:128,1,210.000008010865,0|0,0:0|0:0,0:0:0:0:
492,384,73433,1,0,0:0:0:0:
32,336,79080,5,0,0:0:0:0:
120,228,79257,1,0,0:0:0:0:
200,344,79433,1,0,0:0:0:0:
276,176,79610,1,0,0:0:0:0:
276,176,79698,2,0,P|376:168|408:144,1,140,0|0,0:0|0:0,0:0:0:0:
436,108,79963,1,0,0:0:0:0:
452,64,80051,1,0,0:0:0:0:
452,16,80139,5,0,0:0:0:0:
276,44,80316,1,0,0:0:0:0:
192,172,80492,1,0,0:0:0:0:
200,344,80669,1,0,0:0:0:0:
152,336,80757,1,0,0:0:0:0:
108,312,80845,6,0,P|52:244|44:176,1,140,0|0,0:0|0:0,0:0:0:0:
48,144,81110,1,0,0:0:0:0:
268,248,81286,1,0,0:0:0:0:
268,248,81374,1,0,0:0:0:0:
152,72,81551,1,0,0:0:0:0:
188,40,81639,1,0,0:0:0:0:
236,28,81727,1,0,0:0:0:0:
440,124,81904,5,0,0:0:0:0:
400,336,82080,1,0,0:0:0:0:
264,156,82257,1,0,0:0:0:0:
496,264,82433,1,0,0:0:0:0:
496,264,82521,1,0,0:0:0:0:
284,280,82698,1,0,0:0:0:0:
228,284,82786,1,0,0:0:0:0:
176,300,82874,1,0,0:0:0:0:
132,336,82963,5,0,0:0:0:0:
216,136,83139,1,0,0:0:0:0:
396,200,83316,2,0,L|424:264,2,70,0|0|0,0:0|0:0|0:0,0:0:0:0:
336,84,83580,2,0,P|280:20|204:0,1,140,0|0,0:0|0:0,0:0:0:0:
100,16,83845,6,0,L|28:20,1,70,0|0,0:0|0:0,0:0:0:0:
96,140,84021,1,0,0:0:0:0:
168,188,84110,1,0,0:0:0:0:
236,240,84198,1,0,0:0:0:0:
304,288,84286,1,0,0:0:0:0:
372,336,84374,2,0,L|408:356,5,23.3333333333333,0|0|0|0|0|0,0:0|0:0|0:0|0:0|0:0|0:0,0:0:0:0:
448,328,84551,5,0,0:0:0:0:
304,160,84727,1,0,0:0:0:0:
512,212,84904,1,0,0:0:0:0:
304,288,85080,1,0,0:0:0:0:
428,112,85257,1,0,0:0:0:0:
428,112,85345,1,0,0:0:0:0:
256,32,85521,5,0,0:0:0:0:
48,72,85698,1,0,0:0:0:0:
48,72,85786,1,0,0:0:0:0:
232,212,85963,1,0,0:0:0:0:
24,360,86139,5,0,0:0:0:0:
124,96,86316,1,0,0:0:0:0:
312,308,86492,1,0,0:0:0:0:
152,236,86669,1,0,0:0:0:0:
152,236,86757,1,0,0:0:0:0:
256,68,86933,1,0,0:0:0:0:
360,236,87110,1,0,0:0:0:0:
360,236,87198,1,0,0:0:0:0:
256,384,87374,1,0,0:0:0:0:
472,268,87551,5,0,0:0:0:0:
396,72,87727,1,0,0:0:0:0:
208,192,87904,1,0,0:0:0:0:
364,336,88080,1,0,0:0:0:0:
364,336,88169,1,0,0:0:0:0:
296,136,88345,1,0,0:0:0:0:
88,72,88521,1,0,0:0:0:0:
88,72,88610,1,0,0:0:0:0:
356,16,88786,1,0,0:0:0:0:
276,292,88963,5,0,0:0:0:0:
120,144,89139,1,0,0:0:0:0:
64,352,89316,1,0,0:0:0:0:
256,172,89492,1,0,0:0:0:0:
256,172,89580,1,0,0:0:0:0:
192,384,89757,1,0,0:0:0:0:
20,232,89933,1,0,0:0:0:0:
20,232,90021,1,0,0:0:0:0:
348,220,90198,1,0,0:0:0:0:
172,0,90374,5,0,0:0:0:0:
320,124,90551,1,0,0:0:0:0:
484,8,90727,1,0,0:0:0:0:
456,188,90904,2,0,L|441:256,1,70
256,376,91169,1,0,0:0:0:0:
70,256,91345,2,0,L|56:188,1,70
24,44,91610,1,0,0:0:0:0:
400,320,91786,5,0,0:0:0:0:
412,64,91963,1,0,0:0:0:0:
236,276,92139,1,0,0:0:0:0:
464,176,92316,1,0,0:0:0:0:
400,180,92404,1,0,0:0:0:0:
340,156,92492,1,0,0:0:0:0:
304,104,92580,1,0,0:0:0:0:
244,88,92669,1,0,0:0:0:0:
184,112,92757,1,0,0:0:0:0:
172,172,92845,1,0,0:0:0:0:
464,176,93021,2,0,L|476:256,1,70
488,320,93198,6,0,L|408:324,1,70
256,356,93374,2,0,L|176:360,1,70
24,216,93551,6,0,L|104:220,1,70
256,252,93727,2,0,L|336:256,1,70
488,116,93904,6,0,L|408:120,1,70
256,152,94080,2,0,L|176:156,1,70
24,12,94257,6,0,L|104:16,1,70
256,48,94433,2,0,L|336:52,1,70
480,192,94610,5,0,0:0:0:0:
488,276,94698,1,0,0:0:0:0:
440,344,94786,1,0,0:0:0:0:
356,348,94874,1,0,0:0:0:0:
296,288,94963,1,0,0:0:0:0:
284,204,95051,1,0,0:0:0:0:
236,136,95139,1,0,0:0:0:0:
156,116,95227,1,0,0:0:0:0:
80,152,95316,5,0,0:0:0:0:
48,228,95404,1,0,0:0:0:0:
72,308,95492,1,0,0:0:0:0:
144,352,95580,1,0,0:0:0:0:
228,340,95669,1,0,0:0:0:0:
296,288,95757,1,0,0:0:0:0:
352,224,95845,1,0,0:0:0:0:
384,148,95933,1,0,0:0:0:0:
396,64,96021,6,0,P|444:48|512:56,1,105.000004005432
236,136,96198,2,0,P|190:113|148:59,1,105.000004005432
464,240,96374,2,0,P|456:300|436:348,1,105.000004005432
144,352,96551,2,0,P|152:292|172:244,1,105.000004005432
332,176,96727,6,0,P|328:104|308:60,1,105.000004005432
88,168,96904,2,0,P|92:240|112:284,1,105.000004005432
340,268,97080,2,0,P|392:240|420:196,1,105.000004005432
80,80,97257,2,0,P|28:107|0:151,1,105.000004005432,0|0,0:0|0:0,0:0:0:0:
60,328,97433,5,0,0:0:0:0:
148,360,97521,1,0,0:0:0:0:
244,348,97610,1,0,0:0:0:0:
320,292,97698,1,0,0:0:0:0:
356,204,97786,5,0,0:0:0:0:
328,116,97874,1,0,0:0:0:0:
256,52,97963,1,0,0:0:0:0:
164,68,98051,1,0,0:0:0:0:
136,156,98139,5,0,0:0:0:0:
200,224,98227,1,0,0:0:0:0:
292,204,98316,1,0,0:0:0:0:
328,116,98404,1,0,0:0:0:0:
420,92,98492,5,0,0:0:0:0:
496,144,98580,1,0,0:0:0:0:
508,240,98669,1,0,0:0:0:0:
448,312,98757,1,0,0:0:0:0:
356,324,98845,6,0,P|288:312|248:276,1,105.000004005432
64,112,99021,2,0,P|124:84|172:80,1,105.000004005432
120,300,99198,2,0,P|104:340|56:380,1,105.000004005432
228,140,99374,2,0,P|244:100|292:60,1,105.000004005432
432,204,99551,6,0,L|484:312,1,105.000004005432
224,256,99727,2,0,P|168:236|128:192,1,105.000004005432
380,80,99904,2,0,P|448:72|496:84,1,105.000004005432
284,352,100080,2,0,P|216:360|167:348,1,105.000004005432
48,204,100257,5,0,0:0:0:0:
64,112,100345,1,0,0:0:0:0:
132,48,100433,1,0,0:0:0:0:
224,36,100521,1,0,0:0:0:0:
300,92,100610,5,0,0:0:0:0:
304,188,100698,1,0,0:0:0:0:
276,276,100786,1,0,0:0:0:0:
324,356,100874,1,0,0:0:0:0:
416,340,100963,5,0,0:0:0:0:
440,248,101051,1,0,0:0:0:0:
392,168,101139,1,0,0:0:0:0:
304,132,101227,1,0,0:0:0:0:
208,140,101316,5,0,0:0:0:0:
132,200,101404,1,0,0:0:0:0:
120,292,101492,1,0,0:0:0:0:
196,344,101580,1,0,0:0:0:0:
280,316,101669,6,0,P|308:268|308:212,1,105.000004005432
96,88,101845,2,0,P|68:136|68:192,1,105.000004005432
392,300,102021,2,0,L|500:356,1,105.000004005432
116,328,102198,2,0,P|132:260|172:224,1,105.000004005432
423,82,102374,6,0,P|457:122|472:172,1,105.000004005432
216,116,102551,2,0,P|228:52|268:4,1,105.000004005432
332,372,102727,2,0,P|276:380|224:360,1,105.000004005432
56,160,102904,2,0,P|112:152|164:172,1,105.000004005432
296,312,103080,5,0,0:0:0:0:
376,360,103169,1,0,0:0:0:0:
464,332,103257,1,0,0:0:0:0:
496,244,103345,1,0,0:0:0:0:
460,156,103433,5,0,0:0:0:0:
372,128,103521,1,0,0:0:0:0:
280,160,103610,1,0,0:0:0:0:
216,228,103698,1,0,0:0:0:0:
144,288,103786,5,0,0:0:0:0:
52,268,103874,1,0,0:0:0:0:
20,180,103963,1,0,0:0:0:0:
68,100,104051,1,0,0:0:0:0:
156,72,104139,5,0,0:0:0:0:
240,112,104227,1,0,0:0:0:0:
336,116,104316,1,0,0:0:0:0:
428,88,104404,1,0,0:0:0:0:
492,16,104492,6,0,L|492:132,1,105.000004005432
360,64,104669,2,0,L|360:180,1,105.000004005432
240,112,104845,2,0,L|240:228,1,105.000004005432
108,160,105022,2,0,L|108:276,1,105.000004005432
300,360,105198,6,0,L|300:244,1,105.000004005432
448,296,105374,2,0,L|448:180,1,105.000004005432,0|0,0:0|0:0,0:0:0:0:
176,208,105551,2,0,L|176:92,1,105.000004005432,0|0,0:0|0:0,0:0:0:0:
32,124,105728,2,0,L|32:8,1,105.000004005432
228,32,105904,5,0,0:0:0:0:
404,136,106080,1,0,0:0:0:0:
460,212,106169,1,0,0:0:0:0:
468,304,106257,1,0,0:0:0:0:
240,264,106433,1,0,0:0:0:0:
240,264,106521,1,0,0:0:0:0:
56,368,106698,5,0,0:0:0:0:
24,280,106786,1,0,0:0:0:0:
40,188,106874,1,0,0:0:0:0:
104,116,106963,1,0,0:0:0:0:
192,88,107051,1,0,0:0:0:0:
284,96,107139,2,0,L|396:128,1,105.000004005432
408,260,107316,5,0,0:0:0:0:
400,320,107404,1,0,0:0:0:0:
360,364,107492,1,0,0:0:0:0:
296,372,107580,1,0,0:0:0:0:
240,340,107669,1,0,0:0:0:0:
216,284,107757,1,0,0:0:0:0:
232,224,107845,1,0,0:0:0:0:
284,188,107933,1,0,0:0:0:0:
348,188,108021,5,0,0:0:0:0:
404,160,108110,1,0,0:0:0:0:
420,100,108198,1,0,0:0:0:0:
400,40,108286,1,0,0:0:0:0:
344,8,108374,1,0,0:0:0:0:
280,8,108463,1,0,0:0:0:0:
236,52,108551,1,0,0:0:0:0:
224,112,108639,1,0,0:0:0:0:
176,156,108727,5,0,0:0:0:0:
80,168,108816,1,0,0:0:0:0:
32,248,108904,1,0,0:0:0:0:
56,340,108992,1,0,0:0:0:0:
144,372,109080,1,0,0:0:0:0:
228,324,109169,1,0,0:0:0:0:
320,308,109257,1,0,0:0:0:0:
408,340,109345,1,0,0:0:0:0:
488,292,109433,5,0,0:0:0:0:
508,200,109521,1,0,0:0:0:0:
440,132,109610,1,0,0:0:0:0:
344,136,109698,1,0,0:0:0:0:
292,212,109786,1,0,0:0:0:0:
200,236,109874,1,0,0:0:0:0:
116,188,109963,1,0,0:0:0:0:
104,96,110051,1,0,0:0:0:0:
168,28,110139,5,0,0:0:0:0:
228,16,110227,1,0,0:0:0:0:
292,28,110316,1,0,0:0:0:0:
332,76,110404,1,0,0:0:0:0:
344,136,110492,1,0,0:0:0:0:
308,188,110580,1,0,0:0:0:0:
248,204,110669,1,0,0:0:0:0:
192,240,110757,1,0,0:0:0:0:
180,300,110845,5,0,0:0:0:0:
200,344,110933,1,0,0:0:0:0:
252,380,111021,1,0,0:0:0:0:
316,376,111110,1,0,0:0:0:0:
372,352,111198,1,0,0:0:0:0:
408,300,111286,1,0,0:0:0:0:
412,236,111374,1,0,0:0:0:0:
392,176,111463,1,0,0:0:0:0:
344,136,111551,5,0,0:0:0:0:
248,140,111639,1,0,0:0:0:0:
184,212,111727,1,0,0:0:0:0:
92,244,111816,1,0,0:0:0:0:
12,192,111904,1,0,0:0:0:0:
8,96,111992,1,0,0:0:0:0:
68,24,112080,1,0,0:0:0:0:
160,0,112169,1,0,0:0:0:0:
256,4,112257,5,0,0:0:0:0:
344,40,112345,1,0,0:0:0:0:
416,100,112433,1,0,0:0:0:0:
472,176,112521,1,0,0:0:0:0:
484,272,112610,1,0,0:0:0:0:
420,340,112698,1,0,0:0:0:0:
328,332,112786,1,0,0:0:0:0:
280,252,112874,1,0,0:0:0:0:
316,164,112963,5,0,0:0:0:0:
376,148,113051,1,0,0:0:0:0:
424,188,113139,1,0,0:0:0:0:
412,248,113227,1,0,0:0:0:0:
352,272,113316,1,0,0:0:0:0:
288,264,113404,1,0,0:0:0:0:
224,272,113492,1,0,0:0:0:0:
172,304,113580,1,0,0:0:0:0:
136,356,113669,5,0,0:0:0:0:
72,364,113757,1,0,0:0:0:0:
28,320,113845,1,0,0:0:0:0:
32,256,113933,1,0,0:0:0:0:
80,216,114021,1,0,0:0:0:0:
144,220,114110,1,0,0:0:0:0:
204,200,114198,1,0,0:0:0:0:
240,148,114286,1,0,0:0:0:0:
240,84,114374,5,0,0:0:0:0:
164,28,114463,1,0,0:0:0:0:
80,72,114551,1,0,0:0:0:0:
56,164,114639,1,0,0:0:0:0:
88,252,114727,1,0,0:0:0:0:
156,316,114816,1,0,0:0:0:0:
248,336,114904,1,0,0:0:0:0:
340,324,114992,1,0,0:0:0:0:
424,280,115080,5,0,0:0:0:0:
480,204,115169,1,0,0:0:0:0:
484,108,115257,1,0,0:0:0:0:
424,36,115345,1,0,0:0:0:0:
332,56,115433,1,0,0:0:0:0:
296,144,115521,1,0,0:0:0:0:
300,240,115610,1,0,0:0:0:0:
340,324,115698,1,0,0:0:0:0:
420,372,115786,5,0,0:0:0:0:
480,348,115874,1,0,0:0:0:0:
504,288,115963,1,0,0:0:0:0:
488,228,116051,1,0,0:0:0:0:
432,200,116139,1,0,0:0:0:0:
372,212,116227,1,0,0:0:0:0:
316,180,116316,1,0,0:0:0:0:
308,116,116404,1,0,0:0:0:0:
348,68,116492,6,0,L|476:52,1,105.000004005432
164,68,116669,2,0,L|36:52,1,105.000004005432
372,212,116845,2,0,L|472:248,1,105.000004005432
140,212,117021,2,0,L|40:248,1,105.000004005432
256,344,117198,5,0,0:0:0:0:
368,304,117286,1,0,0:0:0:0:
408,192,117374,1,0,0:0:0:0:
368,80,117463,1,0,0:0:0:0:
256,40,117551,5,0,0:0:0:0:
144,80,117639,1,0,0:0:0:0:
104,192,117727,1,0,0:0:0:0:
144,304,117816,1,0,0:0:0:0:
256,344,117904,6,0,P|392:260|420:64,1,357.000006809235
256,40,118257,2,0,P|120:124|92:320,1,357.000006809235
256,192,118610,5,0,0:0:0:0:
348,88,118786,1,0,0:0:0:0:
348,88,118874,1,0,0:0:0:0:
348,88,118963,1,0,0:0:0:0:
484,64,119139,1,0,0:0:0:0:
432,192,119316,5,0,0:0:0:0:
484,320,119492,1,0,0:0:0:0:
484,320,119580,1,0,0:0:0:0:
484,320,119669,1,0,0:0:0:0:
348,296,119845,1,0,0:0:0:0:
128,360,120021,5,0,0:0:0:0:
32,192,120198,1,0,0:0:0:0:
32,192,120286,1,0,0:0:0:0:
32,192,120374,1,0,0:0:0:0:
128,24,120551,1,0,0:0:0:0:
256,276,120727,5,0,0:0:0:0:
384,24,120904,1,0,0:0:0:0:
384,24,120992,1,0,0:0:0:0:
384,24,121080,1,0,0:0:0:0:
480,192,121257,1,0,0:0:0:0:
256,48,121433,5,0,0:0:0:0:
136,300,121610,1,0,0:0:0:0:
136,300,121698,1,0,0:0:0:0:
136,300,121786,1,0,0:0:0:0:
44,104,121963,1,0,0:0:0:0:
256,48,122139,5,0,0:0:0:0:
376,300,122316,1,0,0:0:0:0:
376,300,122404,1,0,0:0:0:0:
376,300,122492,1,0,0:0:0:0:
468,104,122669,1,0,0:0:0:0:
256,364,122845,6,0,P|240:280|188:228,1,140
144,204,123110,1,0,0:0:0:0:
88,160,123198,2,0,P|48:92|48:24,1,140
465,32,123551,6,0,P|461:101|424:160,1,140
368,204,123815,1,0,0:0:0:0:
304,236,123904,1,0,0:0:0:0:
268,296,123992,1,0,0:0:0:0:
256,364,124080,1,0,0:0:0:0:
468,348,124257,6,0,P|392:312|340:132,1,280
44,348,124786,2,0,P|120:312|172:132,1,280
256,224,125316,2,0,L|256:368,1,140
256,32,125669,1,0,0:0:0:0:
116,44,125845,1,0,0:0:0:0:
32,156,126021,1,0,0:0:0:0:
40,296,126198,1,0,0:0:0:0:
180,280,126374,1,0,0:0:0:0:
268,172,126551,1,0,0:0:0:0:
256,32,126727,5,0,0:0:0:0:
392,64,126904,1,0,0:0:0:0:
456,96,126992,1,0,0:0:0:0:
480,160,127080,5,0,0:0:0:0:
452,184,127169,1,0,0:0:0:0:
424,204,127257,1,0,0:0:0:0:
396,224,127345,1,0,0:0:0:0:
368,244,127433,1,0,0:0:0:0:
340,264,127521,1,0,0:0:0:0:
312,284,127610,1,0,0:0:0:0:
284,304,127698,1,0,0:0:0:0:
256,324,127786,1,0,0:0:0:0:
228,304,127874,1,0,0:0:0:0:
200,284,127962,1,0,0:0:0:0:
172,264,128051,1,0,0:0:0:0:
144,244,128139,1,0,0:0:0:0:
116,224,128227,1,0,0:0:0:0:
88,204,128315,1,0,0:0:0:0:
60,184,128403,1,0,0:0:0:0:
32,160,128492,5,0,0:0:0:0:
256,12,128757,1,0,0:0:0:0:
480,160,129021,1,0,0:0:0:0:
440,104,129110,1,0,0:0:0:0:
376,72,129198,1,0,0:0:0:0:
308,76,129286,1,0,0:0:0:0:
256,128,129374,1,0,0:0:0:0:
204,76,129463,1,0,0:0:0:0:
136,72,129551,1,0,0:0:0:0:
72,104,129639,1,0,0:0:0:0:
32,160,129727,2,0,L|8:240,1,70
128,300,129904,6,0,P|256:368|396:296,1,315.000012016297
256,192,130521,12,0,134139,0:0:0:0:
