osu file format v13

[General]
AudioFilename: Memme - unison system.mp3
AudioLeadIn: 0
PreviewTime: 38723
Countdown: 0
SampleSet: Normal
StackLeniency: 0.7
Mode: 1
LetterboxInBreaks: 0
WidescreenStoryboard: 1

[Editor]
Bookmarks: 13949,26336,32529,38723,72787,75884,82078,123884
DistanceSpacing: 1
BeatDivisor: 4
GridSize: 32
TimelineZoom: 2.8

[Metadata]
Title:Unison System
TitleUnicode:Unison System
Artist:Memme
ArtistUnicode:Memme
Creator:[I]MMoRTal[S]
Version:Oni
Source:O2jam U
Tags:qoot8123 lZenxl aabc271
BeatmapID:443506
BeatmapSetID:185529

[Difficulty]
HPDrainRate:5
CircleSize:5
OverallDifficulty:5
ApproachRate:5
SliderMultiplier:1.4
SliderTickRate:1

[Events]
//Background and Video events
0,0,"BG.jpg",0,0
//Break Periods
//Storyboard Layer 0 (Background)
//Storyboard Layer 1 (Fail)
//Storyboard Layer 2 (Pass)
//Storyboard Layer 3 (Foreground)
//Storyboard Sound Samples

[TimingPoints]
1550,387.096774193548,4,1,0,100,1,0
26324,-100,4,1,0,80,0,0
38711,-100,4,1,0,100,0,1
63485,-100,4,1,0,100,0,0
75872,-100,4,1,0,80,0,0
88259,-100,4,1,0,100,0,1
113033,-100,4,1,0,100,0,0

[HitObjects]
32,192,1550,5,4,0:0:0:0:
96,96,2130,1,0,0:0:0:0:
160,128,2711,1,8,0:0:0:0:
224,192,3098,1,0,0:0:0:0:
192,256,3291,1,0,0:0:0:0:
288,224,3679,1,0,0:0:0:0:
352,96,4259,1,8,0:0:0:0:
416,160,4453,1,0,0:0:0:0:
480,192,4646,1,0,0:0:0:0:
32,160,5227,1,0,0:0:0:0:
256,160,5614,1,0,0:0:0:0:
96,160,5808,1,8,0:0:0:0:
288,256,6388,1,0,0:0:0:0:
192,288,6582,1,8,0:0:0:0:
352,320,6775,1,0,0:0:0:0:
288,160,6969,1,0,0:0:0:0:
288,320,7162,1,8,0:0:0:0:
288,256,7356,1,8,0:0:0:0:
352,224,7549,1,8,0:0:0:0:
384,256,7743,1,0,0:0:0:0:
384,128,8324,1,0,0:0:0:0:
128,160,8904,1,8,0:0:0:0:
192,256,9291,1,0,0:0:0:0:
128,256,9485,1,0,0:0:0:0:
288,224,9872,1,0,0:0:0:0:
224,160,10453,1,8,0:0:0:0:
320,128,10646,1,0,0:0:0:0:
224,96,10840,1,0,0:0:0:0:
384,96,11420,1,8,0:0:0:0:
224,288,11808,1,0,0:0:0:0:
384,288,11904,1,0,0:0:0:0:
416,224,12001,1,8,0:0:0:0:
320,256,12291,1,0,0:0:0:0:
256,192,12388,1,8,0:0:0:0:
160,192,12582,1,4,0:0:0:0:
288,128,12969,1,8,0:0:0:0:
160,128,13162,1,0,0:0:0:0:
384,96,13356,1,8,0:0:0:0:
416,160,13549,1,8,0:0:0:0:
416,224,13743,1,0,0:0:0:0:
256,288,13937,1,4,0:0:0:0:
64,288,14324,1,8,0:0:0:0:
64,288,14517,1,0,0:0:0:0:
64,288,14904,1,0,0:0:0:0:
64,288,15098,1,8,0:0:0:0:
384,288,15679,1,0,0:0:0:0:
384,288,15872,1,8,0:0:0:0:
384,288,16066,1,0,0:0:0:0:
384,288,16453,1,0,0:0:0:0:
384,288,16646,1,8,0:0:0:0:
224,192,17033,1,0,0:0:0:0:
224,192,17420,1,8,0:0:0:0:
224,192,17614,1,0,0:0:0:0:
352,128,18001,1,8,0:0:0:0:
320,96,18195,1,8,0:0:0:0:
256,96,18582,1,0,0:0:0:0:
352,224,18775,1,0,0:0:0:0:
384,288,18969,1,8,0:0:0:0:
352,224,19162,1,0,0:0:0:0:
288,256,19356,1,0,0:0:0:0:
224,320,19549,1,0,0:0:0:0:
224,192,19743,1,8,0:0:0:0:
160,256,19937,1,8,0:0:0:0:
160,256,20130,1,0,0:0:0:0:
160,224,20517,1,8,0:0:0:0:
192,96,20711,1,0,0:0:0:0:
128,128,21098,1,0,0:0:0:0:
320,128,21291,1,8,0:0:0:0:
416,224,21485,1,8,0:0:0:0:
320,192,21679,1,4,0:0:0:0:
288,256,22066,1,8,0:0:0:0:
256,192,22259,1,0,0:0:0:0:
384,256,22646,1,0,0:0:0:0:
448,192,22840,1,8,0:0:0:0:
384,192,23033,1,8,0:0:0:0:
416,96,23227,1,12,0:0:0:0:
320,128,23420,1,0,0:0:0:0:
224,128,23614,1,8,0:0:0:0:
192,192,23808,1,0,0:0:0:0:
256,256,24195,1,0,0:0:0:0:
320,224,24388,1,8,0:0:0:0:
384,192,24582,1,0,0:0:0:0:
384,192,24775,1,0,0:0:0:0:
288,96,24969,1,8,0:0:0:0:
160,192,25162,1,0,0:0:0:0:
352,256,25356,1,8,0:0:0:0:
416,288,25549,1,8,0:0:0:0:
256,288,25743,1,0,0:0:0:0:
256,192,25937,1,8,0:0:0:0:
384,128,26130,1,8,0:0:0:0:
64,160,26324,5,4,0:0:0:0:
64,160,26517,1,0,0:0:0:0:
64,160,26711,1,8,0:0:0:0:
64,160,26904,1,0,0:0:0:0:
64,160,27001,1,0,0:0:0:0:
64,160,27195,1,8,0:0:0:0:
64,160,27388,1,8,0:0:0:0:
64,160,27485,1,0,0:0:0:0:
64,160,27582,1,0,0:0:0:0:
64,160,27679,1,8,0:0:0:0:
128,160,27872,1,0,0:0:0:0:
128,160,28066,1,0,0:0:0:0:
128,160,28259,1,8,0:0:0:0:
128,160,28356,1,8,0:0:0:0:
128,160,28549,1,0,0:0:0:0:
128,160,28743,1,0,0:0:0:0:
128,160,28840,1,8,0:0:0:0:
128,160,29033,1,0,0:0:0:0:
128,160,29130,1,0,0:0:0:0:
128,160,29227,1,8,0:0:0:0:
128,160,29324,1,8,0:0:0:0:
128,160,29420,1,0,0:0:0:0:
192,160,29614,1,0,0:0:0:0:
192,160,29808,1,8,0:0:0:0:
192,160,30001,1,0,0:0:0:0:
192,160,30098,1,0,0:0:0:0:
192,160,30291,1,8,0:0:0:0:
192,160,30485,1,0,0:0:0:0:
192,160,30582,1,8,0:0:0:0:
192,160,30775,1,8,0:0:0:0:
192,160,30872,1,0,0:0:0:0:
192,160,30969,1,8,0:0:0:0:
256,160,31162,1,8,0:0:0:0:
256,160,31356,1,8,0:0:0:0:
256,160,31453,1,8,0:0:0:0:
256,160,31549,1,0,0:0:0:0:
256,160,31646,1,0,0:0:0:0:
256,160,31743,1,8,0:0:0:0:
256,160,31937,1,8,0:0:0:0:
256,160,32130,1,8,0:0:0:0:
256,160,32227,1,0,0:0:0:0:
256,160,32324,1,0,0:0:0:0:
256,160,32420,1,8,0:0:0:0:
256,160,32517,1,0,0:0:0:0:
224,256,32711,1,0,0:0:0:0:
288,256,32808,1,0,0:0:0:0:
256,192,32904,1,8,0:0:0:0:
160,256,33098,1,0,0:0:0:0:
256,320,33195,1,8,0:0:0:0:
256,192,33291,1,0,0:0:0:0:
384,224,33388,1,8,0:0:0:0:
384,288,33582,1,8,0:0:0:0:
256,192,33679,1,0,0:0:0:0:
352,128,33872,1,8,0:0:0:0:
256,192,34066,1,4,0:0:0:0:
448,192,34259,1,8,0:0:0:0:
256,192,34453,1,0,0:0:0:0:
160,160,34549,1,8,0:0:0:0:
384,64,34646,1,8,0:0:0:0:
288,320,34743,1,0,0:0:0:0:
256,192,34840,1,0,0:0:0:0:
352,256,34937,1,8,0:0:0:0:
256,288,35033,1,8,0:0:0:0:
192,128,35130,1,0,0:0:0:0:
256,192,35227,1,0,0:0:0:0:
160,288,35420,1,0,0:0:0:0:
128,224,35517,1,8,0:0:0:0:
256,192,35614,1,0,0:0:0:0:
384,288,35808,1,8,0:0:0:0:
416,288,35904,1,8,0:0:0:0:
256,192,36001,1,8,0:0:0:0:
448,192,36195,1,8,0:0:0:0:
448,256,36291,1,8,0:0:0:0:
256,192,36388,1,0,0:0:0:0:
384,192,36582,1,8,0:0:0:0:
384,256,36679,1,0,0:0:0:0:
256,192,36775,1,8,0:0:0:0:
416,128,36872,1,8,0:0:0:0:
352,160,36969,1,8,0:0:0:0:
352,288,37066,1,8,0:0:0:0:
256,192,37162,1,0,0:0:0:0:
192,192,37453,1,8,0:0:0:0:
128,192,37743,1,0,0:0:0:0:
288,96,37937,1,0,0:0:0:0:
256,288,38033,1,0,0:0:0:0:
384,288,38130,1,8,0:0:0:0:
320,224,38324,1,12,0:0:0:0:
416,192,38711,1,4,0:0:0:0:
192,288,38904,1,0,0:0:0:0:
288,320,39001,1,8,0:0:0:0:
256,192,39098,1,8,0:0:0:0:
352,320,39291,1,0,0:0:0:0:
256,192,39485,1,0,0:0:0:0:
128,256,39582,1,8,0:0:0:0:
0,64,39679,1,8,0:0:0:0:
160,192,39775,1,0,0:0:0:0:
256,192,39872,1,8,0:0:0:0:
96,160,40066,1,8,0:0:0:0:
256,192,40259,1,0,0:0:0:0:
224,96,40453,1,0,0:0:0:0:
320,128,40549,1,0,0:0:0:0:
256,192,40646,1,8,0:0:0:0:
384,192,40840,1,8,0:0:0:0:
352,256,40937,1,8,0:0:0:0:
256,192,41033,1,0,0:0:0:0:
448,256,41227,1,0,0:0:0:0:
416,288,41324,1,0,0:0:0:0:
256,192,41420,1,8,0:0:0:0:
416,160,41517,1,0,0:0:0:0:
448,96,41614,1,0,0:0:0:0:
256,192,41808,1,0,0:0:0:0:
256,192,42195,1,12,0:0:0:0:
192,320,42388,1,8,0:0:0:0:
320,288,42485,1,0,0:0:0:0:
256,192,42582,1,0,0:0:0:0:
128,224,42775,1,8,0:0:0:0:
192,256,42872,1,0,0:0:0:0:
256,192,42969,1,8,0:0:0:0:
384,224,43162,1,0,0:0:0:0:
384,160,43259,1,8,0:0:0:0:
256,192,43356,1,0,0:0:0:0:
288,320,43549,1,8,0:0:0:0:
352,288,43646,1,0,0:0:0:0:
256,192,43743,1,8,0:0:0:0:
384,320,43937,1,0,0:0:0:0:
256,128,44033,1,0,0:0:0:0:
256,192,44130,1,8,0:0:0:0:
352,96,44227,1,8,0:0:0:0:
416,96,44324,1,0,0:0:0:0:
448,160,44420,1,0,0:0:0:0:
256,192,44517,1,8,0:0:0:0:
128,224,44711,1,0,0:0:0:0:
256,192,44904,1,4,0:0:0:0:
224,288,45098,1,0,0:0:0:0:
288,288,45195,1,0,0:0:0:0:
256,192,45291,1,8,0:0:0:0:
384,256,45485,1,8,0:0:0:0:
384,192,45582,1,8,0:0:0:0:
256,192,45679,1,0,0:0:0:0:
448,256,45775,1,0,0:0:0:0:
384,320,45872,1,8,0:0:0:0:
256,192,46066,1,8,0:0:0:0:
128,288,46162,1,0,0:0:0:0:
160,320,46259,1,8,0:0:0:0:
352,128,46356,1,8,0:0:0:0:
256,192,46453,1,0,0:0:0:0:
160,192,46549,1,0,0:0:0:0:
192,96,46646,1,8,0:0:0:0:
256,192,46840,1,8,0:0:0:0:
352,64,47033,1,0,0:0:0:0:
448,160,47130,1,0,0:0:0:0:
256,192,47227,1,0,0:0:0:0:
320,288,47420,1,0,0:0:0:0:
416,256,47517,1,0,0:0:0:0:
256,192,47614,1,8,0:0:0:0:
256,288,47808,1,8,0:0:0:0:
288,320,47904,1,8,0:0:0:0:
256,192,48001,1,0,0:0:0:0:
256,192,48388,1,12,0:0:0:0:
256,192,48582,1,0,0:0:0:0:
448,288,48678,1,8,0:0:0:0:
384,320,48775,1,8,0:0:0:0:
416,128,48969,1,8,0:0:0:0:
256,192,49162,1,8,0:0:0:0:
352,256,49356,1,0,0:0:0:0:
256,192,49549,1,12,0:0:0:0:
192,288,49840,1,4,0:0:0:0:
192,288,50130,1,12,0:0:0:0:
352,160,50324,1,8,0:0:0:0:
384,192,50420,1,8,0:0:0:0:
416,224,50517,1,0,0:0:0:0:
384,320,50614,1,0,0:0:0:0:
320,288,50711,1,8,0:0:0:0:
192,96,50904,1,0,0:0:0:0:
256,96,51001,1,0,0:0:0:0:
320,96,51098,1,0,0:0:0:0:
320,288,51195,1,8,0:0:0:0:
160,192,51291,1,0,0:0:0:0:
256,192,51485,1,12,0:0:0:0:
256,320,51679,1,0,0:0:0:0:
256,192,51872,1,0,0:0:0:0:
416,256,51969,1,8,0:0:0:0:
416,192,52066,1,8,0:0:0:0:
448,128,52162,1,0,0:0:0:0:
256,192,52259,1,8,0:0:0:0:
416,288,52453,1,8,0:0:0:0:
256,192,52646,1,0,0:0:0:0:
160,288,52840,1,0,0:0:0:0:
256,288,52937,1,8,0:0:0:0:
256,192,53033,1,8,0:0:0:0:
352,288,53227,1,8,0:0:0:0:
352,320,53324,1,0,0:0:0:0:
256,192,53420,1,0,0:0:0:0:
352,128,53614,1,0,0:0:0:0:
384,192,53711,1,0,0:0:0:0:
256,192,53808,1,8,0:0:0:0:
352,224,54001,1,8,0:0:0:0:
256,192,54195,1,0,0:0:0:0:
256,192,54582,1,12,0:0:0:0:
288,96,54775,1,0,0:0:0:0:
352,96,54872,1,8,0:0:0:0:
256,192,54969,1,0,0:0:0:0:
160,256,55162,1,8,0:0:0:0:
256,192,55356,1,8,0:0:0:0:
320,320,55549,1,8,0:0:0:0:
384,256,55646,1,0,0:0:0:0:
256,192,55743,1,0,0:0:0:0:
192,64,55937,1,0,0:0:0:0:
352,256,56033,1,8,0:0:0:0:
256,192,56130,1,8,0:0:0:0:
384,128,56324,1,8,0:0:0:0:
352,160,56420,1,8,0:0:0:0:
256,192,56517,1,0,0:0:0:0:
160,128,56614,1,0,0:0:0:0:
256,128,56711,1,8,0:0:0:0:
256,192,56904,1,8,0:0:0:0:
224,288,57098,1,0,0:0:0:0:
256,192,57291,1,0,0:0:0:0:
320,320,57485,1,0,0:0:0:0:
416,288,57582,1,0,0:0:0:0:
256,192,57679,1,8,0:0:0:0:
416,192,57872,1,0,0:0:0:0:
480,256,58066,1,8,0:0:0:0:
384,352,58259,1,0,0:0:0:0:
256,192,58356,1,8,0:0:0:0:
480,160,58549,1,0,0:0:0:0:
224,320,58646,1,8,0:0:0:0:
256,192,58840,1,0,0:0:0:0:
160,224,59033,1,0,0:0:0:0:
352,128,59130,1,8,0:0:0:0:
256,192,59227,1,8,0:0:0:0:
256,192,59324,1,0,0:0:0:0:
320,128,59420,1,0,0:0:0:0:
256,96,59517,1,8,0:0:0:0:
256,192,59614,1,0,0:0:0:0:
384,96,59808,1,0,0:0:0:0:
384,224,59904,1,8,0:0:0:0:
256,192,60001,1,0,0:0:0:0:
352,320,60098,1,8,0:0:0:0:
416,320,60195,1,0,0:0:0:0:
256,192,60388,1,4,0:0:0:0:
256,192,60679,1,12,0:0:0:0:
256,192,60969,1,4,0:0:0:0:
256,192,61259,1,4,0:0:0:0:
256,192,61549,1,12,0:0:0:0:
256,192,61743,12,0,62517,0:0:0:0:
256,192,62614,5,0,0:0:0:0:
256,96,62711,1,8,0:0:0:0:
320,256,62808,1,8,0:0:0:0:
384,288,62904,1,8,0:0:0:0:
224,288,63001,1,0,0:0:0:0:
288,320,63098,1,8,0:0:0:0:
352,128,63291,1,0,0:0:0:0:
384,192,63388,1,0,0:0:0:0:
448,224,63485,1,0,0:0:0:0:
96,192,63679,1,0,0:0:0:0:
128,256,63775,1,0,0:0:0:0:
256,192,63872,1,8,0:0:0:0:
0,224,64066,1,0,0:0:0:0:
256,96,64162,1,8,0:0:0:0:
256,192,64259,1,0,0:0:0:0:
256,288,64453,1,8,0:0:0:0:
256,192,64646,1,8,0:0:0:0:
320,256,64840,1,0,0:0:0:0:
256,192,65033,1,0,0:0:0:0:
192,288,65227,1,0,0:0:0:0:
320,320,65324,1,0,0:0:0:0:
256,192,65420,1,8,0:0:0:0:
416,160,65614,1,8,0:0:0:0:
384,224,65711,1,8,0:0:0:0:
256,192,65808,1,0,0:0:0:0:
384,96,66001,1,0,0:0:0:0:
320,128,66098,1,8,0:0:0:0:
256,192,66195,1,8,0:0:0:0:
256,96,66291,1,8,0:0:0:0:
192,96,66388,1,0,0:0:0:0:
256,192,66582,1,4,0:0:0:0:
160,256,66775,1,0,0:0:0:0:
96,192,66872,1,8,0:0:0:0:
256,192,66969,1,0,0:0:0:0:
288,288,67162,1,8,0:0:0:0:
256,192,67356,1,0,0:0:0:0:
416,256,67453,1,8,0:0:0:0:
384,288,67549,1,0,0:0:0:0:
384,192,67646,1,0,0:0:0:0:
256,192,67743,1,8,0:0:0:0:
128,160,67937,1,0,0:0:0:0:
256,192,68130,1,0,0:0:0:0:
352,128,68324,1,0,0:0:0:0:
416,160,68420,1,8,0:0:0:0:
256,192,68517,1,8,0:0:0:0:
96,224,68614,1,0,0:0:0:0:
256,96,68711,1,8,0:0:0:0:
256,192,68904,1,0,0:0:0:0:
352,288,69001,1,8,0:0:0:0:
448,224,69195,1,8,0:0:0:0:
256,192,69291,1,8,0:0:0:0:
192,320,69485,1,0,0:0:0:0:
256,192,69679,1,4,0:0:0:0:
288,288,69872,1,0,0:0:0:0:
256,192,70066,1,8,0:0:0:0:
128,256,70259,1,0,0:0:0:0:
160,256,70356,1,0,0:0:0:0:
256,192,70453,1,0,0:0:0:0:
416,224,70646,1,8,0:0:0:0:
416,160,70743,1,0,0:0:0:0:
256,192,70840,1,8,0:0:0:0:
96,160,71033,1,8,0:0:0:0:
192,160,71130,1,0,0:0:0:0:
256,192,71227,1,0,0:0:0:0:
224,96,71420,1,0,0:0:0:0:
320,96,71517,1,8,0:0:0:0:
256,192,71614,1,8,0:0:0:0:
352,160,71711,1,8,0:0:0:0:
384,224,71808,1,0,0:0:0:0:
256,192,72001,1,0,0:0:0:0:
320,320,72195,1,0,0:0:0:0:
416,288,72291,1,8,0:0:0:0:
256,192,72388,1,8,0:0:0:0:
512,224,72485,1,0,0:0:0:0:
320,256,72582,1,0,0:0:0:0:
256,192,72775,1,4,0:0:0:0:
256,192,73162,1,8,0:0:0:0:
256,192,73549,1,0,0:0:0:0:
224,96,73743,1,0,0:0:0:0:
256,192,73937,1,8,0:0:0:0:
288,96,74130,1,0,0:0:0:0:
256,192,74324,1,12,0:0:0:0:
256,192,74614,1,4,0:0:0:0:
256,192,74904,1,4,0:0:0:0:
256,192,75195,1,12,0:0:0:0:
256,192,75485,1,12,0:0:0:0:
256,192,75872,1,4,0:0:0:0:
64,160,76066,1,0,0:0:0:0:
64,160,76259,1,8,0:0:0:0:
64,160,76453,1,8,0:0:0:0:
64,160,76549,1,0,0:0:0:0:
64,160,76743,1,8,0:0:0:0:
64,160,76937,1,0,0:0:0:0:
64,160,77033,1,8,0:0:0:0:
64,160,77130,1,0,0:0:0:0:
64,160,77227,1,8,0:0:0:0:
128,160,77420,1,0,0:0:0:0:
128,160,77614,1,0,0:0:0:0:
128,160,77808,1,8,0:0:0:0:
128,160,77905,1,8,0:0:0:0:
128,160,78098,1,0,0:0:0:0:
128,160,78291,1,8,0:0:0:0:
128,160,78388,1,8,0:0:0:0:
128,160,78582,1,8,0:0:0:0:
128,160,78679,1,8,0:0:0:0:
128,160,78775,1,0,0:0:0:0:
128,160,78872,1,0,0:0:0:0:
128,160,78969,1,0,0:0:0:0:
128,224,79162,1,0,0:0:0:0:
128,224,79356,1,8,0:0:0:0:
128,224,79549,1,0,0:0:0:0:
128,224,79646,1,0,0:0:0:0:
128,224,79840,1,8,0:0:0:0:
128,224,80033,1,0,0:0:0:0:
128,224,80130,1,0,0:0:0:0:
128,224,80227,1,0,0:0:0:0:
128,224,80324,1,8,0:0:0:0:
192,224,80517,1,0,0:0:0:0:
192,224,80711,1,0,0:0:0:0:
192,224,80904,1,8,0:0:0:0:
192,224,81098,1,0,0:0:0:0:
192,224,81195,1,0,0:0:0:0:
192,224,81291,1,8,0:0:0:0:
128,96,81388,1,8,0:0:0:0:
192,224,81485,1,0,0:0:0:0:
192,224,81679,1,8,0:0:0:0:
192,224,81872,1,0,0:0:0:0:
192,224,81969,1,0,0:0:0:0:
192,224,82066,1,8,0:0:0:0:
384,192,82259,1,0,0:0:0:0:
256,192,82453,1,8,0:0:0:0:
352,96,82646,1,0,0:0:0:0:
384,128,82743,1,8,0:0:0:0:
256,192,82840,1,8,0:0:0:0:
288,288,83033,1,8,0:0:0:0:
384,288,83130,1,0,0:0:0:0:
256,192,83227,1,8,0:0:0:0:
192,288,83420,1,0,0:0:0:0:
256,192,83614,1,8,0:0:0:0:
448,224,83808,1,0,0:0:0:0:
256,192,84001,1,8,0:0:0:0:
320,320,84098,1,0,0:0:0:0:
128,256,84195,1,0,0:0:0:0:
160,192,84291,1,0,0:0:0:0:
256,192,84388,1,8,0:0:0:0:
256,96,84582,1,8,0:0:0:0:
288,128,84679,1,0,0:0:0:0:
256,192,84775,1,8,0:0:0:0:
352,160,84969,1,0,0:0:0:0:
256,192,85162,1,8,0:0:0:0:
416,224,85356,1,8,0:0:0:0:
448,160,85453,1,8,0:0:0:0:
256,192,85549,1,0,0:0:0:0:
352,288,85743,1,8,0:0:0:0:
352,224,85840,1,8,0:0:0:0:
256,192,85937,1,0,0:0:0:0:
256,288,86130,1,8,0:0:0:0:
288,256,86227,1,8,0:0:0:0:
256,192,86324,1,0,0:0:0:0:
160,288,86420,1,8,0:0:0:0:
192,288,86517,1,8,0:0:0:0:
352,320,86614,1,8,0:0:0:0:
256,192,86711,1,0,0:0:0:0:
256,192,87001,1,0,0:0:0:0:
256,192,87291,1,8,0:0:0:0:
352,96,87485,1,0,0:0:0:0:
384,128,87582,1,0,0:0:0:0:
480,160,87679,1,0,0:0:0:0:
256,192,87872,1,12,0:0:0:0:
256,192,88066,1,8,0:0:0:0:
256,192,88162,1,8,0:0:0:0:
256,192,88259,1,0,0:0:0:0:
384,192,88453,1,0,0:0:0:0:
256,192,88646,1,8,0:0:0:0:
192,288,88743,1,0,0:0:0:0:
288,288,88840,1,0,0:0:0:0:
160,192,88937,1,8,0:0:0:0:
224,96,89130,1,0,0:0:0:0:
352,288,89227,1,0,0:0:0:0:
288,96,89324,1,0,0:0:0:0:
256,192,89420,1,8,0:0:0:0:
416,128,89614,1,8,0:0:0:0:
448,192,89711,1,0,0:0:0:0:
256,192,89808,1,8,0:0:0:0:
128,256,90001,1,0,0:0:0:0:
256,320,90098,1,0,0:0:0:0:
256,192,90195,1,8,0:0:0:0:
384,320,90388,1,0,0:0:0:0:
480,288,90485,1,8,0:0:0:0:
256,192,90582,1,0,0:0:0:0:
384,256,90679,1,8,0:0:0:0:
480,320,90775,1,8,0:0:0:0:
256,192,90969,1,8,0:0:0:0:
128,128,91066,1,8,0:0:0:0:
192,128,91162,1,8,0:0:0:0:
320,128,91259,1,8,0:0:0:0:
256,192,91356,1,0,0:0:0:0:
192,288,91549,1,0,0:0:0:0:
320,288,91646,1,0,0:0:0:0:
256,192,91743,1,8,0:0:0:0:
160,224,91937,1,8,0:0:0:0:
256,192,92131,1,0,0:0:0:0:
416,192,92227,1,0,0:0:0:0:
416,224,92324,1,8,0:0:0:0:
224,256,92420,1,0,0:0:0:0:
256,192,92518,1,8,0:0:0:0:
128,288,92711,1,0,0:0:0:0:
288,320,92808,1,8,0:0:0:0:
256,192,92904,1,0,0:0:0:0:
128,128,93098,1,0,0:0:0:0:
192,128,93195,1,8,0:0:0:0:
256,192,93291,1,8,0:0:0:0:
256,96,93485,1,0,0:0:0:0:
288,256,93582,1,8,0:0:0:0:
256,192,93678,1,0,0:0:0:0:
96,352,93775,1,8,0:0:0:0:
384,192,93872,1,8,0:0:0:0:
160,224,93969,1,0,0:0:0:0:
256,192,94065,1,8,0:0:0:0:
192,288,94162,1,0,0:0:0:0:
96,192,94259,1,0,0:0:0:0:
256,192,94453,1,0,0:0:0:0:
320,64,94646,1,0,0:0:0:0:
256,192,94840,1,12,0:0:0:0:
256,320,95033,1,8,0:0:0:0:
448,256,95130,1,8,0:0:0:0:
256,192,95227,1,0,0:0:0:0:
448,128,95420,1,0,0:0:0:0:
384,256,95517,1,0,0:0:0:0:
256,192,95614,1,8,0:0:0:0:
128,288,95808,1,8,0:0:0:0:
256,192,96001,1,0,0:0:0:0:
352,320,96195,1,0,0:0:0:0:
256,192,96388,1,8,0:0:0:0:
128,256,96485,1,0,0:0:0:0:
192,288,96582,1,8,0:0:0:0:
256,320,96679,1,8,0:0:0:0:
256,192,96776,1,0,0:0:0:0:
224,96,96969,1,0,0:0:0:0:
256,192,97163,1,8,0:0:0:0:
352,160,97356,1,0,0:0:0:0:
256,192,97549,1,0,0:0:0:0:
256,192,97936,1,12,0:0:0:0:
320,288,98130,1,0,0:0:0:0:
384,288,98227,1,8,0:0:0:0:
256,192,98323,1,8,0:0:0:0:
192,288,98517,1,0,0:0:0:0:
320,288,98614,1,0,0:0:0:0:
256,192,98710,1,8,0:0:0:0:
384,320,98808,1,0,0:0:0:0:
448,224,98904,1,0,0:0:0:0:
256,192,99098,1,4,0:0:0:0:
256,192,99388,1,4,0:0:0:0:
256,192,99679,1,12,0:0:0:0:
256,192,99969,1,12,0:0:0:0:
96,192,100162,1,0,0:0:0:0:
160,224,100259,1,8,0:0:0:0:
160,288,100356,1,0,0:0:0:0:
224,320,100453,1,8,0:0:0:0:
384,288,100549,1,8,0:0:0:0:
256,192,100646,1,0,0:0:0:0:
352,160,100840,1,8,0:0:0:0:
384,224,100937,1,0,0:0:0:0:
256,192,101033,1,8,0:0:0:0:
480,160,101227,1,4,0:0:0:0:
256,192,101421,1,0,0:0:0:0:
320,288,101517,1,8,0:0:0:0:
416,256,101614,1,0,0:0:0:0:
256,192,101808,1,12,0:0:0:0:
224,320,102001,1,0,0:0:0:0:
288,320,102098,1,0,0:0:0:0:
256,192,102194,1,0,0:0:0:0:
352,96,102388,1,0,0:0:0:0:
480,320,102485,1,0,0:0:0:0:
256,192,102581,1,8,0:0:0:0:
384,224,102775,1,8,0:0:0:0:
160,224,102872,1,8,0:0:0:0:
256,192,102968,1,0,0:0:0:0:
416,160,103162,1,0,0:0:0:0:
0,288,103259,1,0,0:0:0:0:
256,192,103355,1,8,0:0:0:0:
192,128,103453,1,0,0:0:0:0:
256,128,103549,1,8,0:0:0:0:
384,192,103646,1,8,0:0:0:0:
256,192,103743,1,0,0:0:0:0:
256,192,104130,1,8,0:0:0:0:
256,288,104324,1,0,0:0:0:0:
352,288,104420,1,0,0:0:0:0:
256,192,104517,1,0,0:0:0:0:
352,96,104614,1,8,0:0:0:0:
416,256,104711,1,0,0:0:0:0:
256,192,104904,1,8,0:0:0:0:
352,224,105098,1,8,0:0:0:0:
256,192,105291,1,0,0:0:0:0:
224,256,105485,1,0,0:0:0:0:
256,288,105582,1,0,0:0:0:0:
256,192,105678,1,8,0:0:0:0:
160,288,105872,1,0,0:0:0:0:
352,320,105969,1,8,0:0:0:0:
256,192,106066,1,0,0:0:0:0:
64,256,106162,1,8,0:0:0:0:
128,192,106259,1,8,0:0:0:0:
192,160,106356,1,0,0:0:0:0:
256,192,106453,1,8,0:0:0:0:
416,192,106549,1,0,0:0:0:0:
352,256,106646,1,0,0:0:0:0:
256,192,106840,1,0,0:0:0:0:
352,128,107033,1,0,0:0:0:0:
416,96,107130,1,0,0:0:0:0:
256,192,107227,1,8,0:0:0:0:
224,320,107420,1,0,0:0:0:0:
384,320,107614,1,8,0:0:0:0:
224,192,107808,1,0,0:0:0:0:
256,192,107904,1,8,0:0:0:0:
96,224,108098,1,0,0:0:0:0:
128,256,108195,1,8,0:0:0:0:
256,192,108389,1,8,0:0:0:0:
160,96,108485,1,0,0:0:0:0:
224,96,108582,1,0,0:0:0:0:
320,128,108679,1,0,0:0:0:0:
256,192,108776,1,8,0:0:0:0:
256,288,108969,1,0,0:0:0:0:
352,256,109066,1,8,0:0:0:0:
256,192,109163,1,0,0:0:0:0:
384,160,109356,1,0,0:0:0:0:
448,288,109453,1,0,0:0:0:0:
256,192,109550,1,8,0:0:0:0:
416,128,109646,1,0,0:0:0:0:
384,64,109743,1,0,0:0:0:0:
256,192,109937,1,4,0:0:0:0:
256,192,110227,1,12,0:0:0:0:
256,192,110517,1,4,0:0:0:0:
256,192,110808,1,12,0:0:0:0:
256,192,111098,1,12,0:0:0:0:
256,192,111485,1,12,0:0:0:0:
256,192,111775,1,4,0:0:0:0:
256,192,112066,1,12,0:0:0:0:
256,192,112356,1,4,0:0:0:0:
352,256,112646,1,12,0:0:0:0:
256,192,113033,1,4,0:0:0:0:
256,192,113614,1,0,0:0:0:0:
256,192,114195,1,8,0:0:0:0:
256,192,114582,1,0,0:0:0:0:
160,192,114775,1,0,0:0:0:0:
256,192,115162,1,0,0:0:0:0:
256,192,115743,1,8,0:0:0:0:
256,192,115937,1,0,0:0:0:0:
256,192,116130,1,0,0:0:0:0:
256,192,116711,1,0,0:0:0:0:
256,192,117098,1,0,0:0:0:0:
256,192,117291,1,8,0:0:0:0:
256,192,117872,1,0,0:0:0:0:
224,288,118066,1,8,0:0:0:0:
288,288,118259,1,0,0:0:0:0:
256,192,118453,1,0,0:0:0:0:
352,288,118646,1,8,0:0:0:0:
256,192,118840,1,8,0:0:0:0:
256,192,119033,1,8,0:0:0:0:
256,192,119227,1,0,0:0:0:0:
256,192,119808,1,0,0:0:0:0:
256,192,120195,1,0,0:0:0:0:
256,192,120388,1,8,0:0:0:0:
320,288,120582,1,8,0:0:0:0:
256,192,120775,1,4,0:0:0:0:
256,192,121356,1,0,0:0:0:0:
256,192,121743,1,0,0:0:0:0:
256,192,121937,1,8,0:0:0:0:
256,192,122130,1,0,0:0:0:0:
256,192,122324,1,4,0:0:0:0:
256,192,122904,1,0,0:0:0:0:
256,192,123485,1,8,0:0:0:0:
256,192,123775,1,0,0:0:0:0:
256,192,123872,1,8,0:0:0:0:
256,288,124066,1,0,0:0:0:0:
256,288,124259,1,0,0:0:0:0:
256,288,124453,1,0,0:0:0:0:
256,288,124646,1,8,0:0:0:0:
256,288,124840,1,0,0:0:0:0:
256,288,125033,1,8,0:0:0:0:
256,288,125227,1,0,0:0:0:0:
256,192,125420,12,0,130066,0:0:0:0:
