osu file format v14

[General]
AudioFilename: Memme - unison system.mp3
AudioLeadIn: 0
PreviewTime: 38723
Countdown: 0
SampleSet: Normal
StackLeniency: 0.7
Mode: 1
LetterboxInBreaks: 0
WidescreenStoryboard: 1

[Editor]
Bookmarks: 13949,26336,32529,38723,72787,75884,82078,123884
DistanceSpacing: 1
BeatDivisor: 4
GridSize: 32
TimelineZoom: 2.4

[Metadata]
Title:Unison System
TitleUnicode:Unison System
Artist:Memme
ArtistUnicode:Memme
Creator:[I]MMoRTal[S]
Version:Muzukashii
Source:O2jam U
Tags:qoot8123 lZenxl aabc271
BeatmapID:443505
BeatmapSetID:185529

[Difficulty]
HPDrainRate:4
CircleSize:5
OverallDifficulty:4
ApproachRate:5
SliderMultiplier:1.4
SliderTickRate:1

[Events]
//Background and Video events
0,0,"BG.jpg",0,0
//Break Periods
//Storyboard Layer 0 (Background)
//Storyboard Layer 1 (Fail)
//Storyboard Layer 2 (Pass)
//Storyboard Layer 3 (Foreground)
//Storyboard Sound Samples

[TimingPoints]
1550,387.096774193548,4,1,0,100,1,0
26324,-100,4,1,0,80,0,0
38711,-100,4,1,0,100,0,1
63485,-100,4,1,0,100,0,0
75872,-100,4,1,0,80,0,0
88259,-100,4,1,0,100,0,1
113033,-100,4,1,0,100,0,0

[HitObjects]
32,192,1550,5,4,0:0:0:0:
96,96,2130,1,0,0:0:0:0:
160,128,2711,1,8,0:0:0:0:
224,192,3098,1,0,0:0:0:0:
416,256,3291,1,0,0:0:0:0:
288,224,3679,1,0,0:0:0:0:
352,96,4259,1,8,0:0:0:0:
416,160,4453,1,0,0:0:0:0:
480,192,4646,1,0,0:0:0:0:
32,160,5227,1,0,0:0:0:0:
256,160,5614,1,0,0:0:0:0:
96,160,5808,1,8,0:0:0:0:
288,256,6388,1,0,0:0:0:0:
192,288,6582,1,8,0:0:0:0:
288,160,6969,1,0,0:0:0:0:
288,320,7162,1,0,0:0:0:0:
288,256,7356,1,8,0:0:0:0:
352,224,7549,1,8,0:0:0:0:
384,256,7743,1,0,0:0:0:0:
384,128,8324,1,0,0:0:0:0:
128,160,8904,1,8,0:0:0:0:
192,256,9291,1,0,0:0:0:0:
320,256,9485,1,0,0:0:0:0:
288,224,9872,1,0,0:0:0:0:
224,160,10453,1,8,0:0:0:0:
320,128,10646,1,0,0:0:0:0:
224,96,10840,1,0,0:0:0:0:
384,96,11420,1,8,0:0:0:0:
224,288,11808,1,0,0:0:0:0:
416,224,12001,1,8,0:0:0:0:
256,192,12388,1,8,0:0:0:0:
160,192,12582,1,4,0:0:0:0:
288,128,12969,1,8,0:0:0:0:
160,128,13162,1,0,0:0:0:0:
384,96,13356,1,8,0:0:0:0:
416,160,13549,1,8,0:0:0:0:
416,224,13743,1,0,0:0:0:0:
256,288,13937,1,4,0:0:0:0:
64,288,14324,1,8,0:0:0:0:
64,288,14517,1,0,0:0:0:0:
64,288,14904,1,0,0:0:0:0:
64,288,15098,1,8,0:0:0:0:
384,288,15679,1,0,0:0:0:0:
384,288,15872,1,8,0:0:0:0:
384,288,16066,1,0,0:0:0:0:
384,288,16453,1,0,0:0:0:0:
384,288,16646,1,8,0:0:0:0:
224,192,17033,1,0,0:0:0:0:
224,192,17420,1,8,0:0:0:0:
224,192,17614,1,0,0:0:0:0:
352,128,18001,1,0,0:0:0:0:
320,96,18195,1,8,0:0:0:0:
352,224,18775,1,0,0:0:0:0:
384,288,18969,1,8,0:0:0:0:
352,224,19162,1,0,0:0:0:0:
224,320,19549,1,0,0:0:0:0:
224,192,19743,1,8,0:0:0:0:
160,256,19937,1,8,0:0:0:0:
160,256,20130,1,0,0:0:0:0:
160,224,20517,1,8,0:0:0:0:
192,96,20711,1,0,0:0:0:0:
128,128,21098,1,0,0:0:0:0:
320,128,21291,1,8,0:0:0:0:
416,224,21485,1,0,0:0:0:0:
320,192,21679,1,4,0:0:0:0:
288,256,22066,1,8,0:0:0:0:
256,192,22259,1,0,0:0:0:0:
384,256,22646,1,0,0:0:0:0:
448,192,22840,1,8,0:0:0:0:
384,192,23033,1,0,0:0:0:0:
416,96,23227,1,12,0:0:0:0:
224,128,23614,1,8,0:0:0:0:
192,192,23808,1,0,0:0:0:0:
256,256,24195,1,0,0:0:0:0:
320,224,24388,1,8,0:0:0:0:
384,192,24582,1,0,0:0:0:0:
160,256,24775,1,0,0:0:0:0:
160,192,25162,1,0,0:0:0:0:
352,256,25356,1,0,0:0:0:0:
416,288,25549,1,8,0:0:0:0:
256,288,25743,1,8,0:0:0:0:
256,192,25937,1,8,0:0:0:0:
384,128,26130,1,0,0:0:0:0:
64,64,26324,1,4,0:0:0:0:
160,256,26517,1,0,0:0:0:0:
256,192,26711,1,8,0:0:0:0:
256,192,27098,1,0,0:0:0:0:
256,192,27485,1,0,0:0:0:0:
256,192,27872,1,8,0:0:0:0:
160,288,28066,1,0,0:0:0:0:
256,192,28259,1,8,0:0:0:0:
256,192,28646,1,0,0:0:0:0:
384,160,28743,1,0,0:0:0:0:
256,192,28840,1,0,0:0:0:0:
256,192,29033,1,8,0:0:0:0:
256,192,29227,1,8,0:0:0:0:
256,192,29420,1,0,0:0:0:0:
320,288,29614,1,0,0:0:0:0:
256,192,29808,1,8,0:0:0:0:
256,192,30195,1,0,0:0:0:0:
256,192,30582,1,0,0:0:0:0:
256,192,30969,1,0,0:0:0:0:
256,288,31162,1,8,0:0:0:0:
256,192,31356,1,0,0:0:0:0:
384,288,31549,1,8,0:0:0:0:
192,256,31646,1,8,0:0:0:0:
256,192,31743,1,8,0:0:0:0:
256,192,31937,1,0,0:0:0:0:
256,192,32130,1,8,0:0:0:0:
256,192,32324,1,0,0:0:0:0:
64,64,32517,1,4,0:0:0:0:
416,192,32904,1,0,0:0:0:0:
64,64,33291,1,0,0:0:0:0:
288,256,33485,1,8,0:0:0:0:
64,64,33679,1,0,0:0:0:0:
320,256,34066,1,4,0:0:0:0:
64,64,34453,1,0,0:0:0:0:
64,64,34840,1,0,0:0:0:0:
384,192,35033,1,8,0:0:0:0:
64,64,35227,1,0,0:0:0:0:
256,192,35420,1,0,0:0:0:0:
64,64,35614,1,12,0:0:0:0:
128,128,35808,1,8,0:0:0:0:
64,64,36001,1,0,0:0:0:0:
128,128,36195,1,0,0:0:0:0:
64,64,36388,1,8,0:0:0:0:
128,128,36582,1,8,0:0:0:0:
64,64,36775,1,0,0:0:0:0:
128,128,36969,1,8,0:0:0:0:
64,64,37162,1,0,0:0:0:0:
160,224,37453,1,8,0:0:0:0:
160,224,37743,1,0,0:0:0:0:
256,192,37937,1,0,0:0:0:0:
256,192,38033,1,0,0:0:0:0:
256,320,38130,1,0,0:0:0:0:
256,192,38324,1,12,0:0:0:0:
64,64,38711,1,4,0:0:0:0:
256,192,39098,1,8,0:0:0:0:
256,192,39485,1,0,0:0:0:0:
352,224,39679,1,0,0:0:0:0:
256,192,39872,1,8,0:0:0:0:
160,192,40066,1,8,0:0:0:0:
320,96,40162,1,8,0:0:0:0:
256,192,40259,1,0,0:0:0:0:
224,320,40646,1,8,0:0:0:0:
256,192,40937,1,0,0:0:0:0:
160,288,41227,1,8,0:0:0:0:
256,192,41420,1,8,0:0:0:0:
64,64,41808,1,0,0:0:0:0:
256,192,42195,1,12,0:0:0:0:
256,192,42582,1,0,0:0:0:0:
192,128,42775,1,8,0:0:0:0:
256,192,42969,1,8,0:0:0:0:
320,128,43162,1,0,0:0:0:0:
352,256,43356,1,8,0:0:0:0:
256,192,43743,1,8,0:0:0:0:
256,192,44130,1,8,0:0:0:0:
192,128,44420,1,8,0:0:0:0:
352,64,44711,1,0,0:0:0:0:
64,64,44904,1,0,0:0:0:0:
384,192,45098,1,0,0:0:0:0:
256,192,45291,1,12,0:0:0:0:
352,256,45485,1,0,0:0:0:0:
256,192,45678,1,0,0:0:0:0:
224,256,45872,1,8,0:0:0:0:
256,192,46065,1,0,0:0:0:0:
256,192,46356,1,8,0:0:0:0:
352,288,46646,1,8,0:0:0:0:
256,192,46839,1,8,0:0:0:0:
384,288,47033,1,8,0:0:0:0:
256,192,47226,1,0,0:0:0:0:
256,288,47420,1,8,0:0:0:0:
256,192,47613,1,8,0:0:0:0:
416,224,47808,1,8,0:0:0:0:
64,64,48001,1,0,0:0:0:0:
256,192,48388,1,8,0:0:0:0:
224,288,48582,1,0,0:0:0:0:
352,288,48679,1,0,0:0:0:0:
256,192,48775,1,0,0:0:0:0:
160,256,48969,1,8,0:0:0:0:
256,192,49162,1,8,0:0:0:0:
256,192,49549,1,4,0:0:0:0:
256,192,49840,1,12,0:0:0:0:
256,192,50130,1,4,0:0:0:0:
256,192,50420,1,12,0:0:0:0:
64,64,50711,1,12,0:0:0:0:
160,256,50904,1,0,0:0:0:0:
320,288,51098,1,0,0:0:0:0:
256,192,51485,1,12,0:0:0:0:
256,192,51872,1,0,0:0:0:0:
256,288,52066,1,8,0:0:0:0:
256,288,52162,1,8,0:0:0:0:
256,192,52259,1,8,0:0:0:0:
384,256,52453,1,8,0:0:0:0:
416,160,52840,1,0,0:0:0:0:
256,192,53033,1,8,0:0:0:0:
416,320,53227,1,0,0:0:0:0:
352,224,53324,1,8,0:0:0:0:
224,320,53614,1,0,0:0:0:0:
256,192,53807,1,8,0:0:0:0:
256,192,54001,1,0,0:0:0:0:
64,64,54195,1,0,0:0:0:0:
256,192,54582,1,8,0:0:0:0:
384,288,54775,1,0,0:0:0:0:
256,192,54969,1,0,0:0:0:0:
256,288,55162,1,8,0:0:0:0:
256,192,55356,1,8,0:0:0:0:
128,224,55549,1,0,0:0:0:0:
320,160,55937,1,0,0:0:0:0:
256,192,56130,1,8,0:0:0:0:
384,128,56324,1,8,0:0:0:0:
256,192,56517,1,0,0:0:0:0:
224,288,56711,1,0,0:0:0:0:
256,192,56904,1,8,0:0:0:0:
64,64,57291,1,0,0:0:0:0:
128,224,57485,1,8,0:0:0:0:
160,224,57582,1,8,0:0:0:0:
256,192,57678,1,8,0:0:0:0:
256,192,58065,1,0,0:0:0:0:
320,256,58356,1,8,0:0:0:0:
160,288,58646,1,0,0:0:0:0:
256,192,58840,1,0,0:0:0:0:
416,192,59033,1,8,0:0:0:0:
256,192,59226,1,8,0:0:0:0:
256,288,59420,1,8,0:0:0:0:
256,192,59613,1,0,0:0:0:0:
320,160,59808,1,0,0:0:0:0:
256,192,59904,1,8,0:0:0:0:
384,256,60195,1,0,0:0:0:0:
64,64,60388,1,4,0:0:0:0:
256,192,60679,1,12,0:0:0:0:
256,192,60969,1,4,0:0:0:0:
256,192,61259,1,4,0:0:0:0:
256,192,61549,1,12,0:0:0:0:
256,192,61743,12,0,62517,0:0:0:0:
256,192,62710,5,8,0:0:0:0:
256,192,62808,1,8,0:0:0:0:
256,192,62904,1,8,0:0:0:0:
448,288,63098,1,4,0:0:0:0:
256,192,63485,1,4,0:0:0:0:
192,320,63775,1,8,0:0:0:0:
160,224,64066,1,8,0:0:0:0:
256,192,64356,1,0,0:0:0:0:
256,192,64646,1,8,0:0:0:0:
384,256,64840,1,0,0:0:0:0:
256,192,65033,1,0,0:0:0:0:
256,320,65227,1,8,0:0:0:0:
256,320,65324,1,8,0:0:0:0:
256,192,65420,1,8,0:0:0:0:
320,320,65614,1,0,0:0:0:0:
256,192,65808,1,0,0:0:0:0:
256,320,66001,1,0,0:0:0:0:
256,192,66195,1,8,0:0:0:0:
256,192,66582,1,4,0:0:0:0:
256,192,66872,1,8,0:0:0:0:
224,320,67162,1,8,0:0:0:0:
256,192,67356,1,0,0:0:0:0:
352,256,67549,1,0,0:0:0:0:
256,192,67743,1,12,0:0:0:0:
256,192,68130,1,0,0:0:0:0:
192,288,68324,1,8,0:0:0:0:
192,288,68420,1,8,0:0:0:0:
256,192,68517,1,8,0:0:0:0:
256,192,68711,1,0,0:0:0:0:
256,192,69001,1,8,0:0:0:0:
256,192,69291,1,8,0:0:0:0:
256,192,69679,1,4,0:0:0:0:
256,128,69969,1,8,0:0:0:0:
416,224,70259,1,0,0:0:0:0:
160,160,70549,1,8,0:0:0:0:
256,256,70840,1,8,0:0:0:0:
384,288,71033,1,0,0:0:0:0:
416,192,71227,1,0,0:0:0:0:
192,256,71420,1,8,0:0:0:0:
192,256,71517,1,8,0:0:0:0:
192,256,71614,1,8,0:0:0:0:
192,256,71808,1,0,0:0:0:0:
192,256,72001,1,0,0:0:0:0:
192,256,72195,1,8,0:0:0:0:
192,256,72291,1,8,0:0:0:0:
192,256,72388,1,8,0:0:0:0:
192,256,72582,1,0,0:0:0:0:
192,256,72775,1,4,0:0:0:0:
256,192,73162,1,8,0:0:0:0:
256,192,73549,1,0,0:0:0:0:
320,288,73743,1,0,0:0:0:0:
256,192,73937,1,8,0:0:0:0:
352,192,74130,1,0,0:0:0:0:
256,192,74324,1,8,0:0:0:0:
128,224,74614,1,0,0:0:0:0:
128,224,74904,1,0,0:0:0:0:
128,224,75195,1,8,0:0:0:0:
128,224,75485,1,4,0:0:0:0:
256,192,75872,1,4,0:0:0:0:
352,256,76066,1,0,0:0:0:0:
256,192,76259,1,8,0:0:0:0:
256,192,76646,1,0,0:0:0:0:
256,192,77033,1,0,0:0:0:0:
256,192,77420,1,0,0:0:0:0:
256,288,77614,1,0,0:0:0:0:
160,288,77808,1,8,0:0:0:0:
256,192,78098,1,0,0:0:0:0:
320,320,78388,1,8,0:0:0:0:
256,192,78582,1,0,0:0:0:0:
416,192,78679,1,0,0:0:0:0:
416,256,78775,1,0,0:0:0:0:
256,192,78969,1,0,0:0:0:0:
448,320,79162,1,0,0:0:0:0:
352,320,79356,1,8,0:0:0:0:
256,192,79743,1,0,0:0:0:0:
256,192,80130,1,0,0:0:0:0:
256,192,80517,1,0,0:0:0:0:
352,160,80711,1,0,0:0:0:0:
256,192,80904,1,8,0:0:0:0:
384,256,81098,1,0,0:0:0:0:
192,224,81291,1,8,0:0:0:0:
320,288,81485,1,8,0:0:0:0:
288,288,81679,1,0,0:0:0:0:
448,192,81872,1,8,0:0:0:0:
256,192,82066,1,4,0:0:0:0:
256,192,82453,1,0,0:0:0:0:
256,192,82840,1,0,0:0:0:0:
192,224,83033,1,8,0:0:0:0:
256,192,83227,1,0,0:0:0:0:
288,256,83614,1,4,0:0:0:0:
256,192,84001,1,0,0:0:0:0:
256,192,84388,1,0,0:0:0:0:
384,256,84582,1,8,0:0:0:0:
256,192,84775,1,0,0:0:0:0:
256,192,85162,1,12,0:0:0:0:
256,288,85356,1,0,0:0:0:0:
384,160,85453,1,8,0:0:0:0:
192,288,85743,1,0,0:0:0:0:
288,224,85840,1,0,0:0:0:0:
256,192,85937,1,8,0:0:0:0:
384,256,86130,1,0,0:0:0:0:
288,352,86227,1,0,0:0:0:0:
256,192,86324,1,0,0:0:0:0:
352,320,86517,1,0,0:0:0:0:
256,192,86711,1,8,0:0:0:0:
128,256,87001,1,0,0:0:0:0:
128,256,87291,1,0,0:0:0:0:
224,256,87485,1,0,0:0:0:0:
224,256,87582,1,0,0:0:0:0:
224,256,87679,1,0,0:0:0:0:
224,256,87872,1,12,0:0:0:0:
224,256,88259,1,4,0:0:0:0:
288,288,88453,1,0,0:0:0:0:
256,192,88646,1,8,0:0:0:0:
256,192,89033,1,0,0:0:0:0:
384,224,89227,1,8,0:0:0:0:
256,192,89420,1,0,0:0:0:0:
256,192,89614,1,8,0:0:0:0:
320,288,90001,1,0,0:0:0:0:
256,192,90195,1,8,0:0:0:0:
192,288,90388,1,8,0:0:0:0:
256,192,90582,1,0,0:0:0:0:
192,288,90775,1,0,0:0:0:0:
256,192,90969,1,8,0:0:0:0:
256,192,91356,1,0,0:0:0:0:
256,192,91743,1,8,0:0:0:0:
96,256,91937,1,0,0:0:0:0:
256,192,92130,1,0,0:0:0:0:
256,320,92324,1,8,0:0:0:0:
256,192,92517,1,8,0:0:0:0:
256,192,92904,1,0,0:0:0:0:
256,192,93291,1,8,0:0:0:0:
384,256,93485,1,8,0:0:0:0:
256,192,93679,1,0,0:0:0:0:
192,256,93872,1,0,0:0:0:0:
256,192,94066,1,8,0:0:0:0:
448,256,94259,1,0,0:0:0:0:
448,256,94356,1,0,0:0:0:0:
256,192,94453,1,0,0:0:0:0:
224,288,94646,1,0,0:0:0:0:
256,192,94840,1,12,0:0:0:0:
256,192,95130,1,0,0:0:0:0:
160,288,95420,1,8,0:0:0:0:
256,192,95614,1,8,0:0:0:0:
256,288,95808,1,0,0:0:0:0:
256,192,96001,1,0,0:0:0:0:
416,224,96195,1,8,0:0:0:0:
256,192,96388,1,8,0:0:0:0:
320,224,96485,1,8,0:0:0:0:
320,224,96582,1,8,0:0:0:0:
256,192,96775,1,0,0:0:0:0:
128,224,96969,1,0,0:0:0:0:
256,192,97162,1,8,0:0:0:0:
256,288,97356,1,8,0:0:0:0:
256,192,97549,1,0,0:0:0:0:
256,192,97937,1,8,0:0:0:0:
384,192,98130,1,0,0:0:0:0:
384,256,98227,1,0,0:0:0:0:
256,192,98324,1,0,0:0:0:0:
192,256,98517,1,0,0:0:0:0:
256,192,98711,1,8,0:0:0:0:
256,192,99098,1,12,0:0:0:0:
256,288,99388,1,4,0:0:0:0:
256,288,99679,1,4,0:0:0:0:
256,288,99969,1,4,0:0:0:0:
256,288,100259,1,12,0:0:0:0:
256,288,100453,1,0,0:0:0:0:
160,288,100646,1,0,0:0:0:0:
192,224,101033,1,12,0:0:0:0:
96,128,101227,1,0,0:0:0:0:
256,160,101420,1,8,0:0:0:0:
320,224,101614,1,0,0:0:0:0:
320,288,101808,1,12,0:0:0:0:
224,256,102195,1,0,0:0:0:0:
192,288,102388,1,0,0:0:0:0:
192,224,102485,1,0,0:0:0:0:
384,256,102582,1,0,0:0:0:0:
416,192,102872,1,8,0:0:0:0:
352,288,103162,1,8,0:0:0:0:
224,128,103356,1,8,0:0:0:0:
288,320,103549,1,0,0:0:0:0:
288,128,103743,1,0,0:0:0:0:
224,128,104130,1,8,0:0:0:0:
384,192,104324,1,0,0:0:0:0:
288,256,104420,1,0,0:0:0:0:
288,128,104517,1,0,0:0:0:0:
416,256,104711,1,0,0:0:0:0:
224,128,104904,1,8,0:0:0:0:
416,96,105098,1,0,0:0:0:0:
288,128,105485,1,0,0:0:0:0:
224,128,105679,1,8,0:0:0:0:
320,288,105872,1,0,0:0:0:0:
320,288,105969,1,0,0:0:0:0:
288,128,106066,1,0,0:0:0:0:
256,288,106259,1,0,0:0:0:0:
224,128,106453,1,8,0:0:0:0:
288,128,106840,1,0,0:0:0:0:
224,224,107033,1,8,0:0:0:0:
352,224,107130,1,8,0:0:0:0:
224,128,107227,1,8,0:0:0:0:
320,256,107614,1,8,0:0:0:0:
320,256,107904,1,8,0:0:0:0:
320,256,108195,1,0,0:0:0:0:
320,256,108388,1,0,0:0:0:0:
160,256,108582,1,8,0:0:0:0:
256,192,108775,1,8,0:0:0:0:
288,288,108969,1,0,0:0:0:0:
384,320,109066,1,0,0:0:0:0:
256,192,109162,1,0,0:0:0:0:
416,192,109356,1,0,0:0:0:0:
256,192,109549,1,8,0:0:0:0:
192,288,109743,1,0,0:0:0:0:
160,288,109840,1,0,0:0:0:0:
256,192,109937,1,0,0:0:0:0:
256,192,110227,1,8,0:0:0:0:
256,192,110517,1,0,0:0:0:0:
256,192,110808,1,0,0:0:0:0:
256,192,111098,1,8,0:0:0:0:
256,192,111485,1,0,0:0:0:0:
256,192,111775,1,8,0:0:0:0:
256,192,112066,1,8,0:0:0:0:
256,192,112356,1,0,0:0:0:0:
256,192,112646,1,12,0:0:0:0:
256,192,113033,1,4,0:0:0:0:
256,192,113614,1,0,0:0:0:0:
256,192,114195,1,8,0:0:0:0:
256,192,114582,1,0,0:0:0:0:
256,288,114775,1,0,0:0:0:0:
256,192,115162,1,0,0:0:0:0:
256,192,115743,1,8,0:0:0:0:
256,192,115937,1,0,0:0:0:0:
256,192,116130,1,0,0:0:0:0:
256,192,116711,1,0,0:0:0:0:
256,192,117098,1,0,0:0:0:0:
256,192,117291,1,8,0:0:0:0:
256,192,117872,1,0,0:0:0:0:
224,288,118066,1,8,0:0:0:0:
256,192,118453,1,0,0:0:0:0:
352,288,118646,1,8,0:0:0:0:
256,192,118840,1,0,0:0:0:0:
256,192,119033,1,8,0:0:0:0:
256,192,119227,1,0,0:0:0:0:
256,192,119808,1,0,0:0:0:0:
256,192,120195,1,0,0:0:0:0:
256,192,120388,1,8,0:0:0:0:
320,288,120582,1,8,0:0:0:0:
256,192,120775,1,4,0:0:0:0:
256,192,121356,1,0,0:0:0:0:
256,192,121743,1,0,0:0:0:0:
256,192,121937,1,8,0:0:0:0:
256,192,122130,1,0,0:0:0:0:
256,192,122324,1,4,0:0:0:0:
256,192,122904,1,0,0:0:0:0:
256,192,123485,1,8,0:0:0:0:
256,192,123872,1,8,0:0:0:0:
256,288,124066,1,0,0:0:0:0:
256,288,124259,1,0,0:0:0:0:
256,288,124453,1,0,0:0:0:0:
256,288,124646,1,8,0:0:0:0:
256,288,124840,1,0,0:0:0:0:
256,288,125033,1,8,0:0:0:0:
256,288,125227,1,0,0:0:0:0:
256,192,125420,12,0,130066,0:0:0:0:
