osu file format v14

[General]
AudioFilename: Memme - unison system.mp3
AudioLeadIn: 0
PreviewTime: 38723
Countdown: 0
SampleSet: Normal
StackLeniency: 0.7
Mode: 1
LetterboxInBreaks: 0
WidescreenStoryboard: 0

[Editor]
Bookmarks: 13949,26336,32529,38723,72787,75884,82078,123884
DistanceSpacing: 1
BeatDivisor: 4
GridSize: 32
TimelineZoom: 3

[Metadata]
Title:Unison System
TitleUnicode:Unison System
Artist:Memme
ArtistUnicode:Memme
Creator:[I]MMoRTal[S]
Version:Inner Oni
Source:O2jam U
Tags:qoot8123 lZenxl aabc271
BeatmapID:443504
BeatmapSetID:185529

[Difficulty]
HPDrainRate:5
CircleSize:5
OverallDifficulty:5
ApproachRate:5
SliderMultiplier:1.4
SliderTickRate:1

[Events]
//Background and Video events
0,0,"BG.jpg",0,0
//Break Periods
//Storyboard Layer 0 (Background)
//Storyboard Layer 1 (Fail)
//Storyboard Layer 2 (Pass)
//Storyboard Layer 3 (Foreground)
//Storyboard Sound Samples

[TimingPoints]
1550,387.096774193548,4,1,0,100,1,0
26324,-100,4,1,0,80,0,0
38711,-100,4,1,0,100,0,1
63485,-100,4,1,0,100,0,0
75872,-100,4,1,0,80,0,0
88259,-100,4,1,0,100,0,1
113033,-100,4,1,0,100,0,0

[HitObjects]
32,192,1550,5,4,0:0:0:0:
352,224,1840,1,0,0:0:0:0:
96,96,2130,1,8,0:0:0:0:
320,256,2517,1,0,0:0:0:0:
160,128,2711,1,8,0:0:0:0:
224,192,3098,1,0,0:0:0:0:
448,288,3291,1,8,0:0:0:0:
288,224,3679,1,0,0:0:0:0:
288,128,4066,1,0,0:0:0:0:
352,192,4130,1,0,0:0:0:0:
256,96,4195,1,0,0:0:0:0:
352,96,4259,1,8,0:0:0:0:
416,160,4453,1,0,0:0:0:0:
480,192,4646,1,0,0:0:0:0:
224,288,4937,1,8,0:0:0:0:
32,160,5227,1,0,0:0:0:0:
256,160,5614,1,0,0:0:0:0:
96,160,5808,1,8,0:0:0:0:
192,160,6195,1,0,0:0:0:0:
288,256,6388,1,0,0:0:0:0:
192,288,6582,1,8,0:0:0:0:
352,320,6775,1,0,0:0:0:0:
288,160,6969,1,0,0:0:0:0:
288,320,7162,1,8,0:0:0:0:
288,256,7356,1,8,0:0:0:0:
352,224,7549,1,8,0:0:0:0:
384,256,7743,1,0,0:0:0:0:
288,128,8033,1,0,0:0:0:0:
384,128,8324,1,8,0:0:0:0:
448,192,8711,1,0,0:0:0:0:
416,256,8775,1,0,0:0:0:0:
192,128,8840,1,0,0:0:0:0:
128,160,8904,1,8,0:0:0:0:
192,256,9291,1,0,0:0:0:0:
384,288,9485,1,8,0:0:0:0:
288,224,9872,1,0,0:0:0:0:
320,256,10259,1,8,0:0:0:0:
320,320,10356,1,0,0:0:0:0:
224,160,10453,1,8,0:0:0:0:
320,128,10646,1,0,0:0:0:0:
224,96,10840,1,0,0:0:0:0:
416,320,11130,1,8,0:0:0:0:
384,96,11420,1,8,0:0:0:0:
224,288,11808,1,0,0:0:0:0:
416,224,12001,1,8,0:0:0:0:
192,288,12195,1,8,0:0:0:0:
288,288,12259,1,0,0:0:0:0:
384,288,12324,1,0,0:0:0:0:
288,320,12388,1,0,0:0:0:0:
160,192,12582,1,4,0:0:0:0:
288,128,12969,1,8,0:0:0:0:
160,128,13162,1,0,0:0:0:0:
384,96,13356,1,8,0:0:0:0:
416,160,13549,1,8,0:0:0:0:
416,224,13743,1,0,0:0:0:0:
256,288,13937,1,4,0:0:0:0:
64,288,14324,1,8,0:0:0:0:
64,288,14517,1,0,0:0:0:0:
64,288,14904,1,0,0:0:0:0:
64,288,15098,1,8,0:0:0:0:
384,288,15679,1,0,0:0:0:0:
384,288,15872,1,8,0:0:0:0:
384,288,16066,1,0,0:0:0:0:
384,288,16453,1,0,0:0:0:0:
384,288,16646,1,8,0:0:0:0:
224,192,17033,1,0,0:0:0:0:
224,192,17420,1,8,0:0:0:0:
224,192,17614,1,0,0:0:0:0:
352,128,18001,1,8,0:0:0:0:
320,96,18195,1,8,0:0:0:0:
288,288,18582,1,0,0:0:0:0:
352,224,18775,1,0,0:0:0:0:
384,288,18969,1,8,0:0:0:0:
352,224,19162,1,0,0:0:0:0:
288,256,19356,1,0,0:0:0:0:
224,320,19549,1,0,0:0:0:0:
224,192,19743,1,8,0:0:0:0:
160,256,19937,1,8,0:0:0:0:
160,256,20130,1,0,0:0:0:0:
160,224,20517,1,8,0:0:0:0:
192,96,20711,1,0,0:0:0:0:
128,128,21098,1,0,0:0:0:0:
320,128,21291,1,8,0:0:0:0:
416,224,21485,1,8,0:0:0:0:
320,192,21679,1,4,0:0:0:0:
288,256,22066,1,8,0:0:0:0:
256,192,22259,1,0,0:0:0:0:
384,256,22646,1,0,0:0:0:0:
448,192,22840,1,8,0:0:0:0:
384,192,23033,1,8,0:0:0:0:
416,96,23227,1,12,0:0:0:0:
320,128,23420,1,0,0:0:0:0:
128,256,23517,1,0,0:0:0:0:
224,128,23614,1,8,0:0:0:0:
192,192,23808,1,0,0:0:0:0:
256,256,24195,1,0,0:0:0:0:
320,224,24388,1,8,0:0:0:0:
384,192,24582,1,0,0:0:0:0:
384,192,24775,1,0,0:0:0:0:
448,256,24969,1,0,0:0:0:0:
288,96,25066,1,8,0:0:0:0:
384,320,25162,1,0,0:0:0:0:
416,256,25259,1,0,0:0:0:0:
352,256,25356,1,8,0:0:0:0:
416,288,25549,1,8,0:0:0:0:
256,288,25743,1,0,0:0:0:0:
256,192,25937,1,8,0:0:0:0:
384,128,26130,1,8,0:0:0:0:
64,96,26324,1,4,0:0:0:0:
128,96,26517,1,8,0:0:0:0:
160,128,26614,1,0,0:0:0:0:
192,160,26711,1,8,0:0:0:0:
256,128,26904,1,0,0:0:0:0:
320,160,27001,1,0,0:0:0:0:
384,128,27195,1,8,0:0:0:0:
384,192,27388,1,0,0:0:0:0:
352,256,27485,1,8,0:0:0:0:
288,256,27582,1,0,0:0:0:0:
224,256,27679,1,8,0:0:0:0:
96,256,27872,1,0,0:0:0:0:
96,192,28066,1,0,0:0:0:0:
160,160,28259,1,8,0:0:0:0:
224,160,28356,1,8,0:0:0:0:
288,160,28453,1,0,0:0:0:0:
352,160,28549,1,0,0:0:0:0:
416,160,28743,1,0,0:0:0:0:
416,96,28840,1,8,0:0:0:0:
352,96,29033,1,0,0:0:0:0:
288,96,29130,1,8,0:0:0:0:
224,96,29227,1,8,0:0:0:0:
160,96,29324,1,8,0:0:0:0:
96,96,29420,1,0,0:0:0:0:
96,192,29614,1,0,0:0:0:0:
128,256,29808,1,8,0:0:0:0:
192,256,30001,1,8,0:0:0:0:
256,256,30098,1,0,0:0:0:0:
320,256,30291,1,8,0:0:0:0:
384,256,30485,1,8,0:0:0:0:
384,192,30582,1,0,0:0:0:0:
320,192,30775,1,8,0:0:0:0:
256,192,30969,1,0,0:0:0:0:
192,192,31162,1,8,0:0:0:0:
128,192,31356,1,0,0:0:0:0:
128,256,31453,1,8,0:0:0:0:
160,320,31549,1,0,0:0:0:0:
224,320,31646,1,0,0:0:0:0:
288,288,31743,1,8,0:0:0:0:
288,192,31808,1,0,0:0:0:0:
224,224,31872,1,0,0:0:0:0:
224,224,31937,1,8,0:0:0:0:
352,256,32033,1,0,0:0:0:0:
352,224,32130,1,8,0:0:0:0:
416,192,32227,1,8,0:0:0:0:
352,160,32324,1,0,0:0:0:0:
320,96,32420,1,0,0:0:0:0:
256,64,32517,1,8,0:0:0:0:
224,192,32711,1,8,0:0:0:0:
288,192,32808,1,8,0:0:0:0:
128,128,32904,1,0,0:0:0:0:
192,256,33098,1,8,0:0:0:0:
256,256,33195,1,0,0:0:0:0:
128,128,33291,1,0,0:0:0:0:
128,256,33388,1,8,0:0:0:0:
192,128,33582,1,8,0:0:0:0:
128,128,33679,1,0,0:0:0:0:
256,128,33775,1,8,0:0:0:0:
352,128,33872,1,8,0:0:0:0:
128,128,34066,1,4,0:0:0:0:
448,160,34259,1,8,0:0:0:0:
384,224,34356,1,0,0:0:0:0:
128,128,34453,1,0,0:0:0:0:
352,192,34549,1,8,0:0:0:0:
320,224,34646,1,0,0:0:0:0:
416,96,34743,1,8,0:0:0:0:
128,128,34840,1,0,0:0:0:0:
352,320,34937,1,0,0:0:0:0:
288,288,35033,1,8,0:0:0:0:
128,128,35227,1,0,0:0:0:0:
320,160,35324,1,8,0:0:0:0:
256,224,35420,1,8,0:0:0:0:
128,128,35614,1,4,0:0:0:0:
128,128,35808,1,8,0:0:0:0:
448,256,35904,1,8,0:0:0:0:
128,128,36001,1,8,0:0:0:0:
128,128,36195,1,8,0:0:0:0:
448,128,36259,1,0,0:0:0:0:
320,224,36324,1,0,0:0:0:0:
128,128,36388,1,8,0:0:0:0:
128,128,36582,1,0,0:0:0:0:
384,288,36679,1,8,0:0:0:0:
224,320,36775,1,0,0:0:0:0:
288,128,36840,1,0,0:0:0:0:
320,128,36904,1,0,0:0:0:0:
256,320,36969,1,8,0:0:0:0:
256,224,37066,1,0,0:0:0:0:
128,128,37162,1,8,0:0:0:0:
288,288,37453,1,8,0:0:0:0:
288,288,37743,1,0,0:0:0:0:
224,288,37937,1,0,0:0:0:0:
160,256,38033,1,0,0:0:0:0:
192,192,38130,1,8,0:0:0:0:
96,288,38195,1,8,0:0:0:0:
32,128,38259,1,8,0:0:0:0:
288,96,38324,1,0,0:0:0:0:
384,256,38711,1,12,0:0:0:0:
352,96,38905,1,8,0:0:0:0:
160,96,39098,1,0,0:0:0:0:
32,192,39195,1,0,0:0:0:0:
352,128,39291,1,8,0:0:0:0:
256,192,39485,1,0,0:0:0:0:
320,256,39582,1,0,0:0:0:0:
160,256,39679,1,8,0:0:0:0:
192,256,39775,1,0,0:0:0:0:
256,192,39872,1,8,0:0:0:0:
384,256,40066,1,0,0:0:0:0:
352,256,40130,1,8,0:0:0:0:
320,320,40195,1,8,0:0:0:0:
256,192,40259,1,0,0:0:0:0:
384,192,40453,1,0,0:0:0:0:
384,160,40549,1,0,0:0:0:0:
256,192,40646,1,8,0:0:0:0:
192,128,40743,1,0,0:0:0:0:
352,96,40840,1,8,0:0:0:0:
416,96,40937,1,8,0:0:0:0:
256,192,41033,1,0,0:0:0:0:
288,288,41227,1,0,0:0:0:0:
352,288,41324,1,0,0:0:0:0:
256,192,41420,1,8,0:0:0:0:
448,288,41517,1,0,0:0:0:0:
448,192,41614,1,8,0:0:0:0:
384,256,41711,1,8,0:0:0:0:
256,192,41808,1,0,0:0:0:0:
192,256,42001,1,0,0:0:0:0:
256,192,42195,1,12,0:0:0:0:
192,128,42388,1,0,0:0:0:0:
288,128,42485,1,0,0:0:0:0:
256,192,42582,1,0,0:0:0:0:
352,96,42775,1,8,0:0:0:0:
352,160,42872,1,0,0:0:0:0:
256,192,42969,1,8,0:0:0:0:
96,160,43066,1,0,0:0:0:0:
192,256,43162,1,8,0:0:0:0:
96,192,43259,1,8,0:0:0:0:
256,192,43356,1,0,0:0:0:0:
320,224,43549,1,8,0:0:0:0:
288,256,43646,1,0,0:0:0:0:
256,192,43743,1,8,0:0:0:0:
384,256,43937,1,0,0:0:0:0:
352,288,44033,1,0,0:0:0:0:
256,192,44130,1,8,0:0:0:0:
256,320,44227,1,8,0:0:0:0:
320,320,44324,1,8,0:0:0:0:
384,320,44420,1,0,0:0:0:0:
256,192,44517,1,8,0:0:0:0:
96,192,44614,1,0,0:0:0:0:
160,160,44711,1,0,0:0:0:0:
256,192,44904,1,4,0:0:0:0:
160,128,45098,1,0,0:0:0:0:
256,192,45291,1,12,0:0:0:0:
352,160,45485,1,0,0:0:0:0:
320,192,45582,1,0,0:0:0:0:
256,192,45679,1,8,0:0:0:0:
448,192,45775,1,0,0:0:0:0:
416,224,45872,1,8,0:0:0:0:
384,256,45969,1,8,0:0:0:0:
256,192,46066,1,0,0:0:0:0:
448,320,46162,1,0,0:0:0:0:
416,128,46259,1,8,0:0:0:0:
192,320,46356,1,0,0:0:0:0:
256,192,46453,1,0,0:0:0:0:
224,256,46549,1,8,0:0:0:0:
288,256,46646,1,8,0:0:0:0:
320,320,46743,1,0,0:0:0:0:
256,192,46840,1,8,0:0:0:0:
320,160,47033,1,8,0:0:0:0:
352,192,47130,1,8,0:0:0:0:
256,192,47227,1,0,0:0:0:0:
320,320,47324,1,8,0:0:0:0:
256,128,47420,1,0,0:0:0:0:
160,288,47485,1,0,0:0:0:0:
192,256,47549,1,0,0:0:0:0:
256,192,47614,1,8,0:0:0:0:
416,256,47808,1,0,0:0:0:0:
256,192,48001,1,4,0:0:0:0:
256,192,48388,1,12,0:0:0:0:
320,288,48582,1,0,0:0:0:0:
64,96,48646,1,0,0:0:0:0:
96,128,48711,1,8,0:0:0:0:
160,192,48775,1,8,0:0:0:0:
320,288,48969,1,8,0:0:0:0:
352,192,49066,1,0,0:0:0:0:
256,192,49162,1,8,0:0:0:0:
320,96,49259,1,0,0:0:0:0:
352,128,49356,1,8,0:0:0:0:
416,128,49453,1,8,0:0:0:0:
256,192,49549,1,0,0:0:0:0:
256,192,49840,1,4,0:0:0:0:
256,192,50130,1,12,0:0:0:0:
384,64,50324,1,0,0:0:0:0:
352,160,50420,1,8,0:0:0:0:
448,192,50517,1,0,0:0:0:0:
416,256,50614,1,0,0:0:0:0:
256,192,50711,1,8,0:0:0:0:
320,288,50808,1,0,0:0:0:0:
320,288,50904,1,8,0:0:0:0:
256,192,51098,1,0,0:0:0:0:
192,224,51195,1,8,0:0:0:0:
224,288,51291,1,8,0:0:0:0:
160,288,51388,1,0,0:0:0:0:
256,256,51485,1,8,0:0:0:0:
416,96,51679,1,8,0:0:0:0:
192,128,51872,1,0,0:0:0:0:
288,128,51969,1,8,0:0:0:0:
320,192,52066,1,8,0:0:0:0:
352,160,52162,1,0,0:0:0:0:
352,192,52259,1,8,0:0:0:0:
320,288,52453,1,0,0:0:0:0:
384,256,52517,1,8,0:0:0:0:
416,320,52582,1,8,0:0:0:0:
448,256,52646,1,0,0:0:0:0:
192,224,52840,1,0,0:0:0:0:
192,224,52937,1,8,0:0:0:0:
256,224,53033,1,8,0:0:0:0:
160,288,53130,1,0,0:0:0:0:
256,320,53227,1,0,0:0:0:0:
192,288,53324,1,8,0:0:0:0:
192,128,53420,1,0,0:0:0:0:
288,160,53517,1,0,0:0:0:0:
384,128,53614,1,8,0:0:0:0:
384,192,53808,1,8,0:0:0:0:
448,224,53904,1,0,0:0:0:0:
384,256,54001,1,8,0:0:0:0:
320,256,54098,1,0,0:0:0:0:
448,320,54195,1,0,0:0:0:0:
96,160,54291,1,8,0:0:0:0:
160,160,54388,1,8,0:0:0:0:
256,192,54582,1,12,0:0:0:0:
224,96,54775,1,8,0:0:0:0:
288,96,54872,1,8,0:0:0:0:
256,192,54969,1,0,0:0:0:0:
224,288,55066,1,8,0:0:0:0:
160,224,55162,1,0,0:0:0:0:
224,224,55259,1,0,0:0:0:0:
256,192,55356,1,8,0:0:0:0:
352,128,55549,1,0,0:0:0:0:
256,192,55743,1,0,0:0:0:0:
384,224,55937,1,8,0:0:0:0:
352,256,56033,1,0,0:0:0:0:
256,192,56130,1,8,0:0:0:0:
384,320,56324,1,8,0:0:0:0:
288,320,56420,1,8,0:0:0:0:
256,192,56517,1,0,0:0:0:0:
224,256,56614,1,0,0:0:0:0:
320,224,56711,1,8,0:0:0:0:
384,160,56808,1,0,0:0:0:0:
256,192,56904,1,8,0:0:0:0:
320,96,57098,1,8,0:0:0:0:
256,192,57291,1,4,0:0:0:0:
480,224,57485,1,0,0:0:0:0:
480,288,57582,1,0,0:0:0:0:
256,192,57679,1,8,0:0:0:0:
128,224,57872,1,0,0:0:0:0:
160,192,57969,1,8,0:0:0:0:
160,192,58066,1,0,0:0:0:0:
160,192,58162,1,8,0:0:0:0:
160,192,58259,1,8,0:0:0:0:
160,192,58356,1,0,0:0:0:0:
160,192,58453,1,8,0:0:0:0:
160,192,58549,1,8,0:0:0:0:
160,192,58646,1,0,0:0:0:0:
192,192,58743,1,8,0:0:0:0:
160,192,58840,1,0,0:0:0:0:
320,192,59033,1,8,0:0:0:0:
384,192,59130,1,8,0:0:0:0:
384,256,59227,1,0,0:0:0:0:
288,288,59324,1,0,0:0:0:0:
288,224,59420,1,8,0:0:0:0:
224,256,59517,1,8,0:0:0:0:
320,288,59614,1,8,0:0:0:0:
288,128,59808,1,0,0:0:0:0:
32,128,59872,1,8,0:0:0:0:
96,160,59937,1,8,0:0:0:0:
288,160,60001,1,8,0:0:0:0:
224,160,60098,1,0,0:0:0:0:
256,224,60195,1,8,0:0:0:0:
192,256,60291,1,8,0:0:0:0:
128,288,60388,1,0,0:0:0:0:
224,192,60679,1,4,0:0:0:0:
224,192,60969,1,4,0:0:0:0:
224,192,61259,1,4,0:0:0:0:
224,192,61549,1,12,0:0:0:0:
256,192,61646,8,0,62614,0:0:0:0:
448,96,62711,5,8,0:0:0:0:
384,96,62808,1,8,0:0:0:0:
352,128,62904,1,0,0:0:0:0:
320,192,63001,1,8,0:0:0:0:
448,224,63098,1,0,0:0:0:0:
480,288,63291,1,8,0:0:0:0:
384,224,63485,1,4,0:0:0:0:
160,256,63679,1,0,0:0:0:0:
224,288,63775,1,0,0:0:0:0:
256,192,63872,1,8,0:0:0:0:
320,320,64066,1,8,0:0:0:0:
256,192,64259,1,0,0:0:0:0:
384,320,64356,1,8,0:0:0:0:
448,224,64453,1,0,0:0:0:0:
384,192,64549,1,0,0:0:0:0:
256,192,64646,1,8,0:0:0:0:
352,96,64840,1,8,0:0:0:0:
256,192,65033,1,0,0:0:0:0:
224,96,65227,1,0,0:0:0:0:
160,160,65324,1,0,0:0:0:0:
256,192,65420,1,8,0:0:0:0:
192,256,65517,1,8,0:0:0:0:
256,288,65614,1,0,0:0:0:0:
320,320,65711,1,8,0:0:0:0:
256,192,65808,1,0,0:0:0:0:
416,256,66001,1,0,0:0:0:0:
416,320,66098,1,8,0:0:0:0:
256,192,66195,1,8,0:0:0:0:
352,224,66291,1,0,0:0:0:0:
416,160,66388,1,8,0:0:0:0:
256,192,66582,1,4,0:0:0:0:
192,320,66775,1,8,0:0:0:0:
256,352,66872,1,0,0:0:0:0:
256,192,66969,1,8,0:0:0:0:
320,160,67162,1,8,0:0:0:0:
384,96,67259,1,0,0:0:0:0:
256,192,67356,1,8,0:0:0:0:
384,224,67420,1,8,0:0:0:0:
352,224,67485,1,8,0:0:0:0:
384,224,67549,1,8,0:0:0:0:
32,224,67646,1,0,0:0:0:0:
256,192,67743,1,8,0:0:0:0:
448,192,67937,1,0,0:0:0:0:
256,96,68033,1,8,0:0:0:0:
256,192,68130,1,0,0:0:0:0:
224,320,68324,1,8,0:0:0:0:
160,288,68420,1,0,0:0:0:0:
256,192,68517,1,8,0:0:0:0:
160,128,68614,1,0,0:0:0:0:
288,288,68711,1,8,0:0:0:0:
352,256,68808,1,0,0:0:0:0:
256,192,68904,1,0,0:0:0:0:
352,128,69001,1,8,0:0:0:0:
416,160,69098,1,8,0:0:0:0:
256,192,69291,1,8,0:0:0:0:
256,192,69679,1,4,0:0:0:0:
384,352,69872,1,0,0:0:0:0:
448,320,69969,1,0,0:0:0:0:
256,192,70066,1,8,0:0:0:0:
352,288,70259,1,8,0:0:0:0:
256,192,70453,1,0,0:0:0:0:
96,128,70549,1,8,0:0:0:0:
384,128,70646,1,0,0:0:0:0:
256,192,70840,1,8,0:0:0:0:
320,320,71033,1,0,0:0:0:0:
256,192,71227,1,0,0:0:0:0:
256,320,71420,1,8,0:0:0:0:
192,320,71517,1,8,0:0:0:0:
256,192,71614,1,8,0:0:0:0:
96,320,71711,1,0,0:0:0:0:
128,256,71808,1,8,0:0:0:0:
64,224,71904,1,8,0:0:0:0:
256,192,72001,1,0,0:0:0:0:
128,192,72195,1,0,0:0:0:0:
160,256,72291,1,0,0:0:0:0:
256,192,72388,1,8,0:0:0:0:
128,96,72485,1,0,0:0:0:0:
224,96,72582,1,0,0:0:0:0:
320,128,72679,1,8,0:0:0:0:
256,192,72775,1,0,0:0:0:0:
256,192,73162,1,8,0:0:0:0:
256,192,73549,1,0,0:0:0:0:
384,224,73646,1,0,0:0:0:0:
384,288,73743,1,0,0:0:0:0:
352,320,73840,1,0,0:0:0:0:
256,192,73937,1,8,0:0:0:0:
256,192,74130,1,4,0:0:0:0:
256,192,74324,1,12,0:0:0:0:
256,192,74614,1,4,0:0:0:0:
256,192,74904,1,4,0:0:0:0:
256,192,75195,1,12,0:0:0:0:
384,160,75485,1,4,0:0:0:0:
352,288,75679,1,0,0:0:0:0:
384,256,75775,1,0,0:0:0:0:
448,256,75872,1,8,0:0:0:0:
64,64,76066,1,0,0:0:0:0:
64,64,76259,1,8,0:0:0:0:
64,64,76453,1,0,0:0:0:0:
64,64,76549,1,0,0:0:0:0:
64,64,76743,1,8,0:0:0:0:
64,64,76937,1,0,0:0:0:0:
64,64,77033,1,8,0:0:0:0:
64,64,77130,1,0,0:0:0:0:
64,64,77227,1,8,0:0:0:0:
128,64,77420,1,0,0:0:0:0:
128,64,77614,1,0,0:0:0:0:
128,64,77808,1,0,0:0:0:0:
128,64,77904,1,8,0:0:0:0:
128,64,78001,1,8,0:0:0:0:
128,64,78098,1,0,0:0:0:0:
128,64,78291,1,8,0:0:0:0:
128,64,78388,1,8,0:0:0:0:
128,64,78582,1,8,0:0:0:0:
128,64,78679,1,0,0:0:0:0:
128,64,78775,1,0,0:0:0:0:
192,64,78969,1,8,0:0:0:0:
192,64,79066,1,8,0:0:0:0:
192,64,79162,1,0,0:0:0:0:
192,64,79356,1,8,0:0:0:0:
192,64,79549,1,8,0:0:0:0:
192,64,79646,1,0,0:0:0:0:
192,64,79840,1,8,0:0:0:0:
192,64,80033,1,0,0:0:0:0:
192,64,80130,1,8,0:0:0:0:
192,64,80227,1,0,0:0:0:0:
192,64,80324,1,8,0:0:0:0:
256,64,80517,1,0,0:0:0:0:
256,64,80711,1,0,0:0:0:0:
256,64,80904,1,8,0:0:0:0:
256,64,81098,1,0,0:0:0:0:
256,64,81195,1,0,0:0:0:0:
256,64,81291,1,8,0:0:0:0:
256,64,81356,1,0,0:0:0:0:
256,64,81420,1,0,0:0:0:0:
320,192,81485,1,8,0:0:0:0:
256,64,81582,1,0,0:0:0:0:
256,64,81679,1,8,0:0:0:0:
256,64,81775,1,8,0:0:0:0:
256,64,81872,1,0,0:0:0:0:
256,64,81969,1,8,0:0:0:0:
256,64,82066,1,0,0:0:0:0:
160,192,82259,1,0,0:0:0:0:
384,320,82356,1,0,0:0:0:0:
160,224,82453,1,8,0:0:0:0:
256,288,82646,1,8,0:0:0:0:
320,288,82743,1,0,0:0:0:0:
256,192,82840,1,0,0:0:0:0:
416,224,82937,1,8,0:0:0:0:
448,320,83130,1,0,0:0:0:0:
256,192,83227,1,8,0:0:0:0:
352,128,83420,1,8,0:0:0:0:
256,192,83614,1,4,0:0:0:0:
480,224,83808,1,8,0:0:0:0:
256,192,84001,1,0,0:0:0:0:
288,352,84098,1,8,0:0:0:0:
352,320,84195,1,8,0:0:0:0:
160,256,84291,1,0,0:0:0:0:
256,192,84388,1,0,0:0:0:0:
224,288,84485,1,8,0:0:0:0:
224,288,84582,1,8,0:0:0:0:
256,192,84775,1,0,0:0:0:0:
320,256,84872,1,8,0:0:0:0:
384,160,84969,1,8,0:0:0:0:
256,192,85162,1,4,0:0:0:0:
128,288,85356,1,8,0:0:0:0:
160,320,85453,1,8,0:0:0:0:
256,192,85549,1,0,0:0:0:0:
448,256,85743,1,0,0:0:0:0:
416,320,85808,1,8,0:0:0:0:
352,320,85872,1,8,0:0:0:0:
256,192,85937,1,0,0:0:0:0:
384,160,86130,1,0,0:0:0:0:
480,96,86227,1,8,0:0:0:0:
256,192,86324,1,0,0:0:0:0:
256,320,86388,1,0,0:0:0:0:
352,256,86453,1,0,0:0:0:0:
160,160,86517,1,8,0:0:0:0:
224,160,86614,1,0,0:0:0:0:
256,192,86711,1,8,0:0:0:0:
256,192,87001,1,0,0:0:0:0:
256,192,87291,1,0,0:0:0:0:
352,96,87485,1,0,0:0:0:0:
256,192,87582,1,0,0:0:0:0:
96,224,87679,1,0,0:0:0:0:
160,288,87775,1,0,0:0:0:0:
320,288,87872,1,8,0:0:0:0:
352,288,87969,1,8,0:0:0:0:
416,288,88066,1,8,0:0:0:0:
448,320,88162,1,8,0:0:0:0:
448,224,88259,1,4,0:0:0:0:
192,96,88453,1,0,0:0:0:0:
256,192,88646,1,12,0:0:0:0:
320,160,88840,1,8,0:0:0:0:
352,224,88937,1,0,0:0:0:0:
256,192,89033,1,0,0:0:0:0:
384,128,89130,1,8,0:0:0:0:
416,192,89227,1,8,0:0:0:0:
448,128,89324,1,0,0:0:0:0:
256,192,89420,1,8,0:0:0:0:
224,224,89614,1,8,0:0:0:0:
256,288,89679,1,8,0:0:0:0:
320,288,89743,1,8,0:0:0:0:
256,192,89808,1,0,0:0:0:0:
160,320,90001,1,8,0:0:0:0:
256,352,90098,1,0,0:0:0:0:
256,192,90195,1,8,0:0:0:0:
224,96,90291,1,0,0:0:0:0:
160,96,90388,1,8,0:0:0:0:
128,256,90485,1,8,0:0:0:0:
256,192,90582,1,0,0:0:0:0:
224,288,90679,1,8,0:0:0:0:
384,128,90775,1,0,0:0:0:0:
96,192,90872,1,0,0:0:0:0:
256,192,90969,1,8,0:0:0:0:
32,256,91066,1,0,0:0:0:0:
416,256,91162,1,8,0:0:0:0:
64,128,91259,1,8,0:0:0:0:
256,192,91356,1,0,0:0:0:0:
448,160,91550,1,0,0:0:0:0:
256,192,91743,1,12,0:0:0:0:
352,352,91937,1,8,0:0:0:0:
416,320,92033,1,0,0:0:0:0:
256,192,92130,1,0,0:0:0:0:
224,288,92324,1,8,0:0:0:0:
256,192,92517,1,8,0:0:0:0:
416,288,92711,1,0,0:0:0:0:
416,256,92808,1,8,0:0:0:0:
256,192,92904,1,0,0:0:0:0:
320,256,93098,1,0,0:0:0:0:
352,128,93195,1,0,0:0:0:0:
256,192,93291,1,8,0:0:0:0:
416,160,93485,1,8,0:0:0:0:
448,192,93582,1,8,0:0:0:0:
256,192,93679,1,0,0:0:0:0:
384,224,93775,1,0,0:0:0:0:
480,288,93872,1,8,0:0:0:0:
320,320,93969,1,8,0:0:0:0:
256,192,94066,1,8,0:0:0:0:
320,192,94162,1,0,0:0:0:0:
224,320,94259,1,0,0:0:0:0:
128,288,94356,1,8,0:0:0:0:
256,192,94453,1,0,0:0:0:0:
96,192,94646,1,0,0:0:0:0:
256,192,94840,1,12,0:0:0:0:
224,128,95033,1,0,0:0:0:0:
320,128,95130,1,0,0:0:0:0:
256,192,95227,1,8,0:0:0:0:
192,192,95324,1,8,0:0:0:0:
352,224,95420,1,0,0:0:0:0:
480,192,95517,1,0,0:0:0:0:
256,192,95614,1,8,0:0:0:0:
480,96,95711,1,0,0:0:0:0:
256,288,95808,1,8,0:0:0:0:
384,320,95872,1,0,0:0:0:0:
128,96,95937,1,0,0:0:0:0:
256,192,96001,1,8,0:0:0:0:
320,64,96098,1,0,0:0:0:0:
384,96,96195,1,8,0:0:0:0:
256,192,96388,1,8,0:0:0:0:
384,224,96485,1,8,0:0:0:0:
288,288,96582,1,8,0:0:0:0:
320,320,96679,1,8,0:0:0:0:
256,192,96775,1,0,0:0:0:0:
416,256,96969,1,8,0:0:0:0:
480,192,97066,1,0,0:0:0:0:
256,192,97162,1,8,0:0:0:0:
160,160,97227,1,0,0:0:0:0:
160,192,97291,1,0,0:0:0:0:
352,192,97356,1,8,0:0:0:0:
320,128,97453,1,0,0:0:0:0:
256,192,97550,1,0,0:0:0:0:
192,96,97743,1,0,0:0:0:0:
256,192,97937,1,8,0:0:0:0:
416,128,98130,1,0,0:0:0:0:
384,160,98195,1,0,0:0:0:0:
416,192,98259,1,0,0:0:0:0:
256,192,98324,1,8,0:0:0:0:
224,288,98517,1,0,0:0:0:0:
320,288,98614,1,0,0:0:0:0:
256,192,98711,1,8,0:0:0:0:
320,64,98904,1,0,0:0:0:0:
320,128,99001,1,0,0:0:0:0:
256,192,99098,1,0,0:0:0:0:
128,192,99388,1,4,0:0:0:0:
128,192,99679,1,4,0:0:0:0:
128,192,99969,1,0,0:0:0:0:
320,288,100066,1,0,0:0:0:0:
416,288,100162,1,8,0:0:0:0:
128,192,100259,1,0,0:0:0:0:
192,192,100356,1,8,0:0:0:0:
256,192,100453,1,8,0:0:0:0:
320,192,100550,1,8,0:0:0:0:
384,192,100646,1,0,0:0:0:0:
224,96,100840,1,0,0:0:0:0:
288,96,100937,1,8,0:0:0:0:
384,128,101033,1,8,0:0:0:0:
160,128,101227,1,4,0:0:0:0:
256,128,101420,1,8,0:0:0:0:
320,128,101517,1,8,0:0:0:0:
384,64,101614,1,0,0:0:0:0:
384,288,101808,1,12,0:0:0:0:
480,256,102001,1,8,0:0:0:0:
512,320,102098,1,8,0:0:0:0:
384,320,102195,1,0,0:0:0:0:
160,320,102388,1,8,0:0:0:0:
288,320,102485,1,8,0:0:0:0:
256,192,102582,1,0,0:0:0:0:
128,256,102679,1,8,0:0:0:0:
128,160,102775,1,0,0:0:0:0:
448,256,102872,1,8,0:0:0:0:
256,192,102969,1,8,0:0:0:0:
384,320,103066,1,0,0:0:0:0:
384,192,103162,1,8,0:0:0:0:
448,192,103259,1,0,0:0:0:0:
256,192,103356,1,8,0:0:0:0:
192,288,103453,1,0,0:0:0:0:
256,96,103550,1,8,0:0:0:0:
320,96,103646,1,8,0:0:0:0:
256,192,103743,1,0,0:0:0:0:
384,160,103937,1,0,0:0:0:0:
256,192,104130,1,8,0:0:0:0:
416,96,104324,1,0,0:0:0:0:
384,64,104420,1,0,0:0:0:0:
256,192,104517,1,8,0:0:0:0:
384,224,104614,1,0,0:0:0:0:
480,192,104711,1,0,0:0:0:0:
448,256,104808,1,8,0:0:0:0:
256,192,104904,1,8,0:0:0:0:
320,320,105098,1,8,0:0:0:0:
352,320,105195,1,8,0:0:0:0:
256,192,105291,1,0,0:0:0:0:
224,320,105485,1,0,0:0:0:0:
288,288,105582,1,8,0:0:0:0:
256,192,105679,1,8,0:0:0:0:
352,160,105872,1,0,0:0:0:0:
384,160,105969,1,8,0:0:0:0:
256,192,106066,1,0,0:0:0:0:
416,256,106162,1,8,0:0:0:0:
448,192,106259,1,8,0:0:0:0:
448,256,106356,1,0,0:0:0:0:
256,192,106453,1,8,0:0:0:0:
416,64,106550,1,0,0:0:0:0:
448,96,106646,1,0,0:0:0:0:
320,256,106743,1,8,0:0:0:0:
256,192,106840,1,0,0:0:0:0:
384,288,107033,1,8,0:0:0:0:
416,320,107130,1,0,0:0:0:0:
352,352,107227,1,0,0:0:0:0:
192,288,107420,1,0,0:0:0:0:
320,288,107517,1,0,0:0:0:0:
256,352,107614,1,8,0:0:0:0:
384,224,107711,1,0,0:0:0:0:
288,288,107808,1,0,0:0:0:0:
96,224,107904,1,8,0:0:0:0:
160,320,108001,1,0,0:0:0:0:
192,192,108098,1,0,0:0:0:0:
128,256,108195,1,8,0:0:0:0:
256,192,108388,1,0,0:0:0:0:
96,96,108485,1,8,0:0:0:0:
224,96,108582,1,8,0:0:0:0:
352,160,108679,1,0,0:0:0:0:
256,192,108775,1,8,0:0:0:0:
224,320,108872,1,0,0:0:0:0:
448,224,108969,1,8,0:0:0:0:
352,256,109066,1,8,0:0:0:0:
256,192,109162,1,0,0:0:0:0:
256,256,109259,1,0,0:0:0:0:
320,320,109356,1,8,0:0:0:0:
416,288,109453,1,8,0:0:0:0:
256,192,109550,1,8,0:0:0:0:
320,352,109646,1,0,0:0:0:0:
384,128,109743,1,8,0:0:0:0:
448,96,109840,1,8,0:0:0:0:
256,192,109937,1,0,0:0:0:0:
192,288,110227,1,4,0:0:0:0:
192,288,110517,1,4,0:0:0:0:
192,288,110808,1,12,0:0:0:0:
192,288,111098,1,4,0:0:0:0:
192,288,111485,1,4,0:0:0:0:
192,288,111775,1,12,0:0:0:0:
192,288,112066,1,12,0:0:0:0:
192,288,112356,1,12,0:0:0:0:
384,160,112646,1,0,0:0:0:0:
448,288,112711,1,0,0:0:0:0:
352,224,112775,1,0,0:0:0:0:
352,320,112840,1,0,0:0:0:0:
480,160,112904,1,0,0:0:0:0:
64,192,112969,1,0,0:0:0:0:
320,224,113033,1,8,0:0:0:0:
192,160,113614,1,0,0:0:0:0:
288,160,114195,1,8,0:0:0:0:
288,160,114582,1,0,0:0:0:0:
416,224,114775,1,8,0:0:0:0:
448,128,114969,1,0,0:0:0:0:
288,288,115162,1,0,0:0:0:0:
384,96,115356,1,8,0:0:0:0:
416,320,115550,1,0,0:0:0:0:
352,224,115743,1,8,0:0:0:0:
128,256,115937,1,0,0:0:0:0:
384,160,116130,1,0,0:0:0:0:
288,160,116711,1,0,0:0:0:0:
256,256,117098,1,0,0:0:0:0:
352,96,117291,1,8,0:0:0:0:
416,288,117872,1,0,0:0:0:0:
320,352,118066,1,8,0:0:0:0:
352,192,118259,1,8,0:0:0:0:
192,288,118453,1,0,0:0:0:0:
160,160,118646,1,0,0:0:0:0:
256,320,118840,1,8,0:0:0:0:
352,256,119033,1,0,0:0:0:0:
448,192,119227,1,4,0:0:0:0:
320,160,119808,1,0,0:0:0:0:
160,288,120195,1,8,0:0:0:0:
256,192,120388,1,0,0:0:0:0:
128,160,120582,1,8,0:0:0:0:
320,288,120775,1,12,0:0:0:0:
384,256,121356,1,0,0:0:0:0:
416,160,121743,1,0,0:0:0:0:
416,160,121937,1,0,0:0:0:0:
416,160,122130,1,8,0:0:0:0:
416,160,122324,1,4,0:0:0:0:
192,224,122711,1,8,0:0:0:0:
192,224,122904,1,0,0:0:0:0:
320,256,123485,1,12,0:0:0:0:
352,256,123872,1,4,0:0:0:0:
256,224,124066,1,0,0:0:0:0:
288,160,124162,1,0,0:0:0:0:
384,128,124259,1,8,0:0:0:0:
192,320,124453,1,0,0:0:0:0:
192,320,124646,1,8,0:0:0:0:
192,320,124840,1,8,0:0:0:0:
192,320,125033,1,8,0:0:0:0:
96,96,125227,1,0,0:0:0:0:
256,192,125420,12,0,130066,0:0:0:0:
