osu file format v14

[General]
AudioFilename: Memme+-+Sky+Of+The+Earth.mp3
AudioLeadIn: 0
PreviewTime: 2244
Countdown: 0
SampleSet: Soft
StackLeniency: 0.2
Mode: 0
LetterboxInBreaks: 0
WidescreenStoryboard: 1

[Editor]
DistanceSpacing: 1.5
BeatDivisor: 12
GridSize: 32
TimelineZoom: 3.099999

[Metadata]
Title:Sky of the Earth
TitleUnicode:Sky of the Earth
Artist:Memme
ArtistUnicode:Memme
Creator:TheGrimOfCrazy
Version:celestial vault
Source:
Tags:SeeU
BeatmapID:583843
BeatmapSetID:254571

[Difficulty]
HPDrainRate:7
CircleSize:4.2
OverallDifficulty:8
ApproachRate:9.3
SliderMultiplier:3.34999990463257
SliderTickRate:3

[Events]
//Background and Video events
0,0,"Hanyijie.full.1753095.jpg",0,0
//Break Periods
//Storyboard Layer 0 (Background)
//Storyboard Layer 1 (Fail)
//Storyboard Layer 2 (Pass)
//Storyboard Layer 3 (Foreground)
//Storyboard Sound Samples

[TimingPoints]
2244,782.676754500391,4,2,3,60,1,0
2244,-133.333333333333,4,2,3,60,0,0
6157,-100,4,2,3,60,0,0
7200,-80,4,2,3,60,0,0
14766,-100,4,2,3,60,0,0
15027,-133.333333333333,4,2,3,60,0,0
15549,-100,4,2,3,60,0,0
15810,-133.333333333333,4,2,3,60,0,0
21028,-79.9999999999999,4,2,3,60,0,0
24158,-133.333333333333,4,2,3,60,0,0
27289,-79.9999999999999,4,2,3,60,0,0
30420,-100,4,2,3,60,0,0
33551,-79.9999999999999,4,2,3,60,0,0
42943,-200,4,2,3,60,0,0
49204,-100,4,2,3,60,0,0
58596,-66.6666666666667,4,2,3,60,0,1
67988,-50,4,2,3,60,0,1
68184,-50,4,2,3,5,0,1
68249,-50,4,2,3,5,0,1
68249,-50,4,2,3,80,0,1
68510,-200,4,2,3,80,0,1
68771,-50,4,2,3,80,0,1
68967,-50,4,2,3,5,0,1
69032,-50,4,2,3,80,0,1
69293,-200,4,2,3,80,0,1
69554,-50,4,2,3,70,0,1
71119,-66.6666666666667,4,2,3,70,0,1
74250,-100,4,2,3,60,0,0
99165,-100,4,2,3,5,0,0
99295,-100,4,2,3,60,0,0
103991,-50,4,2,3,60,0,0
105557,-66.6666666666667,4,2,3,70,0,1
127472,-50,4,2,3,80,0,1
127684,-66.6666666666667,4,2,3,5,0,1
127733,-50,4,2,3,80,0,1
127994,-200,4,2,3,80,0,1
128254,-50,4,2,3,80,0,1
128450,-66.6666666666667,4,2,3,5,0,1
128515,-50,4,2,3,80,0,1
128776,-200,4,2,3,80,0,1
129037,-50,4,2,3,60,0,1
133733,-100,4,2,3,60,0,0

[Colours]
Combo1 : 26,140,255
Combo2 : 232,168,0
Combo3 : 185,241,54
Combo4 : 255,85,85

[HitObjects]
105,169,2244,6,0,L|191:174,1,83.7500008106232
357,146,2765,1,0,0:0:0:0:
251,225,3026,2,0,P|276:154|201:31,1,167.500001621246
179,277,3809,2,0,P|131:284|86:285,1,83.7500008106232
337,166,4331,2,0,P|396:176|439:179,1,83.7500008106232
328,159,4852,1,0,0:0:0:0:
468,270,5113,1,0,0:0:0:0:
300,240,5374,6,0,P|295:189|305:140,1,83.7500008106232
87,61,5896,1,0,0:0:0:0:
162,71,6026,1,0,0:0:0:0:
113,128,6157,2,0,P|110:159|116:189,1,55.8333317438762
196,329,6418,2,0,L|180:254,1,55.8333317438762
13,204,6679,1,0,0:0:0:0:
291,236,6809,2,0,P|332:248|340:245,1,27.9166658719381
394,199,6940,6,0,P|436:203|450:199,1,55.8333317438762
291,236,7200,2,0,P|251:221|209:212,1,69.7916646798452,0|0,0:0|0:0,0:0:0:0:
115,212,7461,1,0,0:0:0:0:
361,73,7592,1,0,0:0:0:0:
289,353,7722,6,0,L|269:276,1,69.7916646798452
377,135,7983,2,0,P|366:160|364:197,1,34.8958323399226
215,112,8114,2,0,P|212:96|206:78,1,34.8958323399226
354,263,8244,2,0,L|413:258,3,34.8958323399226
367,246,8505,6,0,B|326:233|287:230|287:230|240:245,1,104.687497019768
168,263,8766,2,0,P|113:271|84:267,1,69.7916646798452
99,269,9157,1,0,0:0:0:0:
287,370,9288,2,0,P|285:260|254:234,1,139.58332935969
211,326,9679,2,0,P|160:341|82:266,1,139.58332935969
288,228,10070,2,0,P|270:171|266:151,1,69.7916646798452
400,164,10331,2,0,P|409:129|399:58,1,104.687497019768
382,61,10592,2,0,L|305:69,1,69.7916646798452
173,243,10853,5,0,0:0:0:0:
173,243,11114,2,0,P|231:260|270:261,1,69.7916646798452
303,110,11375,2,0,L|269:105,3,34.8958323399226,0|0|0|0,0:0|0:0|0:0|0:0,0:0:0:0:
202,124,11636,2,0,L|310:131,1,104.687497019768
502,234,11897,2,0,P|463:238|443:233,1,34.8958323399226
315,302,12027,2,0,B|243:319|170:298,1,139.58332935969
29,93,12418,2,0,P|84:81|167:70,1,139.58332935969
166,70,12810,5,0,0:0:0:0:
217,140,12940,1,0,0:0:0:0:
298,142,13071,1,0,0:0:0:0:
365,105,13201,2,0,P|426:111|508:112,1,139.58332935969
409,273,13723,6,0,L|398:366,1,69.7916646798452
279,220,13984,2,0,P|269:154|284:75,1,139.58332935969
359,30,14375,1,0,0:0:0:0:
448,112,14505,1,0,0:0:0:0:
440,127,14571,1,0,0:0:0:0:
432,142,14636,1,0,0:0:0:0:
448,108,14766,6,0,P|453:64|429:22,1,83.7499976158143
361,150,15027,2,0,P|352:187|347:197,1,41.8750004053116
298,46,15288,2,0,P|273:61|249:80,1,41.8750004053116
167,138,15549,2,0,P|198:138|257:159,1,83.7499976158143
142,221,15810,2,0,L|93:227,1,41.8750004053116
304,207,16071,2,0,P|343:209|352:211,1,41.8750004053116
384,111,16332,5,0,0:0:0:0:
365,313,16593,2,0,L|358:347,1,20.9375002026558
308,260,16723,1,0,0:0:0:0:
489,238,16853,1,0,0:0:0:0:
441,292,16984,1,0,0:0:0:0:
278,191,17114,1,0,0:0:0:0:
278,191,17897,6,0,L|185:183,1,83.7500008106232
110,227,18288,1,0,0:0:0:0:
204,140,18549,1,0,0:0:0:0:
278,191,18680,2,0,P|316:194|405:156,1,125.625001215935
396,163,19462,2,0,P|362:208|380:312,1,167.500001621246
379,311,20245,2,0,P|340:258|283:227,1,125.625001215935
222,254,20767,2,0,L|210:322,1,62.8125006079674
128,179,21028,6,0,L|102:84,1,69.7916646798452
309,66,21289,1,0,0:0:0:0:
280,237,21419,2,0,P|262:297|253:308,1,69.7916646798452
215,170,21680,1,0,0:0:0:0:
421,287,21810,2,0,L|464:294,1,34.8958323399226
347,352,21941,1,0,0:0:0:0:
358,213,22071,2,0,P|362:176|379:138,1,69.7916646798452
191,291,22332,2,0,P|145:302|71:287,1,104.687497019768
54,224,22593,6,0,L|77:109,1,104.687497019768
197,60,22854,2,0,L|172:183,1,104.687497019768
239,319,23115,2,0,L|265:192,1,104.687497019768
396,51,23376,2,0,L|369:169,1,104.687497019768
406,361,23637,5,0,0:0:0:0:
268,245,23767,1,0,0:0:0:0:
448,244,23898,1,0,0:0:0:0:
309,359,24028,1,0,0:0:0:0:
355,161,24158,6,0,B|350:116|350:116|367:67,2,83.7500008106232,0|0|0,0:0|0:0|0:0,0:0:0:0:
355,161,24941,2,0,P|280:176|189:148,1,167.500001621246
194,151,25724,2,0,L|98:163,1,83.7500008106232
65,216,26115,1,0,0:0:0:0:
114,267,26246,2,0,P|147:274|169:272,1,41.8750004053116
262,227,26506,2,0,P|310:223|387:247,1,125.625001215935
383,244,27028,2,0,L|368:326,1,62.8125006079674
453,182,27289,6,0,P|451:121|430:73,1,104.687497019768
323,113,27550,1,0,0:0:0:0:
206,85,27680,1,0,0:0:0:0:
92,118,27811,1,0,0:0:0:0:
85,134,27941,1,0,0:0:0:0:
228,296,28072,2,0,B|256:253|252:224|252:224|232:176,1,104.687497019768
140,200,28333,2,0,L|100:280,1,69.7916646798452
334,200,28594,1,0,0:0:0:0:
152,200,28724,1,0,0:0:0:0:
344,200,28855,6,0,B|352:164|352:164|336:108,1,69.7916646798452
412,248,29115,1,0,0:0:0:0:
411,261,29181,1,0,0:0:0:0:
413,274,29246,2,0,P|417:307|423:318,1,34.8958323399226
254,289,29376,2,0,P|264:216|246:138,1,139.58332935969
241,148,29898,1,0,0:0:0:0:
127,135,30029,1,0,0:0:0:0:
140,18,30159,1,0,0:0:0:0:
259,31,30289,1,0,0:0:0:0:
99,149,30420,6,0,P|124:208|97:267,1,111.666663487752
48,208,30811,2,0,L|8:156,1,55.8333317438762
196,208,31072,1,0,0:0:0:0:
296,336,31203,1,0,0:0:0:0:
215,319,31333,1,0,0:0:0:0:
272,261,31463,1,0,0:0:0:0:
265,267,31985,6,0,B|321:244|321:244|394:251,1,111.666663487752
439,257,32377,1,0,0:0:0:0:
406,152,32507,2,0,B|361:160|361:160|321:157,1,83.7499976158143
230,115,32768,2,0,P|186:108|66:155,1,167.499995231629
73,148,33290,2,0,L|161:142,1,83.7499976158143
316,64,33551,6,0,L|298:209,1,139.58332935969
401,111,33942,2,0,L|496:95,1,69.7916646798452
228,185,34203,2,0,P|186:187|174:182,1,34.8958323399226
109,157,34333,2,0,P|61:155|30:166,1,69.7916646798452
180,285,34594,1,0,0:0:0:0:
180,285,34855,2,0,L|288:280,1,104.687497019768
383,192,35116,2,0,P|430:198|500:178,1,104.687497019768
292,119,35377,2,0,P|251:112|185:125,1,104.687497019768
384,80,35638,2,0,P|397:35|348:11,1,104.687497019768
294,234,35899,5,0,0:0:0:0:
294,234,35964,1,0,0:0:0:0:
294,234,36029,1,0,0:0:0:0:
275,245,36159,6,0,P|213:256|137:220,1,139.58332935969,0|0,0:0|0:0,0:0:0:0:
287,263,36681,6,0,B|308:157|308:157|282:111,1,139.58332935969
188,108,37073,1,0,0:0:0:0:
242,347,37203,2,0,P|308:369|340:363,1,69.7916646798452
388,104,37464,6,0,B|343:87|284:104|284:104|245:137,1,139.58332935969
153,297,37855,1,0,0:0:0:0:
431,156,37986,2,0,P|396:108|360:93,1,69.7916646798452
189,45,38247,6,0,B|188:134|188:134|144:199,1,139.58332935969
57,201,38638,1,0,0:0:0:0:
257,2,38768,2,0,P|304:-5|346:10,1,69.7916646798452
316,241,39029,6,0,P|312:182|331:125,1,104.687497019768
419,250,39290,2,0,L|403:313,1,34.8958323399226
401,119,39421,2,0,L|454:113,1,34.8958323399226
452,342,39551,2,0,P|409:354|350:323,1,104.687497019768
293,217,39812,6,0,P|215:198|102:233,1,174.479161699613
226,276,40203,2,0,L|295:301,1,69.7916646798452
335,365,40464,1,0,0:0:0:0:
254,88,40595,1,0,0:0:0:0:
246,103,41377,2,0,P|287:108|254:41,1,139.58332935969
332,322,41769,1,0,0:0:0:0:
325,305,42160,6,0,L|264:292,1,34.8958323399226
202,261,42290,6,0,L|140:276,2,34.8958323399226,0|0|0,0:0|0:0|0:0,0:0:0:0:
328,151,42682,6,0,L|334:224,1,69.7916646798452
340,340,42943,6,0,P|368:338|398:334,2,55.8333317438762,0|0|0,0:0|0:0|0:0,0:0:0:0:
129,338,43725,1,0,0:0:0:0:
121,332,44508,2,0,L|99:240,1,55.8333317438762
218,126,45030,2,0,L|203:187,1,55.8333317438762
204,180,45813,5,0,0:0:0:0:
282,229,45943,1,0,0:0:0:0:
367,230,46073,1,0,0:0:0:0:
359,234,46334,1,0,0:0:0:0:
287,44,46595,1,0,0:0:0:0:
352,306,46856,1,0,0:0:0:0:
388,182,47117,1,0,0:0:0:0:
179,243,47378,1,0,0:0:0:0:
411,174,47639,5,0,0:0:0:0:
353,126,48291,1,0,0:0:0:0:
353,115,48356,1,0,0:0:0:0:
351,103,48421,5,0,0:0:0:0:
199,96,48943,1,0,0:0:0:0:
184,120,49008,1,0,0:0:0:0:
179,147,49074,1,0,0:0:0:0:
184,174,49139,1,0,0:0:0:0:
198,197,49204,6,0,L|271:211,2,55.8333317438762
103,249,49595,2,0,P|79:250|11:305,1,111.666663487752
263,327,49987,2,0,B|307:330|351:315|351:315|386:322,2,111.666663487752,0|0|0,0:0|0:0|0:0,0:0:0:0:
89,206,50769,2,0,P|150:187|213:206,1,111.666663487752
195,196,51291,1,0,0:0:0:0:
393,141,51552,6,0,P|408:85|391:17,1,111.666663487752
265,77,52074,1,0,0:0:0:0:
258,83,52139,1,0,0:0:0:0:
253,90,52204,1,0,0:0:0:0:
243,92,52270,1,0,0:0:0:0:
234,89,52335,2,0,B|170:85|170:85|113:89,1,111.666663487752
77,279,52726,6,0,P|135:292|155:293,1,55.8333317438762
131,291,52922,1,0,0:0:0:0:
131,291,52987,1,0,0:0:0:0:
331,233,53117,1,0,0:0:0:0:
478,260,53248,1,0,0:0:0:0:
373,366,53378,2,0,L|335:401,1,27.9166658719381
82,143,53639,2,0,L|185:156,1,83.7499976158143
282,234,53900,6,0,L|303:124,1,111.666663487752
303,124,54292,1,0,0:0:0:0:
411,95,54422,1,0,0:0:0:0:
505,153,54552,1,0,0:0:0:0:
282,234,54683,5,0,0:0:0:0:
282,233,55205,1,0,0:0:0:0:
411,95,55466,1,0,0:0:0:0:
411,95,55726,2,0,P|371:79|335:75,1,55.8333317438762
207,125,55987,2,0,P|158:133|134:130,1,55.8333317438762
282,234,56248,5,0,0:0:0:0:
282,234,57031,1,0,0:0:0:0:
385,168,57292,2,0,P|401:117|397:44,1,111.666663487752
163,250,57814,1,0,0:0:0:0:
177,245,58074,6,0,L|276:245,1,83.7499976158143
297,170,58335,2,0,L|218:170,1,55.8333317438762
174,253,58596,6,0,P|128:228|65:338,1,209.375002026558
184,318,58988,2,0,B|241:330|241:330|302:325,1,83.7500008106232
346,301,59248,1,0,0:0:0:0:
156,162,59379,1,0,0:0:0:0:
58,194,59640,2,0,L|145:183,1,83.7500008106232
372,102,59901,2,0,P|309:94|289:100,1,83.7500008106232
448,211,60162,6,0,P|471:149|437:46,1,167.500001621246
337,187,60553,1,0,0:0:0:0:
376,304,60683,2,0,L|401:391,1,83.7500008106232
169,214,60944,2,0,B|215:152|215:152|226:130|204:74,1,125.625001215935
123,144,61205,2,0,L|73:211,1,83.7500008106232
293,158,61466,2,0,L|356:73,1,83.7500008106232
194,251,61727,6,0,P|237:281|415:215,1,251.25000243187
194,251,62249,2,0,L|202:346,1,83.7500008106232
390,215,62510,2,0,L|400:56,1,125.625001215935
280,46,62771,2,0,L|292:217,1,167.500001621246
472,35,63292,1,0,0:0:0:0:
429,186,63553,5,0,0:0:0:0:
476,116,63684,1,0,0:0:0:0:
375,249,63814,1,0,0:0:0:0:
304,64,63945,1,0,0:0:0:0:
274,224,64075,5,0,0:0:0:0:
477,46,64336,1,0,0:0:0:0:
402,339,64597,1,0,0:0:0:0:
414,347,64858,6,0,P|291:310|171:348,1,251.25000243187,0|0,0:0|0:0,0:0:0:0:
300,312,65379,2,0,P|353:290|396:216,1,125.625001215935
196,134,65640,2,0,P|176:195|212:295,1,167.500001621246
207,289,66162,2,0,L|326:266,1,83.7500008106232
125,221,66423,6,0,L|-9:210,1,125.625001215935
264,144,66684,2,0,P|327:129|416:173,1,167.500001621246
312,312,67075,1,0,0:0:0:0:
347,19,67206,1,0,0:0:0:0:
347,19,67467,2,0,P|369:44|316:21,1,167.500001621246
472,79,67858,1,0,0:0:0:0:
303,290,67988,6,0,P|257:216|344:206,1,167.499995231629
309,240,68249,2,0,P|356:252|391:155,1,167.499995231629
294,126,68510,2,0,P|275:139|246:136,1,41.8749988079071
112,238,68771,6,0,P|163:218|269:251,1,167.499995231629
157,313,69032,2,0,P|88:324|25:228,1,167.499995231629
139,143,69293,2,0,P|163:149|190:138,1,41.8749988079071
381,258,69554,6,0,B|263:249|263:249|164:306,1,223.333326975505
437,335,69945,2,0,B|464:231|464:231|436:113,1,223.333326975505
437,118,70336,6,0,P|371:117|311:123,1,111.666663487752
182,209,70597,2,0,L|165:91,1,111.666663487752
254,12,70858,1,0,0:0:0:0:
307,110,70989,1,0,0:0:0:0:
202,110,71119,5,0,0:0:0:0:
202,110,71380,2,0,L|212:245,1,125.625001215935
307,110,71641,2,0,L|297:201,1,83.7500008106232
97,140,71902,2,0,P|85:74|171:12,1,167.500001621246
154,12,72293,5,0,0:0:0:0:
135,174,72424,1,0,0:0:0:0:
195,260,72554,1,0,0:0:0:0:
388,178,72684,6,0,P|281:156|246:172,1,125.625001215935
195,260,72945,6,0,L|262:254,1,41.8750004053116
388,178,73076,2,0,P|399:128|323:34,1,167.500001621246
200,122,73467,2,0,P|238:138|291:134,1,83.7500008106232
105,166,73728,2,0,L|116:245,1,41.8750004053116
186,276,73858,2,0,L|200:237,1,41.8750004053116
264,355,73989,1,0,0:0:0:0:
264,355,74054,1,0,0:0:0:0:
264,355,74119,1,0,0:0:0:0:
297,241,74250,5,0,0:0:0:0:
297,241,74772,1,0,0:0:0:0:
235,208,74902,1,0,0:0:0:0:
237,279,75032,1,0,0:0:0:0:
463,226,75293,1,0,0:0:0:0:
463,226,75815,5,0,0:0:0:0:
430,290,75946,1,0,0:0:0:0:
320,172,76076,1,0,0:0:0:0:
334,242,76206,1,0,0:0:0:0:
237,271,76337,1,0,0:0:0:0:
331,314,76467,1,0,0:0:0:0:
224,200,76598,1,0,0:0:0:0:
224,200,77120,1,0,0:0:0:0:
151,190,77250,1,0,0:0:0:0:
397,135,77380,5,0,0:0:0:0:
397,135,77902,1,0,0:0:0:0:
469,146,78033,1,0,0:0:0:0:
125,92,78163,1,0,0:0:0:0:
125,92,78685,1,0,0:0:0:0:
132,163,78815,1,0,0:0:0:0:
365,23,78946,5,0,0:0:0:0:
338,304,79207,1,0,0:0:0:0:
283,182,79468,1,0,0:0:0:0:
417,186,79728,1,0,0:0:0:0:
417,186,80120,5,0,0:0:0:0:
332,165,80250,1,0,0:0:0:0:
223,230,80381,1,0,0:0:0:0:
90,153,80511,6,0,P|77:119|107:40,1,111.666663487752
161,13,80903,1,0,0:0:0:0:
203,231,81033,1,0,0:0:0:0:
178,230,81294,2,0,L|293:223,1,111.666663487752
332,163,81685,1,0,0:0:0:0:
308,293,81816,1,0,0:0:0:0:
308,293,82077,5,0,0:0:0:0:
234,192,82207,1,0,0:0:0:0:
192,314,82337,1,0,0:0:0:0:
328,171,82468,1,0,0:0:0:0:
255,361,82598,1,0,0:0:0:0:
118,218,82729,1,0,0:0:0:0:
405,277,82859,5,0,0:0:0:0:
281,31,83120,1,0,0:0:0:0:
185,345,83381,1,0,0:0:0:0:
185,345,83446,1,0,0:0:0:0:
185,345,83511,1,0,0:0:0:0:
196,153,83642,2,0,L|196:214,1,55.8333317438762
182,141,83903,5,0,0:0:0:0:
344,185,84033,1,0,0:0:0:0:
205,234,84164,1,0,0:0:0:0:
219,230,84425,5,0,0:0:0:0:
456,233,84685,1,0,0:0:0:0:
245,139,84946,5,0,0:0:0:0:
456,233,85077,1,0,0:0:0:0:
325,31,85207,1,0,0:0:0:0:
325,31,85468,6,0,L|316:100,1,55.8333317438762
235,166,85729,2,0,L|248:268,1,83.7499976158143
261,363,85990,2,0,L|349:375,1,83.7499976158143
162,284,86251,2,0,P|87:296|45:220,1,167.499995231629
54,219,86707,1,0,0:0:0:0:
54,219,86773,6,0,P|136:204|228:196,1,167.499995231629
250,130,87294,2,0,L|340:144,1,83.7499976158143
189,65,87555,2,0,P|159:58|70:89,2,111.666663487752,0|0|0,0:0|0:0|0:0,0:0:0:0:
195,43,88338,6,0,L|263:39,1,55.8333317438762
140,145,88599,2,0,L|202:155,1,55.8333317438762
75,232,88860,2,0,L|151:252,1,55.8333317438762
314,214,89121,2,0,P|411:204|433:206,1,111.666663487752
424,205,89512,1,0,0:0:0:0:
494,294,89642,1,0,0:0:0:0:
476,112,89773,1,0,0:0:0:0:
413,341,89903,6,0,B|345:335|345:335|296:322|239:343,1,167.499995231629
171,381,90425,1,0,0:0:0:0:
228,217,90556,1,0,0:0:0:0:
233,210,90621,1,0,0:0:0:0:
239,203,90686,1,0,0:0:0:0:
43,115,90947,1,0,0:0:0:0:
134,169,91077,1,0,0:0:0:0:
41,220,91208,1,0,0:0:0:0:
129,50,91338,1,0,0:0:0:0:
49,217,91469,6,0,P|40:260|54:318,1,83.7499976158143
183,360,91730,2,0,P|187:304|178:260,1,83.7499976158143
30,198,91990,2,0,P|28:244|64:291,1,83.7499976158143
238,163,92251,2,0,P|206:125|85:125,1,167.499995231629
109,195,92773,1,0,0:0:0:0:
183,219,92904,1,0,0:0:0:0:
272,46,93034,1,0,0:0:0:0:
286,45,93425,6,0,L|279:121,1,55.8333317438762
273,288,93686,1,0,0:0:0:0:
116,19,93817,2,0,P|134:80|120:114,1,83.7499976158143
19,164,94078,2,0,P|81:142|173:194,1,167.499995231629
329,316,94599,6,0,L|408:311,1,55.8333317438762
229,243,94860,1,0,0:0:0:0:
206,368,94991,1,0,0:0:0:0:
328,209,95121,2,0,P|349:161|348:136,1,55.8333317438762
173,108,95382,2,0,P|164:156|200:218,1,111.666663487752
443,106,95904,5,0,0:0:0:0:
430,99,95969,1,0,0:0:0:0:
417,92,96034,1,0,0:0:0:0:
404,85,96099,1,0,0:0:0:0:
391,79,96165,6,0,L|369:192,1,111.666663487752
251,277,96556,2,0,P|214:283|182:273,1,55.8333317438762
59,104,96817,1,0,0:0:0:0:
308,118,96947,2,0,P|369:123|429:164,2,111.666663487752,0|0|0,0:0|0:0|0:0,0:0:0:0:
235,328,97600,1,0,0:0:0:0:
62,149,97730,1,0,0:0:0:0:
46,140,97991,2,0,L|110:126,1,55.8333317438762
241,341,98252,2,0,L|188:290,1,55.8333317438762
317,104,98513,2,0,L|298:161,1,55.8333317438762
34,199,98774,5,0,0:0:0:0:
412,243,98904,2,0,P|403:289|375:253,1,111.666663487752
207,113,99295,5,0,0:0:0:0:
200,98,100078,1,0,0:0:0:0:
182,116,100861,1,0,0:0:0:0:
329,257,101122,1,0,0:0:0:0:
310,66,101383,1,0,0:0:0:0:
174,309,101643,1,0,0:0:0:0:
173,303,102100,5,0,0:0:0:0:
173,303,102165,1,0,0:0:0:0:
311,132,102426,1,0,0:0:0:0:
111,97,102687,1,0,0:0:0:0:
358,332,102948,1,0,0:0:0:0:
234,64,103209,1,0,0:0:0:0:
251,371,103470,1,0,0:0:0:0:
251,371,103731,6,0,L|253:300,1,55.8333317438762
231,308,103991,6,0,P|241:238|219:159,1,111.666663487752
56,167,104252,2,0,P|34:257|91:339,1,167.499995231629
136,344,104513,1,0,0:0:0:0:
287,91,104644,1,0,0:0:0:0:
260,70,104709,1,0,0:0:0:0:
230,54,104774,2,0,P|191:46|167:51,1,55.8333317438762
404,190,104905,1,0,0:0:0:0:
482,131,105035,6,0,P|496:88|492:54,1,55.8333317438762
457,3,105165,1,0,0:0:0:0:
170,48,105296,2,0,P|172:103|197:153,1,111.666663487752
197,153,105557,6,0,P|186:103|329:11,1,251.25000243187
436,183,106079,2,0,L|411:290,1,83.7500008106232
251,384,106340,2,0,L|209:212,1,167.500001621246
211,221,106861,2,0,P|256:228|309:223,1,83.7500008106232
135,118,107122,2,0,P|81:106|0:184,1,167.500001621246
12,279,107514,1,0,0:0:0:0:
129,314,107644,2,0,L|225:311,1,83.7500008106232
454,189,107905,2,0,P|354:181|300:184,1,125.625001215935
405,259,108166,2,0,L|493:264,1,83.7500008106232
295,91,108427,6,0,P|232:94|172:88,1,83.7500008106232
54,186,108688,2,0,P|100:212|199:155,1,167.500001621246
298,69,109079,2,0,L|309:158,1,83.7500008106232
294,332,109340,1,0,0:0:0:0:
282,327,109405,1,0,0:0:0:0:
270,322,109470,2,0,P|215:307|121:325,1,125.625001215935,0|0,0:0|0:0,0:0:0:0:
14,247,109731,2,0,P|85:216|111:123,1,167.500001621246
112,135,110253,5,0,0:0:0:0:
257,51,110514,1,0,0:0:0:0:
186,264,110644,1,0,0:0:0:0:
184,96,110775,1,0,0:0:0:0:
298,325,110905,1,0,0:0:0:0:
43,174,111036,5,0,0:0:0:0:
288,23,111296,1,0,0:0:0:0:
308,352,111557,1,0,0:0:0:0:
308,352,111818,6,0,P|161:324|131:231,1,251.25000243187
263,112,112340,2,0,P|321:134|361:182,1,125.625001215935
131,241,112601,2,0,P|221:116|361:182,1,335.000003242493
361,182,113384,6,0,L|346:312,1,125.625001215935
399,82,113644,2,0,L|389:-3,1,83.7500008106232
512,122,113905,5,0,0:0:0:0:
186,31,114036,1,0,0:0:0:0:
322,359,114166,1,0,0:0:0:0:
186,31,114688,1,0,0:0:0:0:
330,0,114819,1,0,0:0:0:0:
331,114,114949,6,0,P|308:171|219:197,1,125.625001215935
152,193,115210,2,0,L|52:182,1,83.7500008106232
68,183,115601,2,0,L|76:226,1,41.8750004053116
125,381,115732,1,0,0:0:0:0:
123,374,115993,2,0,B|210:367|210:367|174:356,1,125.625001215935
90,265,116253,2,0,B|-3:245|-3:245|67:244,1,125.625001215935
242,200,116514,6,0,P|282:141|153:33,1,251.25000243187
141,138,117036,1,0,0:0:0:0:
141,138,117297,6,0,L|195:147,1,41.8750004053116
418,178,117427,1,0,0:0:0:0:
418,178,117688,6,0,L|423:116,1,41.8750004053116
319,333,117819,2,0,L|313:388,1,41.8750004053116
257,100,117949,1,0,0:0:0:0:
326,188,118080,6,0,P|274:214|165:159,1,167.500001621246
156,96,118471,1,0,0:0:0:0:
70,218,118601,2,0,L|73:320,1,83.7500008106232
198,344,118862,2,0,P|265:341|383:344,1,167.500001621246
447,361,119254,1,0,0:0:0:0:
334,207,119384,1,0,0:0:0:0:
488,252,119515,1,0,0:0:0:0:
399,43,119645,5,0,0:0:0:0:
256,352,119906,1,0,0:0:0:0:
113,43,120167,1,0,0:0:0:0:
184,190,120297,1,0,0:0:0:0:
115,220,120428,2,0,P|46:215|9:161,1,125.625001215935
186,173,120689,2,0,L|291:174,1,83.7500008106232
295,331,120949,2,0,L|347:247,1,83.7500008106232
446,49,121210,6,0,P|408:75|216:39,1,251.25000243187
134,18,121732,1,0,0:0:0:0:
84,266,121863,1,0,0:0:0:0:
72,249,121928,1,0,0:0:0:0:
63,230,121993,2,0,B|34:173|59:79|59:79|146:9,1,251.25000243187
222,71,122515,2,0,L|326:89,1,83.7500008106232
408,58,122776,5,0,0:0:0:0:
279,348,123037,1,0,0:0:0:0:
259,187,123167,1,0,0:0:0:0:
366,297,123298,1,0,0:0:0:0:
211,265,123428,1,0,0:0:0:0:
356,209,123558,1,0,0:0:0:0:
30,177,123819,1,0,0:0:0:0:
462,105,124080,1,0,0:0:0:0:
297,144,124341,6,0,P|344:163|457:117,1,167.500001621246
219,81,124732,1,0,0:0:0:0:
392,31,124863,2,0,L|286:39,1,83.7500008106232
223,151,125124,2,0,P|214:238|218:330,1,167.500001621246
149,367,125515,1,0,0:0:0:0:
143,283,125646,2,0,P|139:216|142:174,1,83.7500008106232
333,59,125906,6,0,P|357:128|312:199,1,125.625001215935
202,205,126167,2,0,L|55:193,1,125.625001215935
2,187,126428,1,0,0:0:0:0:
188,350,126559,1,0,0:0:0:0:
258,50,126689,1,0,0:0:0:0:
258,50,126950,2,0,L|257:152,1,83.7500008106232
411,136,127211,2,0,P|413:182|406:250,1,83.7500008106232
298,217,127472,6,0,P|254:298|162:253,1,167.499995231629
229,232,127733,2,0,P|177:222|122:312,1,167.499995231629
277,330,127994,2,0,L|323:323,1,41.8749988079071
471,238,128254,6,0,P|407:212|386:99,1,167.499995231629
268,63,128515,2,0,P|259:132|136:166,1,167.499995231629
50,152,128776,2,0,L|48:198,1,41.8749988079071
116,343,129037,6,0,B|162:288|162:288|327:279,1,223.333326975505
497,322,129428,2,0,B|442:276|442:276|433:111,1,223.333326975505
493,15,129820,5,0,0:0:0:0:
228,57,129950,1,0,0:0:0:0:
471,174,130081,1,0,0:0:0:0:
213,197,130211,1,0,0:0:0:0:
360,6,130342,1,0,0:0:0:0:
429,272,130472,1,0,0:0:0:0:
194,213,130602,1,0,0:0:0:0:
256,192,130668,12,0,132951,0:0:0:0:
86,239,133733,6,0,P|158:232|188:233,1,83.7499976158143
359,279,133994,2,0,P|307:284|281:284,1,55.8333317438762
261,182,134255,2,0,L|262:109,1,55.8333317438762
263,364,134516,1,0,0:0:0:0:
258,358,134777,6,0,P|245:313|247:283,1,55.8333317438762
332,170,135038,2,0,P|339:209|329:244,1,55.8333317438762
392,121,135299,2,0,P|432:131|472:120,1,83.7499976158143
256,183,135559,2,0,P|208:172|135:205,1,111.666663487752
77,264,135951,1,0,0:0:0:0:
329,233,136081,1,0,0:0:0:0:
186,209,136342,6,0,P|131:195|79:192,1,83.7499976158143
11,320,136603,2,0,P|75:331|112:330,1,83.7499976158143
170,319,136864,1,0,0:0:0:0:
340,99,136994,1,0,0:0:0:0:
354,91,137255,5,0,0:0:0:0:
188,308,137516,1,0,0:0:0:0:
13,41,137647,1,0,0:0:0:0:
20,51,137907,1,0,0:0:0:0:
20,51,138168,5,0,0:0:0:0:
37,127,138299,1,0,0:0:0:0:
72,217,138429,6,0,L|85:262,1,27.9166658719381
185,144,138560,2,0,L|198:79,1,55.8333317438762
0,109,138821,5,0,0:0:0:0:
322,384,138951,1,0,0:0:0:0:
416,0,139081,1,0,0:0:0:0:
288,312,139212,5,0,0:0:0:0:
