osu file format v12

[General]
AudioFilename: Plasmagun.mp3
AudioLeadIn: 0
PreviewTime: 13333
Countdown: 0
SampleSet: Normal
StackLeniency: 0.3
Mode: 1
LetterboxInBreaks: 0

[Editor]
Bookmarks: 2666,34666,45333,55999,57166,58499
DistanceSpacing: 1
BeatDivisor: 4
GridSize: 4

[Metadata]
Title:Plasma Gun
TitleUnicode:Plasma Gun
Artist:Memme
ArtistUnicode:Memme
Creator:MMzz
Version:Futsuu
Source:O2Jam U
Tags:Love
BeatmapID:235074
BeatmapSetID:85606

[Difficulty]
HPDrainRate:4
CircleSize:5
OverallDifficulty:4
ApproachRate:5
SliderMultiplier:1.2
SliderTickRate:1

[Events]
//Background and Video events
0,0,"bg.jpg",1,1
//Break Periods
//Storyboard Layer 0 (Background)
//Storyboard Layer 1 (Fail)
//Storyboard Layer 2 (Pass)
//Storyboard Layer 3 (Foreground)
//Storyboard Sound Samples
//Background Colour Transformations
3,100,0,0,0

[TimingPoints]
2666,333.333333333333,4,1,0,85,1,0
45333,-100,4,1,0,85,0,1
47333,-100,4,1,0,85,0,0
47999,-100,4,1,0,85,0,1
49333,-100,4,1,0,85,0,0
50666,-100,4,1,0,85,0,1
52666,-100,4,1,0,85,0,0
53333,-100,4,1,0,85,0,1
54666,-100,4,1,0,85,0,0

[Colours]
Combo1 : 133,89,206
Combo2 : 16,186,105
Combo3 : 66,151,255
Combo4 : 242,24,57

[HitObjects]
256,188,2666,1,4,0:0:0:0:
256,188,3333,1,8,0:0:0:0:
256,188,3999,1,0,0:0:0:0:
256,188,4333,1,0,0:0:0:0:
256,188,4666,1,8,0:0:0:0:
256,188,5333,1,0,0:0:0:0:
256,188,5999,1,8,0:0:0:0:
256,188,6666,1,8,0:0:0:0:
256,188,6999,1,0,0:0:0:0:
256,188,7333,1,8,0:0:0:0:
256,188,7999,1,4,0:0:0:0:
256,188,8333,1,0,0:0:0:0:
236,164,8666,1,8,0:0:0:0:
236,164,8999,1,0,0:0:0:0:
236,164,9333,1,0,0:0:0:0:
236,164,9499,1,0,0:0:0:0:
236,164,9666,1,0,0:0:0:0:
236,164,9999,1,8,0:0:0:0:
236,164,10333,1,0,0:0:0:0:
236,164,10666,1,4,0:0:0:0:
236,164,11333,1,12,0:0:0:0:
256,188,11999,1,4,0:0:0:0:
256,188,13333,1,4,0:0:0:0:
224,160,13666,1,0,0:0:0:0:
224,160,13999,1,8,0:0:0:0:
224,160,14333,1,8,0:0:0:0:
224,160,14666,1,0,0:0:0:0:
224,160,14833,1,0,0:0:0:0:
224,160,14999,1,0,0:0:0:0:
224,160,15333,1,8,0:0:0:0:
224,160,15666,1,8,0:0:0:0:
224,160,15999,1,0,0:0:0:0:
224,160,16333,1,0,0:0:0:0:
224,160,16666,1,8,0:0:0:0:
224,160,16999,1,8,0:0:0:0:
224,160,17333,1,0,0:0:0:0:
224,160,17499,1,0,0:0:0:0:
224,160,17666,1,8,0:0:0:0:
224,160,17999,1,8,0:0:0:0:
224,160,18333,1,12,0:0:0:0:
224,160,18666,1,4,0:0:0:0:
224,160,18999,1,0,0:0:0:0:
224,160,19333,1,8,0:0:0:0:
224,160,19666,1,8,0:0:0:0:
224,160,19999,1,4,0:0:0:0:
224,160,20333,1,0,0:0:0:0:
224,160,20666,1,8,0:0:0:0:
256,188,20833,1,8,0:0:0:0:
224,160,20999,1,8,0:0:0:0:
256,188,21333,5,4,0:0:0:0:
256,188,21999,1,12,0:0:0:0:
256,188,22666,1,8,0:0:0:0:
256,188,22833,1,8,0:0:0:0:
256,188,22999,5,8,0:0:0:0:
256,188,23333,1,8,0:0:0:0:
256,188,23499,1,8,0:0:0:0:
256,188,23666,1,8,0:0:0:0:
256,188,23999,1,4,0:0:0:0:
256,188,24499,1,0,0:0:0:0:
256,188,24999,1,0,0:0:0:0:
256,188,25999,1,0,0:0:0:0:
256,188,26333,1,8,0:0:0:0:
256,188,26666,1,0,0:0:0:0:
256,188,27166,1,0,0:0:0:0:
256,188,27666,1,8,0:0:0:0:
256,188,28166,1,8,0:0:0:0:
256,188,28666,1,0,0:0:0:0:
256,188,28999,1,8,0:0:0:0:
256,188,29333,1,0,0:0:0:0:
256,188,29833,1,0,0:0:0:0:
256,188,30333,1,8,0:0:0:0:
256,188,30833,1,0,0:0:0:0:
256,188,31333,1,0,0:0:0:0:
256,188,31666,1,8,0:0:0:0:
256,188,31999,1,4,0:0:0:0:
256,188,32666,1,4,0:0:0:0:
256,188,33166,1,12,0:0:0:0:
256,188,34666,1,8,0:0:0:0:
256,188,34999,1,8,0:0:0:0:
256,188,35333,1,8,0:0:0:0:
256,188,35666,1,8,0:0:0:0:
256,188,35999,1,0,0:0:0:0:
256,188,36166,1,0,0:0:0:0:
256,188,36333,1,0,0:0:0:0:
256,188,36666,1,8,0:0:0:0:
256,188,37333,1,0,0:0:0:0:
256,188,37666,1,0,0:0:0:0:
256,188,37999,1,0,0:0:0:0:
256,188,38333,1,0,0:0:0:0:
256,188,38666,1,8,0:0:0:0:
256,188,38833,1,8,0:0:0:0:
256,188,38999,1,8,0:0:0:0:
256,188,39333,1,0,0:0:0:0:
256,188,39999,1,8,0:0:0:0:
256,188,40333,1,8,0:0:0:0:
256,188,40666,1,8,0:0:0:0:
256,188,40999,1,8,0:0:0:0:
256,188,41333,1,0,0:0:0:0:
256,188,41499,1,0,0:0:0:0:
256,188,41666,1,0,0:0:0:0:
256,188,41999,1,8,0:0:0:0:
256,192,42666,5,0,0:0:0:0:
256,192,42833,1,0,0:0:0:0:
256,192,42999,1,0,0:0:0:0:
256,192,43333,1,0,0:0:0:0:
256,192,43499,1,0,0:0:0:0:
256,192,43666,1,0,0:0:0:0:
256,192,43833,1,4,0:0:0:0:
256,188,45333,1,4,0:0:0:0:
256,188,45666,1,0,0:0:0:0:
256,188,45999,1,8,0:0:0:0:
256,188,46333,1,8,0:0:0:0:
256,188,46666,1,0,0:0:0:0:
256,188,46999,1,0,0:0:0:0:
228,176,47333,1,8,0:0:0:0:
228,176,47499,1,8,0:0:0:0:
228,176,47666,1,8,0:0:0:0:
256,188,47999,1,0,0:0:0:0:
256,188,48333,1,0,0:0:0:0:
256,188,48666,1,8,0:0:0:0:
256,188,48999,1,8,0:0:0:0:
256,188,49333,1,0,0:0:0:0:
256,188,49499,1,0,0:0:0:0:
256,188,49666,1,0,0:0:0:0:
256,188,49999,1,0,0:0:0:0:
256,188,50333,1,12,0:0:0:0:
256,188,50666,1,4,0:0:0:0:
256,188,50999,1,0,0:0:0:0:
256,188,51333,1,8,0:0:0:0:
256,188,51666,1,8,0:0:0:0:
256,188,51999,1,0,0:0:0:0:
256,188,52333,1,0,0:0:0:0:
256,188,52666,1,8,0:0:0:0:
220,188,52833,1,8,0:0:0:0:
256,188,52999,1,8,0:0:0:0:
256,188,53333,1,4,0:0:0:0:
220,188,53666,1,0,0:0:0:0:
256,188,53999,1,8,0:0:0:0:
220,188,54333,1,8,0:0:0:0:
256,188,54666,1,0,0:0:0:0:
256,188,54833,1,0,0:0:0:0:
256,188,54999,5,0,0:0:0:0:
256,188,55333,1,8,0:0:0:0:
256,188,55499,1,8,0:0:0:0:
256,188,55666,1,8,0:0:0:0:
256,188,55999,1,4,0:0:0:0:
256,188,56499,1,4,0:0:0:0:
32,88,57166,2,4,L|256:176,2,240
