osu file format v14

[General]
AudioFilename: Plasmagun.mp3
AudioLeadIn: 1000
PreviewTime: 13333
Countdown: 0
SampleSet: Normal
StackLeniency: 0.7
Mode: 2
LetterboxInBreaks: 0
WidescreenStoryboard: 0

[Editor]
DistanceSpacing: 0.8
BeatDivisor: 4
GridSize: 4
TimelineZoom: 2.999998

[Metadata]
Title:Plasma Gun
TitleUnicode:Plasma Gun
Artist:Memme
ArtistUnicode:Memme
Creator:Ichigaki
Version:Rain
Source:O2Jam U
Tags:ichia7x [Shana_Lesus] ExUsagi Fullerene- Kurokami collab collaboration
BeatmapID:492010
BeatmapSetID:173247

[Difficulty]
HPDrainRate:6.7
CircleSize:4
OverallDifficulty:9
ApproachRate:9
SliderMultiplier:1.4
SliderTickRate:1

[Events]
//Background and Video events
0,0,"hurrdurr.jpg",0,0
//Break Periods
//Storyboard Layer 0 (Background)
//Storyboard Layer 1 (Fail)
//Storyboard Layer 2 (Pass)
//Storyboard Layer 3 (Foreground)
//Storyboard Sound Samples

[TimingPoints]
0,333.333333333333,4,1,0,60,1,0
6832,-50,4,1,0,60,0,0
7165,-100,4,1,0,60,0,0
7999,-50,4,1,0,60,0,0
11333,-100,4,1,0,60,0,0
12666,-66.6666666666667,4,1,0,60,0,0
13333,-100,4,1,0,60,0,1
15333,-50,4,1,0,60,0,1
15499,-100,4,1,0,60,0,1
16666,-66.6666666666667,4,1,0,60,0,1
16999,-100,4,1,0,60,0,1
17166,-50,4,1,0,60,0,1
18499,-100,4,1,0,60,0,1
23666,-50,4,1,0,60,0,1
23999,-100,4,1,0,60,0,0
25999,-66.6666666666667,4,1,0,60,0,0
26666,-100,4,1,0,60,0,0
31666,-50,4,1,0,60,0,0
33916,-100,4,1,0,60,0,0
39999,-50,4,1,0,60,0,0
43999,-100,4,1,0,60,0,0
44165,-50,4,1,0,60,0,0
44332,-100,4,1,0,60,0,0
45333,-100,4,1,0,60,0,1
46833,-50,4,1,0,60,0,1
46916,-100,4,1,0,60,0,1
47333,-50,4,1,0,60,0,1
47833,-100,4,1,0,60,0,1
48999,-50,4,1,0,60,0,1
49166,-100,4,1,0,60,0,1
50333,-50,4,1,0,60,0,1
50666,-100,4,1,0,60,0,1
52166,-66.6666666666667,4,1,0,60,0,1
52499,-100,4,1,0,60,0,1
52666,-50,4,1,0,60,0,1
53499,-100,4,1,0,60,0,0
53833,-50,4,1,0,60,0,0
53999,-100,4,1,0,60,0,0
54999,-50,4,1,0,60,0,0
55499,-100,4,1,0,60,0,0
56499,-50,4,1,0,60,0,0

[Colours]
Combo1 : 201,199,226
Combo2 : 18,167,184
Combo3 : 107,132,245

[HitObjects]
192,80,2665,5,8,0:0:0:0:
388,148,2999,1,8,0:0:0:0:
256,192,3333,2,0,L|424:136,1,140,8|0,0:0|0:0,0:0:0:0:
304,72,3833,1,8,0:0:0:0:
192,168,4166,2,0,L|257:193,2,70,8|0|8,0:0|0:0|0:0,0:0:0:0:
388,156,4833,6,0,B|376:183|376:183|336:191,1,70,0|8,0:0|0:0,0:0:0:0:
124,156,5166,2,0,B|136:183|136:183|176:191,1,70,0|8,0:0|0:0,0:0:0:0:
392,48,5666,2,0,L|312:80,1,70,8|0,0:0|0:0,0:0:0:0:
120,48,5999,2,0,L|200:80,1,70,8|0,0:0|0:0,0:0:0:0:
256,160,6333,1,8,0:0:0:0:
96,156,6499,1,8,0:0:0:0:
377,163,6833,6,0,P|316:192|256:160,2,140,8|0|8,0:0|0:0|0:0,0:0:0:0:
400,48,7499,1,8,0:0:0:0:
248,48,7667,2,0,L|291:102,1,70,0|8,0:0|0:0,0:0:0:0:
473,300,7999,6,0,B|408:176|408:176|268:190,1,280,4|0,0:0|0:0,0:0:0:0:
39,300,8666,2,0,B|104:176|104:176|243:190,1,280,4|0,0:0|0:0,0:0:0:0:
494,163,9333,2,0,P|381:218|327:104,1,280,4|0,0:0|0:0,0:0:0:0:
16,163,9999,2,0,P|129:218|184:104,1,280,4|0,0:0|0:0,0:0:0:0:
472,192,10665,6,0,L|440:112,1,70,8|0,0:0|0:0,0:0:0:0:
376,192,10832,2,0,L|320:136,1,70,8|0,0:0|0:0,0:0:0:0:
280,192,10999,2,0,L|192:144,1,70,8|0,0:0|0:0,0:0:0:0:
184,192,11165,2,0,L|80:192,1,70,8|0,0:0|0:0,0:0:0:0:
32,328,11333,5,8,0:0:0:0:
96,320,11416,1,0,0:0:0:0:
152,304,11499,1,8,0:0:0:0:
200,264,11583,1,0,0:0:0:0:
360,224,11666,1,8,0:0:0:0:
420,192,11749,1,0,0:0:0:0:
472,144,11833,1,8,0:0:0:0:
424,92,11916,1,0,0:0:0:0:
372,48,11999,1,4,0:0:0:0:
200,80,12166,6,0,L|130:80,1,70
96,112,12416,1,0,0:0:0:0:
64,148,12499,1,0,0:0:0:0:
332,18,12666,2,0,L|376:48,1,52.5000020027161,8|0,0:0|0:0,0:0:0:0:
299,66,12833,2,0,L|256:96,1,52.5000020027161,8|0,0:0|0:0,0:0:0:0:
324,114,12999,1,0,0:0:0:0:
352,124,13041,1,0,0:0:0:0:
380,140,13083,1,0,0:0:0:0:
408,156,13124,1,0,0:0:0:0:
384,176,13166,1,0,0:0:0:0:
356,188,13208,1,0,0:0:0:0:
328,200,13249,1,0,0:0:0:0:
244,192,13333,6,0,L|209:192,2,35,4|0|0,0:0|0:0|0:0,0:0:0:0:
336,48,13666,1,8,0:0:0:0:
456,120,13833,2,2,L|491:120,2,35,0|0|0,0:0|0:0|0:0,0:0:0:0:
324,192,14166,1,0,0:0:0:0:
180,192,14333,1,8,0:0:0:0:
396,192,14499,1,0,0:0:0:0:
252,192,14666,5,0,0:0:0:0:
368,136,14833,2,0,L|403:136,2,35,0|0|8,0:0|0:0|0:0,0:0:0:0:
256,136,15166,1,0,0:0:0:0:
112,136,15333,2,0,L|184:48,1,70,0|0,0:0|0:0,0:0:0:0:
240,40,15499,2,0,L|296:24,1,35
448,140,15666,1,8,0:0:0:0:
320,136,15833,1,0,0:0:0:0:
128,136,15999,5,0,0:0:0:0:
156,220,16083,1,0,0:0:0:0:
232,256,16166,2,0,L|320:208,1,70,0|8,0:0|0:0,0:0:0:0:
396,196,16499,1,0,0:0:0:0:
324,228,16583,1,0,0:0:0:0:
256,168,16666,2,0,L|192:120,1,52.5000020027161,0|0,0:0|0:0,0:0:0:0:
136,160,16833,2,0,L|72:112,1,52.5000020027161,0|0,0:0|0:0,0:0:0:0:
160,64,16999,1,8,0:0:0:0:
236,136,17083,1,0,0:0:0:0:
312,320,17166,6,0,L|424:192,1,140,8|0,0:0|0:0,0:0:0:0:
200,320,17499,2,0,L|88:192,1,140,8|0,0:0|0:0,0:0:0:0:
312,64,17833,6,0,L|424:192,1,140,8|0,0:0|0:0,0:0:0:0:
200,64,18166,2,0,L|107:169,1,140,8|4,0:0|0:0,0:0:0:0:
168,204,18416,2,0,L|240:224,1,70
424,192,18666,6,0,B|456:224,2,35
332,140,18999,1,8,0:0:0:0:
128,192,19166,2,0,B|104:192|80:192,2,35,0|0|0,0:0|0:0|0:0,0:0:0:0:
264,192,19499,1,0,0:0:0:0:
128,192,19666,1,8,0:0:0:0:
72,192,19750,1,0,0:0:0:0:
16,192,19833,1,0,0:0:0:0:
296,192,19999,5,4,0:0:0:0:
472,192,20166,1,0,0:0:0:0:
432,152,20249,1,0,0:0:0:0:
400,104,20333,2,0,B|368:80|368:80|320:56,1,70,8|0,0:0|0:0,0:0:0:0:
140,48,20666,2,0,L|203:48,1,35
247,92,20833,2,0,L|283:114,1,35
400,312,20999,1,8,0:0:0:0:
300,248,21166,1,0,0:0:0:0:
96,192,21333,5,4,0:0:0:0:
148,180,21416,1,0,0:0:0:0:
216,200,21499,2,0,B|236:168|278:149,1,70,0|8,0:0|0:0,0:0:0:0:
496,204,21833,1,0,0:0:0:0:
448,188,21916,1,0,0:0:0:0:
376,204,21999,6,0,L|318:242,1,70,4|0,0:0|0:0,0:0:0:0:
160,96,22333,2,0,L|112:128,2,35,8|0|0,0:0|0:0|0:0,0:0:0:0:
368,48,22666,5,8,0:0:0:0:
208,48,22833,2,8,B|177:63|177:63|178:62,2,35,0|0|8,0:0|0:0|0:0,0:0:0:0:
88,48,23166,2,8,B|56:32,2,35,0|0|8,0:0|0:0|0:0,0:0:0:0:
176,48,23416,1,0,0:0:0:0:
256,48,23499,1,0,0:0:0:0:
336,48,23583,1,8,0:0:0:0:
416,48,23666,5,0,0:0:0:0:
448,92,23749,1,0,0:0:0:0:
464,148,23833,1,0,0:0:0:0:
452,204,23916,1,0,0:0:0:0:
319,311,23999,6,0,B|256:344|184:312,1,140,0|8,0:0|0:0,0:0:0:0:
136,120,24499,2,0,B|104:192|136:255,1,140,0|8,0:0|0:0,0:0:0:0:
192,72,24999,2,0,B|256:40|328:72,1,140,0|8,0:0|0:0,0:0:0:0:
376,263,25499,2,0,B|408:192|375:128,1,140,0|8,0:0|0:0,0:0:0:0:
208,144,25999,2,0,P|132:184|224:216,1,210.000008010865,0|8,0:0|0:0,0:0:0:0:
408,272,26666,5,0,0:0:0:0:
272,272,26833,1,0,0:0:0:0:
168,184,26999,1,8,0:0:0:0:
344,272,27166,1,0,0:0:0:0:
240,184,27333,1,0,0:0:0:0:
168,184,27499,1,0,0:0:0:0:
114,184,27666,2,0,L|219:275,1,140,8|0,0:0|0:0,0:0:0:0:
40,52,28166,6,0,P|24:184|208:300,1,350,0|8,0:0|0:0,0:0:0:0:
220,276,29083,1,0,0:0:0:0:
252,248,29166,1,8,0:0:0:0:
280,220,29249,1,0,0:0:0:0:
312,192,29332,6,0,L|400:72,1,140,4|8,0:0|0:0,0:0:0:0:
200,192,29833,2,0,L|112:72,1,140,0|8,0:0|0:0,0:0:0:0:
312,192,30333,2,0,B|352:272|352:272|408:296,1,140,0|8,0:0|0:0,0:0:0:0:
200,192,30833,2,0,B|160:272|160:272|104:296,1,140,0|8,0:0|0:0,0:0:0:0:
320,296,31333,1,0,0:0:0:0:
192,296,31499,1,0,0:0:0:0:
56,296,31666,2,0,L|196:296,1,140,4|0,0:0|0:0,0:0:0:0:
432,184,31999,6,0,L|128:184|128:184,1,280
56,184,32499,1,8,0:0:0:0:
200,104,32666,1,0,0:0:0:0:
328,48,32833,2,0,L|352:64,8,17.5
472,40,33166,6,0,B|472:168|472:168|352:312,2,280,4|0|0,0:0|0:0|0:0,0:0:0:0:
256,104,33999,5,8,0:0:0:0:
328,32,34166,1,0,0:0:0:0:
264,32,34249,1,0,0:0:0:0:
200,32,34332,1,8,0:0:0:0:
304,32,34499,1,0,0:0:0:0:
220,32,34583,1,0,0:0:0:0:
136,32,34666,6,0,B|72:64|72:64|-8:24,1,140,12|8,0:0|0:0,0:0:0:0:
176,112,35166,1,0,0:0:0:0:
384,352,35333,2,0,B|448:320|448:320|528:360,1,140,12|8,0:0|0:0,0:0:0:0:
336,272,35833,1,0,0:0:0:0:
132,192,35999,6,0,B|64:192|64:192|32:256,1,140,8|8,0:0|0:0,0:0:0:0:
288,104,36499,1,0,0:0:0:0:
379,192,36666,2,0,B|448:192|448:192|480:256,1,140,8|8,0:0|0:0,0:0:0:0:
224,280,37166,1,0,0:0:0:0:
72,312,37333,6,0,L|211:309,1,140,8|8,0:0|0:0,0:0:0:0:
144,192,37833,1,0,0:0:0:0:
440,72,37999,2,0,L|301:75,1,140,8|8,0:0|0:0,0:0:0:0:
368,192,38499,1,0,0:0:0:0:
120,188,38666,6,0,B|160:240|160:240|144:312,1,140,8|8,0:0|0:0,0:0:0:0:
256,192,39166,1,0,0:0:0:0:
368,72,39333,2,0,B|352:144|352:144|392:196,1,140,8|8,0:0|0:0,0:0:0:0:
256,192,39749,1,0,0:0:0:0:
256,120,39833,1,8,0:0:0:0:
252,148,39916,1,0,0:0:0:0:
356,24,39999,5,8,0:0:0:0:
372,76,40083,1,0,0:0:0:0:
392,128,40166,1,0,0:0:0:0:
424,172,40249,1,0,0:0:0:0:
464,212,40333,1,8,0:0:0:0:
512,244,40416,1,0,0:0:0:0:
380,284,40499,5,0,0:0:0:0:
328,304,40583,1,0,0:0:0:0:
276,324,40666,1,8,0:0:0:0:
220,328,40749,1,0,0:0:0:0:
168,304,40833,1,0,0:0:0:0:
116,280,40916,1,0,0:0:0:0:
252,208,40999,5,8,0:0:0:0:
304,188,41083,1,0,0:0:0:0:
348,156,41166,1,0,0:0:0:0:
392,128,41249,1,0,0:0:0:0:
424,80,41333,1,8,0:0:0:0:
448,28,41416,1,0,0:0:0:0:
276,48,41499,5,0,0:0:0:0:
224,72,41583,1,0,0:0:0:0:
176,104,41666,1,8,0:0:0:0:
144,152,41749,1,0,0:0:0:0:
128,208,41833,1,0,0:0:0:0:
144,260,41916,1,0,0:0:0:0:
292,336,41999,5,8,0:0:0:0:
328,292,42083,1,0,0:0:0:0:
364,248,42166,1,2,0:0:0:0:
408,212,42249,1,2,0:0:0:0:
284,192,42333,5,8,0:0:0:0:
260,144,42416,1,2,0:0:0:0:
252,92,42499,1,2,0:0:0:0:
248,40,42583,1,2,0:0:0:0:
152,40,42666,5,8,0:0:0:0:
168,40,42833,1,8,0:0:0:0:
72,40,42999,1,8,0:0:0:0:
56,40,43166,1,8,0:0:0:0:
224,40,43333,1,8,0:0:0:0:
320,152,43499,2,0,L|348:144,8,17.5
384,152,43749,1,0,0:0:0:0:
472,152,43833,1,0,0:0:0:0:
240,136,44166,6,0,L|224:224,2,70
144,136,44499,1,8,0:0:0:0:
204,224,44666,2,0,L|236:276,1,35
268,168,44833,2,0,L|292:136,1,35
364,120,44999,1,8,0:0:0:0:
196,80,45166,1,8,0:0:0:0:
336,136,45333,6,0,L|368:176,2,35,0|0|0,0:0|0:0|0:0,0:0:0:0:
240,136,45666,1,8,0:0:0:0:
84,136,45833,1,0,0:0:0:0:
156,136,45917,1,0,0:0:0:0:
228,136,45999,2,0,L|264:200,1,70
336,64,46333,2,0,L|280:56,1,35,8|0,0:0|0:0,0:0:0:0:
216,56,46499,2,0,L|181:60,1,35
104,72,46666,5,0,0:0:0:0:
16,208,46833,2,0,L|104:232,1,70,0|0,0:0|0:0,0:0:0:0:
160,248,46999,2,0,B|192:272|192:272|200:320,1,70,8|0,0:0|0:0,0:0:0:0:
352,136,47333,2,0,B|368:104|392:80,2,70,8|0|0,0:0|0:0|0:0,0:0:0:0:
160,248,47666,2,0,B|144:280|120:304,2,70,8|0|0,0:0|0:0|0:0,0:0:0:0:
328,136,47999,6,0,L|293:131,1,35,4|0,0:0|0:0,0:0:0:0:
224,128,48166,2,0,L|190:132,1,35
120,144,48333,1,8,0:0:0:0:
292,236,48499,2,0,L|332:264,1,35
388,276,48666,2,0,B|480:284,1,70,0|0,0:0|0:0,0:0:0:0:
328,136,48999,2,0,L|224:32,1,140,8|0,0:0|0:0,0:0:0:0:
112,128,49333,5,8,0:0:0:0:
416,132,49499,1,0,0:0:0:0:
348,132,49583,1,0,0:0:0:0:
280,132,49666,1,8,0:0:0:0:
53,132,49833,1,0,0:0:0:0:
121,132,49917,1,0,0:0:0:0:
189,132,50000,1,8,0:0:0:0:
364,128,50166,5,0,0:0:0:0:
324,128,50249,1,0,0:0:0:0:
252,56,50333,1,0,0:0:0:0:
180,128,50416,5,0,0:0:0:0:
252,128,50499,1,0,0:0:0:0:
324,128,50583,1,0,0:0:0:0:
292,208,50666,5,0,0:0:0:0:
252,208,50750,1,0,0:0:0:0:
220,208,50833,1,0,0:0:0:0:
80,204,50999,1,8,0:0:0:0:
340,208,51166,2,0,L|404:208,2,35,0|0|0,0:0|0:0|0:0,0:0:0:0:
256,128,51499,1,0,0:0:0:0:
160,72,51666,1,8,0:0:0:0:
56,40,51833,1,0,0:0:0:0:
256,56,51999,1,0,0:0:0:0:
392,156,52166,6,0,L|448:196,1,52.5000020027161
444,276,52333,2,0,L|388:236,1,52.5000020027161,8|0,0:0|0:0,0:0:0:0:
340,208,52499,1,0,0:0:0:0:
172,56,52666,2,0,L|118:101,2,70,8|0|0,0:0|0:0|0:0,0:0:0:0:
340,56,52999,2,0,L|394:101,2,70,8|0|0,0:0|0:0|0:0,0:0:0:0:
56,216,53333,6,0,L|159:176,1,70,4|0,0:0|0:0,0:0:0:0:
240,176,53499,2,0,L|288:248,1,70,0|8,0:0|0:0,0:0:0:0:
376,136,53833,2,0,L|448:88,1,70
480,56,53999,1,0,0:0:0:0:
320,56,54166,1,0,0:0:0:0:
116,56,54333,2,0,L|68:136,1,70,8|0,0:0|0:0,0:0:0:0:
248,56,54666,5,0,0:0:0:0:
320,56,54749,1,0,0:0:0:0:
392,56,54833,1,0,0:0:0:0:
264,228,54999,2,0,B|85:281|237:313|237:313|272:200,1,280,8|0,0:0|0:0,0:0:0:0:
56,144,55499,5,8,0:0:0:0:
136,144,55583,1,0,0:0:0:0:
216,144,55666,1,8,0:0:0:0:
296,144,55749,1,0,0:0:0:0:
376,144,55833,1,8,0:0:0:0:
392,136,55874,1,0,0:0:0:0:
408,128,55916,1,0,0:0:0:0:
424,120,55958,1,0,0:0:0:0:
440,112,55999,1,4,0:0:0:0:
152,80,56166,6,0,L|96:80,2,35,8|0|8,0:0|0:0|0:0,0:0:0:0:
376,144,56499,2,0,B|295:174|295:174|208:88|112:200,1,280,4|8,0:0|0:0,0:0:0:0:
88,256,56915,1,0,0:0:0:0:
124,332,56999,1,8,0:0:0:0:
376,144,57166,1,4,0:0:0:0:
256,192,57333,12,0,58666,0:0:0:0:
