osu file format v14

[General]
AudioFilename: Plasmagun.mp3
AudioLeadIn: 1000
PreviewTime: 13333
Countdown: 0
SampleSet: Soft
StackLeniency: 0.7
Mode: 3
LetterboxInBreaks: 0
SpecialStyle: 0
WidescreenStoryboard: 0

[Editor]
DistanceSpacing: 1.11
BeatDivisor: 4
GridSize: 8
TimelineZoom: 2.399999

[Metadata]
Title:Plasma Gun
TitleUnicode:Plasma Gun
Artist:Memme
ArtistUnicode:Memme
Creator:Ichigaki
Version:4K HD
Source:O2Jam U
Tags:ichia7x [Shana_Lesus] ExUsagi Fullerene- Kurokami collab collaboration
BeatmapID:452119
BeatmapSetID:173247

[Difficulty]
HPDrainRate:7
CircleSize:4
OverallDifficulty:7.5
ApproachRate:5
SliderMultiplier:1.4
SliderTickRate:1

[Events]
//Background and Video events
0,0,"hurrdurr.jpg",0,0
//Break Periods
//Storyboard Layer 0 (Background)
//Storyboard Layer 1 (Fail)
//Storyboard Layer 2 (Pass)
//Storyboard Layer 3 (Foreground)
//Storyboard Sound Samples

[TimingPoints]
0,333.333333333333,4,2,2,37,1,0
13333,-100,4,2,2,37,0,1
23999,-100,4,2,2,37,0,0
45333,-100,4,2,2,37,0,1
53333,-100,4,2,2,37,0,0

[HitObjects]
64,192,1833,128,0,2666:0:0:0:0:
448,192,2666,1,0,0:0:0:0:
320,192,2666,1,0,0:0:0:0:
192,192,2833,1,0,0:0:0:0:
64,192,2999,1,0,0:0:0:0:
192,192,3166,1,0,0:0:0:0:
448,192,3499,1,0,0:0:0:0:
192,192,3666,1,0,0:0:0:0:
448,192,3833,1,0,0:0:0:0:
64,192,4166,1,0,0:0:0:0:
448,192,4333,1,0,0:0:0:0:
64,192,4499,1,0,0:0:0:0:
192,192,4833,1,0,0:0:0:0:
320,192,4999,1,0,0:0:0:0:
192,192,5166,1,0,0:0:0:0:
320,192,5499,1,0,0:0:0:0:
448,192,5666,1,0,0:0:0:0:
320,192,5833,1,0,0:0:0:0:
320,192,6166,1,0,0:0:0:0:
192,192,6333,1,0,0:0:0:0:
320,192,6499,1,0,0:0:0:0:
192,192,6833,1,0,0:0:0:0:
64,192,6999,1,0,0:0:0:0:
192,192,7166,1,0,0:0:0:0:
320,192,7499,1,0,0:0:0:0:
192,192,7666,1,0,0:0:0:0:
448,192,7666,128,0,7999:0:0:0:0:
64,192,7833,1,0,0:0:0:0:
64,192,7999,1,0,0:0:0:0:
320,192,7999,128,0,8333:0:0:0:0:
192,192,8333,1,0,0:0:0:0:
448,192,8333,128,0,8666:0:0:0:0:
64,192,8666,1,0,0:0:0:0:
320,192,8666,128,0,8999:0:0:0:0:
448,192,8999,1,0,0:0:0:0:
64,192,8999,1,0,0:0:0:0:
192,192,9166,128,0,9333:0:0:0:0:
320,192,9333,1,0,0:0:0:0:
448,192,9333,1,0,0:0:0:0:
64,192,9499,128,0,9666:0:0:0:0:
192,192,9666,128,0,9833:0:0:0:0:
448,192,9666,1,0,0:0:0:0:
320,192,9833,128,0,9999:0:0:0:0:
64,192,9999,1,0,0:0:0:0:
192,192,9999,1,0,0:0:0:0:
448,192,10166,128,0,10333:0:0:0:0:
320,192,10333,128,0,10499:0:0:0:0:
64,192,10333,1,0,0:0:0:0:
192,192,10499,128,0,10666:0:0:0:0:
64,192,10666,1,0,0:0:0:0:
448,192,10666,1,0,0:0:0:0:
320,192,10833,1,0,0:0:0:0:
64,192,10999,1,0,0:0:0:0:
448,192,10999,1,0,0:0:0:0:
192,192,11166,1,0,0:0:0:0:
64,192,11333,128,0,11999:0:0:0:0:
448,192,11333,1,0,0:0:0:0:
192,192,11499,1,0,0:0:0:0:
448,192,11666,1,0,0:0:0:0:
320,192,11666,1,0,0:0:0:0:
192,192,11833,1,0,0:0:0:0:
448,192,11999,1,0,0:0:0:0:
320,192,12166,1,0,0:0:0:0:
448,192,12333,128,0,13333:0:0:0:0:
64,192,12333,1,0,0:0:0:0:
64,192,12666,128,0,13333:0:0:0:0:
192,192,12999,128,0,13333:0:0:0:0:
320,192,13333,1,0,0:0:0:0:
192,192,13499,1,0,0:0:0:0:
64,192,13666,1,0,0:0:0:0:
448,192,13666,1,0,0:0:0:0:
320,192,13833,1,0,0:0:0:0:
192,192,13999,1,0,0:0:0:0:
448,192,13999,1,0,0:0:0:0:
320,192,14166,1,0,0:0:0:0:
64,192,14333,1,0,0:0:0:0:
448,192,14333,1,0,0:0:0:0:
192,192,14499,1,0,0:0:0:0:
64,192,14666,1,0,0:0:0:0:
320,192,14666,1,0,0:0:0:0:
192,192,14833,1,0,0:0:0:0:
64,192,14999,1,0,0:0:0:0:
320,192,14999,1,0,0:0:0:0:
192,192,15166,1,0,0:0:0:0:
64,192,15333,1,0,0:0:0:0:
448,192,15333,1,0,0:0:0:0:
320,192,15499,1,0,0:0:0:0:
64,192,15666,1,0,0:0:0:0:
448,192,15666,1,0,0:0:0:0:
448,192,15833,1,0,0:0:0:0:
64,192,15999,1,0,0:0:0:0:
192,192,15999,1,0,0:0:0:0:
320,192,16166,1,0,0:0:0:0:
64,192,16333,1,0,0:0:0:0:
448,192,16333,1,0,0:0:0:0:
320,192,16499,1,0,0:0:0:0:
192,192,16666,1,0,0:0:0:0:
448,192,16666,1,0,0:0:0:0:
64,192,16833,1,0,0:0:0:0:
192,192,16999,1,0,0:0:0:0:
448,192,16999,1,0,0:0:0:0:
64,192,17166,1,0,0:0:0:0:
192,192,17333,1,0,0:0:0:0:
448,192,17333,1,0,0:0:0:0:
192,192,17499,1,0,0:0:0:0:
64,192,17666,1,0,0:0:0:0:
320,192,17666,1,0,0:0:0:0:
448,192,17833,1,0,0:0:0:0:
64,192,17999,1,0,0:0:0:0:
320,192,17999,1,0,0:0:0:0:
192,192,18166,1,0,0:0:0:0:
64,192,18333,1,0,0:0:0:0:
320,192,18333,1,0,0:0:0:0:
448,192,18333,128,0,18666:0:0:0:0:
192,192,18499,1,0,0:0:0:0:
192,192,18666,1,0,0:0:0:0:
64,192,18666,1,0,0:0:0:0:
320,192,18833,1,0,0:0:0:0:
192,192,18999,1,0,0:0:0:0:
448,192,18999,1,0,0:0:0:0:
192,192,19166,1,0,0:0:0:0:
64,192,19333,1,0,0:0:0:0:
320,192,19333,1,0,0:0:0:0:
320,192,19499,1,0,0:0:0:0:
192,192,19666,1,0,0:0:0:0:
320,192,19666,1,0,0:0:0:0:
192,192,19833,1,0,0:0:0:0:
64,192,19999,1,0,0:0:0:0:
448,192,19999,1,0,0:0:0:0:
320,192,19999,1,0,0:0:0:0:
192,192,20166,1,0,0:0:0:0:
448,192,20333,1,0,0:0:0:0:
320,192,20333,1,0,0:0:0:0:
448,192,20499,1,0,0:0:0:0:
64,192,20666,1,0,0:0:0:0:
192,192,20666,1,0,0:0:0:0:
64,192,20833,1,0,0:0:0:0:
64,192,20999,1,0,0:0:0:0:
448,192,20999,1,0,0:0:0:0:
448,192,21166,1,0,0:0:0:0:
64,192,21333,1,0,0:0:0:0:
320,192,21333,1,0,0:0:0:0:
448,192,21333,1,0,0:0:0:0:
192,192,21499,1,0,0:0:0:0:
448,192,21666,1,0,0:0:0:0:
64,192,21666,1,0,0:0:0:0:
320,192,21833,1,0,0:0:0:0:
64,192,21999,1,0,0:0:0:0:
448,192,21999,1,0,0:0:0:0:
192,192,21999,1,0,0:0:0:0:
448,192,22166,1,0,0:0:0:0:
192,192,22333,1,0,0:0:0:0:
320,192,22333,1,0,0:0:0:0:
320,192,22499,1,0,0:0:0:0:
64,192,22666,1,0,0:0:0:0:
448,192,22666,1,0,0:0:0:0:
320,192,22833,1,0,0:0:0:0:
192,192,22916,1,0,0:0:0:0:
448,192,22999,1,0,0:0:0:0:
64,192,22999,1,0,0:0:0:0:
320,192,23166,1,0,0:0:0:0:
448,192,23249,1,0,0:0:0:0:
64,192,23333,1,0,0:0:0:0:
320,192,23416,1,0,0:0:0:0:
448,192,23499,1,0,0:0:0:0:
192,192,23583,1,0,0:0:0:0:
64,192,23666,1,0,0:0:0:0:
320,192,23833,1,0,0:0:0:0:
192,192,23833,1,0,0:0:0:0:
64,192,23999,1,0,0:0:0:0:
448,192,23999,128,0,24499:0:0:0:0:
192,192,24166,1,0,0:0:0:0:
320,192,24333,1,0,0:0:0:0:
64,192,24499,1,0,0:0:0:0:
192,192,24499,128,0,24999:0:0:0:0:
320,192,24666,1,0,0:0:0:0:
448,192,24833,1,0,0:0:0:0:
64,192,24999,128,0,25499:0:0:0:0:
448,192,25166,1,0,0:0:0:0:
192,192,25333,1,0,0:0:0:0:
320,192,25499,128,0,25666:0:0:0:0:
448,192,25666,128,0,25833:0:0:0:0:
192,192,25833,128,0,25999:0:0:0:0:
64,192,25999,128,0,26333:0:0:0:0:
320,192,26166,1,0,0:0:0:0:
448,192,26333,1,0,0:0:0:0:
192,192,26333,128,0,26666:0:0:0:0:
320,192,26499,1,0,0:0:0:0:
64,192,26666,1,0,0:0:0:0:
448,192,26666,128,0,27166:0:0:0:0:
320,192,26833,1,0,0:0:0:0:
192,192,26999,1,0,0:0:0:0:
64,192,27166,1,0,0:0:0:0:
320,192,27166,128,0,27666:0:0:0:0:
192,192,27333,1,0,0:0:0:0:
448,192,27499,1,0,0:0:0:0:
64,192,27666,128,0,28166:0:0:0:0:
448,192,27833,1,0,0:0:0:0:
192,192,27999,1,0,0:0:0:0:
320,192,28166,128,0,28999:0:0:0:0:
64,192,28333,1,0,0:0:0:0:
192,192,28499,1,0,0:0:0:0:
448,192,28666,1,0,0:0:0:0:
192,192,28833,1,0,0:0:0:0:
64,192,28999,1,0,0:0:0:0:
448,192,28999,1,0,0:0:0:0:
448,192,29166,1,0,0:0:0:0:
192,192,29166,1,0,0:0:0:0:
448,192,29333,1,0,0:0:0:0:
64,192,29333,128,0,29833:0:0:0:0:
192,192,29499,1,0,0:0:0:0:
320,192,29666,1,0,0:0:0:0:
192,192,29833,1,0,0:0:0:0:
448,192,29833,128,0,30333:0:0:0:0:
320,192,29999,1,0,0:0:0:0:
64,192,30166,1,0,0:0:0:0:
192,192,30333,128,0,30833:0:0:0:0:
320,192,30499,1,0,0:0:0:0:
64,192,30666,1,0,0:0:0:0:
320,192,30833,128,0,31333:0:0:0:0:
448,192,30999,1,0,0:0:0:0:
64,192,31166,1,0,0:0:0:0:
448,192,31333,1,0,0:0:0:0:
192,192,31333,128,0,31666:0:0:0:0:
64,192,31499,1,0,0:0:0:0:
64,192,31666,1,0,0:0:0:0:
448,192,31666,128,0,31999:0:0:0:0:
192,192,31833,1,0,0:0:0:0:
64,192,31999,1,0,0:0:0:0:
320,192,31999,128,0,32499:0:0:0:0:
192,192,32166,1,0,0:0:0:0:
448,192,32333,1,0,0:0:0:0:
192,192,32499,128,0,32666:0:0:0:0:
448,192,32666,1,0,0:0:0:0:
64,192,32666,128,0,32833:0:0:0:0:
192,192,32833,128,0,32999:0:0:0:0:
448,192,32999,128,0,33166:0:0:0:0:
64,192,33166,1,0,0:0:0:0:
320,192,33166,128,0,33499:0:0:0:0:
448,192,33333,1,0,0:0:0:0:
64,192,33499,128,0,33833:0:0:0:0:
448,192,33666,1,0,0:0:0:0:
320,192,33833,1,0,0:0:0:0:
64,192,33999,1,0,0:0:0:0:
448,192,33999,1,0,0:0:0:0:
192,192,34166,1,0,0:0:0:0:
320,192,34249,1,0,0:0:0:0:
64,192,34333,1,0,0:0:0:0:
448,192,34333,1,0,0:0:0:0:
320,192,34499,1,0,0:0:0:0:
192,192,34583,1,0,0:0:0:0:
64,192,34666,1,0,0:0:0:0:
448,192,34666,128,0,35166:0:0:0:0:
192,192,34833,1,0,0:0:0:0:
64,192,34999,1,0,0:0:0:0:
320,192,34999,1,0,0:0:0:0:
192,192,35166,128,0,35666:0:0:0:0:
448,192,35333,1,0,0:0:0:0:
64,192,35333,1,0,0:0:0:0:
320,192,35499,1,0,0:0:0:0:
448,192,35666,128,0,36166:0:0:0:0:
64,192,35666,1,0,0:0:0:0:
192,192,35833,1,0,0:0:0:0:
320,192,35999,1,0,0:0:0:0:
64,192,35999,1,0,0:0:0:0:
192,192,36166,128,0,36333:0:0:0:0:
64,192,36333,128,0,36499:0:0:0:0:
320,192,36333,1,0,0:0:0:0:
448,192,36499,128,0,36666:0:0:0:0:
320,192,36666,128,0,36999:0:0:0:0:
64,192,36666,1,0,0:0:0:0:
192,192,36833,1,0,0:0:0:0:
64,192,36999,128,0,37333:0:0:0:0:
448,192,36999,1,0,0:0:0:0:
320,192,37166,1,0,0:0:0:0:
448,192,37333,128,0,37833:0:0:0:0:
192,192,37333,1,0,0:0:0:0:
320,192,37499,1,0,0:0:0:0:
192,192,37666,1,0,0:0:0:0:
64,192,37666,1,0,0:0:0:0:
320,192,37833,128,0,38333:0:0:0:0:
448,192,37999,1,0,0:0:0:0:
192,192,37999,1,0,0:0:0:0:
64,192,38166,1,0,0:0:0:0:
192,192,38333,128,0,38833:0:0:0:0:
448,192,38333,1,0,0:0:0:0:
320,192,38499,1,0,0:0:0:0:
64,192,38666,1,0,0:0:0:0:
448,192,38666,1,0,0:0:0:0:
320,192,38833,128,0,39666:0:0:0:0:
64,192,38999,1,0,0:0:0:0:
448,192,38999,1,0,0:0:0:0:
192,192,39166,1,0,0:0:0:0:
64,192,39333,1,0,0:0:0:0:
448,192,39333,1,0,0:0:0:0:
192,192,39499,1,0,0:0:0:0:
64,192,39666,128,0,39999:0:0:0:0:
448,192,39666,1,0,0:0:0:0:
320,192,39833,1,0,0:0:0:0:
192,192,39999,1,0,0:0:0:0:
448,192,39999,1,0,0:0:0:0:
320,192,40083,1,0,0:0:0:0:
192,192,40166,1,0,0:0:0:0:
320,192,40249,1,0,0:0:0:0:
448,192,40333,1,0,0:0:0:0:
64,192,40333,1,0,0:0:0:0:
192,192,40416,1,0,0:0:0:0:
320,192,40499,1,0,0:0:0:0:
448,192,40583,1,0,0:0:0:0:
320,192,40666,1,0,0:0:0:0:
64,192,40666,1,0,0:0:0:0:
192,192,40749,1,0,0:0:0:0:
320,192,40833,1,0,0:0:0:0:
192,192,40916,1,0,0:0:0:0:
64,192,40999,1,0,0:0:0:0:
448,192,40999,1,0,0:0:0:0:
320,192,41083,1,0,0:0:0:0:
192,192,41166,1,0,0:0:0:0:
64,192,41249,1,0,0:0:0:0:
192,192,41333,1,0,0:0:0:0:
448,192,41333,1,0,0:0:0:0:
320,192,41416,1,0,0:0:0:0:
448,192,41499,1,0,0:0:0:0:
320,192,41583,1,0,0:0:0:0:
192,192,41666,1,0,0:0:0:0:
64,192,41666,1,0,0:0:0:0:
320,192,41749,1,0,0:0:0:0:
192,192,41833,1,0,0:0:0:0:
64,192,41916,1,0,0:0:0:0:
192,192,41999,1,0,0:0:0:0:
448,192,41999,1,0,0:0:0:0:
320,192,42083,1,0,0:0:0:0:
192,192,42166,1,0,0:0:0:0:
64,192,42249,1,0,0:0:0:0:
320,192,42333,1,0,0:0:0:0:
192,192,42333,1,0,0:0:0:0:
448,192,42416,1,0,0:0:0:0:
320,192,42499,1,0,0:0:0:0:
192,192,42583,1,0,0:0:0:0:
64,192,42666,1,0,0:0:0:0:
448,192,42666,1,0,0:0:0:0:
192,192,42833,1,0,0:0:0:0:
320,192,42833,1,0,0:0:0:0:
64,192,42999,1,0,0:0:0:0:
448,192,42999,1,0,0:0:0:0:
192,192,43166,1,0,0:0:0:0:
320,192,43166,1,0,0:0:0:0:
64,192,43333,1,0,0:0:0:0:
448,192,43333,1,0,0:0:0:0:
192,192,43499,1,0,0:0:0:0:
320,192,43499,1,0,0:0:0:0:
448,192,43583,1,0,0:0:0:0:
64,192,43666,1,0,0:0:0:0:
192,192,43749,1,0,0:0:0:0:
320,192,43833,128,0,44166:0:0:0:0:
448,192,44166,128,0,45333:0:0:0:0:
64,192,44166,1,0,0:0:0:0:
192,192,44249,1,0,0:0:0:0:
320,192,44333,1,0,0:0:0:0:
192,192,44499,1,0,0:0:0:0:
64,192,44666,1,0,0:0:0:0:
192,192,44833,1,0,0:0:0:0:
320,192,44999,1,0,0:0:0:0:
64,192,44999,1,0,0:0:0:0:
64,192,45166,1,0,0:0:0:0:
320,192,45166,1,0,0:0:0:0:
64,192,45333,1,0,0:0:0:0:
192,192,45333,1,0,0:0:0:0:
448,192,45499,1,0,0:0:0:0:
64,192,45666,1,0,0:0:0:0:
320,192,45666,1,0,0:0:0:0:
448,192,45833,1,0,0:0:0:0:
64,192,45999,1,0,0:0:0:0:
320,192,45999,1,0,0:0:0:0:
448,192,46166,1,0,0:0:0:0:
192,192,46333,1,0,0:0:0:0:
64,192,46416,1,0,0:0:0:0:
320,192,46499,1,0,0:0:0:0:
192,192,46583,1,0,0:0:0:0:
448,192,46666,1,0,0:0:0:0:
320,192,46833,1,0,0:0:0:0:
192,192,46999,1,0,0:0:0:0:
448,192,46999,1,0,0:0:0:0:
64,192,47166,1,0,0:0:0:0:
448,192,47333,1,0,0:0:0:0:
320,192,47416,1,0,0:0:0:0:
192,192,47499,1,0,0:0:0:0:
64,192,47666,1,0,0:0:0:0:
192,192,47749,1,0,0:0:0:0:
320,192,47833,1,0,0:0:0:0:
64,192,47999,1,0,0:0:0:0:
448,192,47999,1,0,0:0:0:0:
192,192,47999,1,0,0:0:0:0:
320,192,48166,1,0,0:0:0:0:
448,192,48333,1,0,0:0:0:0:
64,192,48333,1,0,0:0:0:0:
192,192,48499,1,0,0:0:0:0:
64,192,48666,1,0,0:0:0:0:
448,192,48666,1,0,0:0:0:0:
320,192,48833,1,0,0:0:0:0:
64,192,48999,1,0,0:0:0:0:
448,192,48999,1,0,0:0:0:0:
192,192,49166,1,0,0:0:0:0:
64,192,49333,1,0,0:0:0:0:
448,192,49333,1,0,0:0:0:0:
192,192,49499,1,0,0:0:0:0:
320,192,49583,1,0,0:0:0:0:
64,192,49666,1,0,0:0:0:0:
448,192,49666,1,0,0:0:0:0:
320,192,49833,1,0,0:0:0:0:
192,192,49916,1,0,0:0:0:0:
448,192,49999,1,0,0:0:0:0:
64,192,49999,1,0,0:0:0:0:
192,192,50166,1,0,0:0:0:0:
320,192,50249,1,0,0:0:0:0:
448,192,50333,1,0,0:0:0:0:
320,192,50416,1,0,0:0:0:0:
192,192,50499,128,0,50666:0:0:0:0:
320,192,50666,1,0,0:0:0:0:
448,192,50666,1,0,0:0:0:0:
192,192,50833,1,0,0:0:0:0:
64,192,50999,1,0,0:0:0:0:
448,192,50999,1,0,0:0:0:0:
320,192,51166,1,0,0:0:0:0:
192,192,51333,1,0,0:0:0:0:
448,192,51333,1,0,0:0:0:0:
192,192,51499,1,0,0:0:0:0:
64,192,51666,1,0,0:0:0:0:
448,192,51666,1,0,0:0:0:0:
192,192,51833,1,0,0:0:0:0:
64,192,51999,1,0,0:0:0:0:
320,192,51999,1,0,0:0:0:0:
448,192,52166,1,0,0:0:0:0:
192,192,52333,1,0,0:0:0:0:
448,192,52333,1,0,0:0:0:0:
320,192,52499,1,0,0:0:0:0:
64,192,52666,1,0,0:0:0:0:
192,192,52749,1,0,0:0:0:0:
320,192,52833,1,0,0:0:0:0:
448,192,52999,1,0,0:0:0:0:
320,192,53083,1,0,0:0:0:0:
192,192,53166,1,0,0:0:0:0:
64,192,53333,1,0,0:0:0:0:
320,192,53333,1,0,0:0:0:0:
448,192,53333,1,0,0:0:0:0:
192,192,53499,1,0,0:0:0:0:
64,192,53666,1,0,0:0:0:0:
320,192,53666,1,0,0:0:0:0:
448,192,53833,1,0,0:0:0:0:
320,192,53999,1,0,0:0:0:0:
64,192,53999,1,0,0:0:0:0:
192,192,54166,1,0,0:0:0:0:
64,192,54333,1,0,0:0:0:0:
448,192,54333,1,0,0:0:0:0:
192,192,54499,1,0,0:0:0:0:
64,192,54666,1,0,0:0:0:0:
448,192,54749,1,0,0:0:0:0:
64,192,54833,1,0,0:0:0:0:
64,192,54999,128,0,55333:0:0:0:0:
192,192,55333,1,0,0:0:0:0:
448,192,55333,1,0,0:0:0:0:
320,192,55499,128,0,55666:0:0:0:0:
64,192,55666,1,0,0:0:0:0:
192,192,55749,1,0,0:0:0:0:
448,192,55833,128,0,55999:0:0:0:0:
64,192,55999,1,0,0:0:0:0:
192,192,55999,1,0,0:0:0:0:
320,192,56166,1,0,0:0:0:0:
192,192,56249,1,0,0:0:0:0:
320,192,56333,1,0,0:0:0:0:
64,192,56499,1,0,0:0:0:0:
448,192,56499,128,0,57166:0:0:0:0:
192,192,56499,1,0,0:0:0:0:
64,192,56833,1,0,0:0:0:0:
320,192,56916,1,0,0:0:0:0:
64,192,56999,1,0,0:0:0:0:
64,192,57166,128,0,58666:0:0:0:0:
320,192,57166,128,0,57999:0:0:0:0:
192,192,57666,128,0,57999:0:0:0:0:
448,192,57999,128,0,58666:0:0:0:0:
