osu file format v12

[General]
AudioFilename: zzz.mp3
AudioLeadIn: 0
PreviewTime: 86790
Countdown: 0
SampleSet: Normal
StackLeniency: 0.7
Mode: 0
LetterboxInBreaks: 0
WidescreenStoryboard: 0

[Editor]
Bookmarks: 7337,7430,11930,12774,13524,36024,37430,85337,86649,86930,109524,110930,121430,122930
DistanceSpacing: 0.7
BeatDivisor: 8
GridSize: 4

[Metadata]
Title:NEW Astronomas
TitleUnicode:NEW Astronomas
Artist:Memme
ArtistUnicode:Memme
Creator:Charles445
Version:Extra
Source:O2Jam U
Tags:s2tb recording remix psytrance psychadelic trance mr color priti
BeatmapID:238265
BeatmapSetID:87188

[Difficulty]
HPDrainRate:6
CircleSize:4
OverallDifficulty:8
ApproachRate:9
SliderMultiplier:2
SliderTickRate:2

[Events]
//Background and Video events
0,0,"bluepic.jpg",0,0
//Break Periods
2,61729,70867
//Storyboard Layer 0 (Background)
//Storyboard Layer 1 (Fail)
//Storyboard Layer 2 (Pass)
//Storyboard Layer 3 (Foreground)
//Storyboard Sound Samples
//Background Colour Transformations
3,100,163,162,255

[TimingPoints]
1529.54380044824,375,4,2,0,70,1,0
13467,-86.9565217391304,4,1,1,70,0,0
19482,-86.9565217391304,4,1,2,75,0,0
25435,-100,4,2,2,70,0,0
36006,-86.9565217391304,4,2,2,70,0,0
36357,-66.6666666666667,4,1,1,50,0,0
37295,-86.9565217391304,4,2,1,70,0,0
37506,-100,4,2,2,70,0,0
37857,-80,4,1,2,75,0,0
60170,-80,4,2,2,20,0,0
61154,-80,4,2,2,30,0,0
61201,-80,4,2,2,40,0,0
61248,-80,4,2,2,50,0,0
61295,-80,4,2,2,60,0,0
61342,-80,4,2,2,70,0,0
61388,-80,4,2,2,80,0,0
61435,-80,4,2,2,90,0,0
61482,-80,4,2,2,100,0,0
71373,-80,4,2,2,30,0,0
73435,-133.333333333333,4,1,2,40,0,0
76482,-117.647058823529,4,1,2,45,0,0
79482,-105.263157894737,4,1,2,50,0,0
80982,-95.2380952380951,4,1,2,55,0,0
82482,-86.9565217391304,4,1,2,60,0,0
83232,-80,4,1,2,65,0,0
83982,-74.0740740740741,4,1,2,70,0,0
84732,-57.1428571428571,4,1,2,70,0,0
85107,-50,4,1,2,70,0,0
85717,-133.333333333333,4,2,2,70,0,0
86560,-55.5555555555556,4,1,2,70,0,0
86748,-55.5555555555556,4,2,2,70,0,0
86935,-66.6666666666667,4,1,2,90,0,0
90732,-50,4,1,2,90,0,0
91201,-66.6666666666667,4,1,2,90,0,0
96732,-55.5555555555556,4,1,2,90,0,0
97107,-66.6666666666667,4,1,2,90,0,0
97482,-80,4,2,2,90,0,0
98232,-50,4,2,2,20,0,0
98701,-50,4,2,2,40,0,0
98795,-50,4,2,2,60,0,0
98873,-50,4,2,2,70,0,0
98912,-50,4,2,2,80,0,0
98967,-66.6666666666667,4,1,2,90,0,0
102732,-50,4,1,2,90,0,0
103107,-66.6666666666667,4,1,2,90,0,0
108732,-57.1428571428571,4,1,2,90,0,0
109107,-75.187969924812,4,1,2,100,0,0
109482,-66.6666666666667,4,1,2,90,0,0
110982,-75.187969924812,4,1,2,90,0,0
111310,-80,4,1,1,90,0,0
111685,-83.3333333333333,4,1,2,90,0,0
112107,-86.9565217391304,4,1,1,60,0,0
116982,-86.9565217391304,4,1,2,70,0,0
121857,-50,4,3,2,10,0,0
121998,-50,4,3,2,15,0,0
122092,-50,4,3,2,20,0,0
122185,-50,4,3,2,25,0,0
122279,-50,4,3,2,30,0,0
122373,-50,4,3,2,35,0,0
122467,-50,4,3,2,40,0,0
122560,-50,4,3,2,45,0,0
122654,-50,4,3,2,70,0,0

[Colours]
Combo1 : 249,124,0
Combo2 : 0,126,253
Combo3 : 5,240,5
Combo4 : 253,203,2

[HitObjects]
156,96,7529,6,0,P|128:168|129:189,1,100,0|0,1:0|0:0,0:0:0:0:
160,284,7904,1,0,1:0:0:0:
256,256,8092,1,0,0:0:0:0:
352,284,8279,2,0,P|400:300|456:292,1,100,0|0,1:0|0:0,0:0:0:0:
312,192,8654,2,0,P|264:176|208:184,1,100,0|0,1:0|0:0,0:0:0:0:
352,80,9029,6,0,P|400:96|456:88,2,100,0|0|0,1:0|0:0|1:0,0:0:0:0:
256,44,9592,1,0,0:0:0:0:
160,80,9779,2,0,P|112:96|63:90,1,100,0|0,1:0|0:0,0:0:0:0:
112,180,10154,1,0,1:0:0:0:
64,268,10341,1,0,0:0:0:0:
112,356,10529,6,0,P|156:328|204:324,1,100,0|0,1:0|0:0,1:0:0:0:
324,312,10904,1,0,1:0:0:0:
212,236,11092,1,0,0:0:0:0:
332,204,11279,6,0,P|392:192|448:200,1,100,0|0,1:0|0:0,0:0:0:0:
332,96,11654,1,0,1:0:0:0:
484,40,11842,1,0,0:0:0:0:
264,36,12029,5,0,1:0:0:0:
96,140,12217,1,0,1:0:0:0:
256,44,12404,1,0,1:0:0:0:
88,148,12592,1,0,1:0:0:0:
248,52,12779,5,2,1:2:0:0:
192,196,12967,1,2,1:2:0:0:
172,236,13060,2,0,P|141:268|84:288,2,100,2|2|2,0:0|0:0|0:0,0:0:0:0:
216,236,13529,6,0,P|264:216|328:224,1,115.000002193451,4|0,0:0|0:0,0:0:0:0:
357,247,13810,1,0,0:0:0:0:
389,270,13904,1,8,0:0:0:0:
428,276,13998,1,0,0:0:0:0:
465,259,14092,1,0,0:0:0:0:
487,226,14185,1,0,0:0:0:0:
486,185,14279,5,0,0:0:0:0:
472,147,14373,1,0,0:0:0:0:
437,126,14467,1,0,0:0:0:0:
397,122,14560,1,0,0:0:0:0:
356,126,14654,2,0,L|298:166,1,57.5000010967255,8|0,0:0|0:0,0:0:0:0:
268,153,14842,2,0,L|210:193,1,57.5000010967255
169,117,15029,6,0,L|65:45,1,115.000002193451,0|0,0:0|0:0,0:0:0:0:
45,129,15310,1,0,0:0:0:0:
56,168,15404,2,0,P|64:234|49:287,1,115.000002193451,8|0,0:0|0:0,0:0:0:0:
267,153,15779,5,0,0:0:0:0:
256,192,15873,2,0,P|248:258|263:311,1,115.000002193451
371,309,16154,2,0,P|307:293|259:305,1,115.000002193451,8|0,0:0|0:0,0:0:0:0:
223,321,16435,1,0,0:0:0:0:
190,296,16529,6,0,P|151:245|143:193,1,115.000002193451
144,155,16810,1,0,0:0:0:0:
156,116,16904,1,8,0:0:0:0:
187,90,16998,1,0,0:0:0:0:
224,74,17092,1,0,0:0:0:0:
263,72,17185,1,0,0:0:0:0:
302,77,17279,5,0,0:0:0:0:
337,96,17373,2,0,P|392:112|448:100,1,115.000002193451
464,172,17654,2,0,L|410:203,1,57.5000010967255,8|0,0:0|0:0,0:0:0:0:
480,248,17842,2,0,L|430:276,1,57.5000010967255
496,324,18029,5,0,0:0:0:0:
344,288,18217,1,0,0:0:0:0:
312,284,18310,1,0,0:0:0:0:
280,288,18404,1,8,0:0:0:0:
152,324,18592,1,0,0:0:0:0:
196,204,18779,5,0,0:0:0:0:
304,168,18967,1,0,0:0:0:0:
336,164,19061,1,0,0:0:0:0:
368,168,19154,1,8,0:0:0:0:
256,80,19342,1,0,0:0:0:0:
224,76,19435,1,0,0:0:0:0:
192,80,19529,6,0,B|156:96|156:96|120:92|120:92|80:108,1,115.000002193451
52,132,19810,1,0,0:0:0:0:
64,168,19904,1,8,0:0:0:0:
48,204,19998,1,0,0:0:0:0:
60,240,20092,1,0,0:0:0:0:
40,272,20185,1,0,0:0:0:0:
52,308,20279,5,0,0:0:0:0:
40,348,20373,2,0,B|96:364|96:364|152:348,1,115.000002193451
252,308,20654,2,0,L|305:286,1,57.5000010967255,8|0,0:0|0:0,0:0:0:0:
196,232,20842,2,0,L|142:210,1,57.5000010967255
252,152,21029,6,0,P|312:136|368:144,1,115.000002193451
399,161,21310,1,0,0:0:0:0:
426,190,21404,1,8,0:0:0:0:
438,228,21498,1,0,0:0:0:0:
439,268,21592,1,0,0:0:0:0:
426,305,21685,1,0,0:0:0:0:
388,292,21779,5,0,0:0:0:0:
350,274,21873,1,0,0:0:0:0:
328,238,21967,1,0,0:0:0:0:
290,220,22060,1,0,0:0:0:0:
256,240,22154,5,8,0:0:0:0:
238,278,22248,1,0,0:0:0:0:
202,300,22342,1,0,0:0:0:0:
184,338,22435,1,0,0:0:0:0:
144,340,22529,6,0,P|85:318|53:276,1,115.000002193451
37,241,22810,1,0,0:0:0:0:
34,200,22904,1,8,0:0:0:0:
40,160,22998,1,0,0:0:0:0:
62,126,23092,1,0,0:0:0:0:
95,103,23185,1,0,0:0:0:0:
134,94,23279,5,0,0:0:0:0:
172,106,23373,2,0,P|228:118|284:106,1,115.000002193451
360,84,23654,2,0,L|423:58,1,57.5000010967255,8|0,0:0|0:0,0:0:0:0:
356,160,23842,2,0,L|302:181,1,57.5000010967255
412,208,24029,6,0,L|452:191,10,28.7500005483627,8|0|0|0|0|0|0|0|0|0|0,0:0|0:0|0:0|0:0|0:0|0:0|0:0|0:0|0:0|0:0|0:0,0:0:0:0:
376,272,24592,6,0,P|328:304|248:308,1,115.000002193451,12|0,0:0|0:0,0:0:0:0:
156,240,24873,2,0,P|204:208|284:204,1,115.000002193451,12|0,0:0|0:0,0:0:0:0:
156,240,25154,2,0,L|60:332,1,115.000002193451,12|8,0:0|0:0,0:0:0:0:
120,104,25529,5,4,1:1:0:0:
240,40,25717,1,0,0:0:0:0:
276,64,25810,1,0,0:0:0:0:
316,79,25904,2,0,P|362:91|416:83,1,100,0|0,1:0|0:0,0:0:0:0:
209,154,26279,5,0,1:0:0:0:
164,163,26373,2,0,P|112:187|83:233,1,100
80,267,26654,1,0,1:0:0:0:
226,264,26842,2,0,L|254:308,1,50,2|2,0:0|0:0,0:0:0:0:
280,343,27029,6,0,P|332:331|380:341,1,100,0|0,1:0|0:0,0:0:0:0:
420,351,27310,1,0,0:0:0:0:
456,324,27404,2,0,P|480:280|472:220,1,100,0|0,1:0|0:0,0:0:0:0:
436,64,27779,5,0,1:0:0:0:
372,176,27967,1,0,0:0:0:0:
360,196,28060,1,0,0:0:0:0:
348,216,28154,1,0,1:0:0:0:
256,96,28342,2,0,L|230:52,1,50,2|2,0:0|0:0,0:0:0:0:
200,76,28529,6,0,P|160:100|104:100,1,100,0|0,1:0|0:0,0:0:0:0:
36,116,28810,2,0,L|100:212,1,100,0|0,1:0|0:0,0:0:0:0:
24,220,29092,1,0,1:0:0:0:
112,304,29279,6,0,P|160:328|205:323,1,100,0|0,1:0|0:0,0:0:0:0:
172,255,29560,2,0,P|219:230|242:190,1,100,0|0,1:0|0:0,0:0:0:0:
165,179,29842,1,0,1:0:0:0:
256,64,30029,6,0,P|316:52|368:64,1,100,0|0,1:0|0:0,0:0:0:0:
392,100,30310,2,0,L|452:116,1,50,0|0,1:0|0:0,0:0:0:0:
296,208,30592,1,0,1:0:0:0:
256,64,30779,6,0,P|196:52|144:64,1,100,0|0,1:0|1:0,0:0:0:0:
120,100,31060,2,0,L|60:116,1,50,0|0,1:0|1:0,0:0:0:0:
216,208,31342,1,2,1:2:0:0:
224,240,31435,1,2,0:0:0:0:
232,272,31529,6,0,B|248:320|248:320|304:312|344:364,1,150,0|0,1:0|0:0,0:0:0:0:
380,292,31904,2,0,P|420:260|468:256,1,100,8|0,1:0|0:0,0:0:0:0:
384,48,32279,6,0,B|328:136|328:136|280:168,1,150,0|0,1:0|0:0,0:0:0:0:
264,88,32654,2,0,B|220:120|220:120|168:132,1,100,8|0,1:0|0:0,0:0:0:0:
80,292,33029,6,0,P|80:224|20:160,1,150,0|0,1:0|0:0,0:0:0:0:
80,292,33404,2,0,P|136:328|168:332,1,100,8|0,1:0|0:0,0:0:0:0:
344,256,33779,5,0,1:0:0:0:
388,236,33873,2,0,P|448:220|492:228,1,100
400,320,34154,2,0,P|340:336|296:328,1,100,8|0,1:0|0:0,0:0:0:0:
256,132,34529,6,0,B|224:176|224:176|220:212|220:212|180:272,1,150,0|0,1:0|0:0,0:0:0:0:
312,180,34904,2,0,B|334:155|334:155|355:149|355:149|387:118,1,100,8|0,1:0|0:0,0:0:0:0:
212,36,35279,6,0,P|128:32|68:72,1,150,0|0,1:0|0:0,0:0:0:0:
128,112,35654,2,0,P|96:160|96:212,1,100,8|0,1:0|0:0,0:0:0:0:
320,272,36029,6,0,B|260:252|260:252|188:260,1,115.000002193451,0|0,1:0|0:0,0:0:0:0:
360,296,36310,1,0,0:0:0:0:
396,312,36404,6,0,L|432:328,16,37.5000014305115,8|0|0|0|0|0|0|0|0|0|0|0|0|0|0|0|8,0:0|0:0|0:0|0:0|0:0|0:0|0:0|0:0|0:0|0:0|0:0|0:0|0:0|0:0|0:0|0:0|0:0,0:0:0:0:
448,176,37342,2,0,L|464:108,1,57.5000010967255,2|2,0:0|0:0,0:0:0:0:
448,72,37529,6,0,B|408:48|408:48|360:72,1,100,0|0,1:0|0:0,0:0:0:0:
324,92,37810,1,0,0:0:0:0:
288,116,37904,6,0,B|232:148|232:148|178:116,1,125,12|0,0:0|0:0,0:0:0:0:
138,86,38185,1,0,0:0:0:0:
88,78,38279,5,0,0:0:0:0:
40,94,38373,1,0,0:0:0:0:
17,138,38467,1,0,0:0:0:0:
25,186,38560,1,0,0:0:0:0:
60,221,38654,2,0,L|168:300,1,125,8|0,0:0|0:0,0:0:0:0:
452,221,39029,6,0,L|344:300,2,125,0|0|8,0:0|0:0|0:0,0:0:0:0:
487,186,39498,1,0,0:0:0:0:
495,138,39591,1,0,0:0:0:0:
472,94,39685,2,0,B|428:56|428:56|352:48,1,125
344,132,39967,6,0,L|276:144,1,62.5
232,60,40154,2,0,L|164:52,1,62.5,8|0,0:0|0:0,0:0:0:0:
164,144,40342,2,0,L|96:156,1,62.5,0|0,0:0|0:0,0:0:0:0:
8,100,40529,6,0,P|-4:164|16:224,1,125
40,264,40810,1,0,0:0:0:0:
76,300,40904,1,8,0:0:0:0:
124,316,40998,1,0,0:0:0:0:
176,316,41092,1,0,0:0:0:0:
224,300,41185,1,0,0:0:0:0:
264,268,41279,6,0,L|308:224,1,62.5
364,296,41467,2,0,L|380:228,1,62.5
464,296,41654,2,0,L|432:160,1,125,8|0,0:0|0:0,0:0:0:0:
328,40,42029,5,0,0:0:0:0:
304,60,42123,1,0,0:0:0:0:
272,64,42217,1,0,0:0:0:0:
244,48,42310,1,0,0:0:0:0:
204,40,42404,5,8,0:0:0:0:
156,52,42498,1,0,0:0:0:0:
120,84,42592,1,0,0:0:0:0:
112,132,42685,1,0,0:0:0:0:
124,188,42779,5,0,0:0:0:0:
172,224,42873,1,0,0:0:0:0:
233,228,42967,1,0,0:0:0:0:
284,196,43060,1,0,0:0:0:0:
332,176,43154,5,8,0:0:0:0:
380,184,43248,1,0,0:0:0:0:
416,216,43342,1,0,0:0:0:0:
436,260,43435,1,0,0:0:0:0:
432,308,43529,6,0,B|392:344|392:344|308:368,1,125
260,312,43810,1,0,0:0:0:0:
204,316,43904,2,0,L|136:320,1,62.5,8|0,0:0|0:0,0:0:0:0:
104,256,44092,2,0,L|36:260,1,62.5
48,176,44279,6,0,L|12:104,1,62.5
72,28,44467,2,0,L|104:88,1,62.5
216,132,44654,2,0,P|184:80|216:32,1,125,8|0,0:0|0:0,0:0:0:0:
296,252,45029,6,0,P|328:304|296:352,1,125
480,132,45404,2,0,L|416:176,1,62.5,8|0,0:0|0:0,0:0:0:0:
376,100,45592,2,0,L|308:120,1,62.5
268,52,45779,5,0,0:0:0:0:
218,46,45873,1,0,0:0:0:0:
168,40,45967,1,0,0:0:0:0:
118,34,46060,1,0,0:0:0:0:
91,76,46154,5,8,0:0:0:0:
64,118,46248,1,0,0:0:0:0:
38,160,46342,1,0,0:0:0:0:
12,202,46435,1,0,0:0:0:0:
43,240,46529,6,0,L|124:336,1,125
196,292,46810,1,0,0:0:0:0:
252,304,46904,2,0,L|316:320,1,62.5,8|0,0:0|0:0,0:0:0:0:
212,200,47092,2,8,P|180:196|152:204,1,62.5,2|2,3:0|3:0,3:3:0:0:
304,144,47279,6,0,L|364:116,1,62.5
396,212,47467,2,0,L|476:208,1,62.5
492,296,47654,2,0,P|444:336|372:348,1,125,8|0,0:0|0:0,0:0:0:0:
206,101,48029,5,0,0:0:0:0:
188,82,48123,1,0,0:0:0:0:
165,70,48217,1,0,0:0:0:0:
140,68,48310,1,0,0:0:0:0:
104,81,48404,5,8,0:0:0:0:
78,112,48498,1,0,0:0:0:0:
68,151,48592,1,8,0:0:0:0:
71,191,48685,1,8,0:0:0:0:
83,239,48779,5,0,0:0:0:0:
112,287,48873,1,8,0:0:0:0:
158,318,48967,1,8,0:0:0:0:
210,336,49060,1,0,0:0:0:0:
270,324,49154,5,12,0:0:0:0:
327,292,49248,1,12,0:0:0:0:
384,260,49342,1,12,0:0:0:0:
441,229,49435,1,12,0:0:0:0:
492,197,49529,6,0,B|496:164|496:164|484:124,3,62.5,4|0|0|0,0:0|0:0|0:0|0:0,0:0:0:0:
460,93,49904,1,0,0:0:0:0:
422,60,49998,1,0,0:0:0:0:
376,38,50092,1,0,0:0:0:0:
327,29,50185,1,0,0:0:0:0:
276,32,50279,6,0,B|243:40|243:40|216:53,3,62.5
175,79,50654,1,8,0:0:0:0:
151,123,50748,1,0,0:0:0:0:
149,173,50842,1,0,0:0:0:0:
161,220,50935,1,0,0:0:0:0:
198,253,51029,6,0,B|226:270|226:270|260:274,3,62.5
280,208,51404,2,0,B|308:225|308:225|342:229,1,62.5,8|0,0:0|0:0,0:0:0:0:
364,164,51592,2,0,B|392:181|392:181|426:185,1,62.5
448,120,51779,5,0,0:0:0:0:
484,154,51873,1,0,0:0:0:0:
496,202,51967,1,0,0:0:0:0:
486,250,52060,1,0,0:0:0:0:
435,249,52154,5,8,0:0:0:0:
389,271,52248,1,0,0:0:0:0:
351,304,52342,1,0,0:0:0:0:
329,348,52435,1,0,0:0:0:0:
284,325,52529,6,0,L|215:299,1,62.5
202,258,52717,2,0,L|135:272,1,62.5
102,228,52904,2,0,L|56:273,3,62.5,8|0|0|0,0:0|0:0|0:0|0:0,0:0:0:0:
34,198,53279,6,0,L|16:127,1,62.5
88,134,53467,2,0,L|93:64,1,62.5
160,107,53654,2,0,L|194:53,3,62.5,8|0|0|0,0:0|0:0|0:0|0:0,0:0:0:0:
244,111,54029,6,0,L|299:153,1,62.5
340,83,54217,2,0,L|407:105,1,62.5
437,32,54404,1,8,0:0:0:0:
479,59,54498,1,0,0:0:0:0:
496,106,54592,1,0,0:0:0:0:
488,154,54685,1,0,0:0:0:0:
458,194,54779,6,0,L|405:238,1,62.5
379,301,54967,2,0,L|312:288,1,62.5
249,332,55154,2,0,L|216:277,1,62.5,8|0,0:0|0:0,0:0:0:0:
137,248,55342,2,0,L|167:184,1,62.5
126,107,55529,6,0,L|118:43,3,62.5
228,113,55904,1,8,0:0:0:0:
260,151,55998,1,0,0:0:0:0:
303,175,56092,1,0,0:0:0:0:
352,175,56185,1,0,0:0:0:0:
395,150,56279,6,0,L|449:112,3,62.5
428,239,56654,1,8,0:0:0:0:
397,279,56748,1,0,0:0:0:0:
354,305,56842,1,0,0:0:0:0:
304,311,56935,1,0,0:0:0:0:
255,298,57029,6,0,L|197:273,3,62.5
111,261,57404,2,0,L|135:195,1,62.5,8|0,0:0|0:0,0:0:0:0:
34,136,57592,2,0,L|122:128,1,62.5
125,30,57779,5,0,0:0:0:0:
159,66,57873,1,0,0:0:0:0:
207,77,57967,1,0,0:0:0:0:
253,60,58060,1,0,0:0:0:0:
295,34,58154,5,8,0:0:0:0:
329,70,58248,1,0,0:0:0:0:
374,91,58342,1,0,0:0:0:0:
423,91,58435,1,0,0:0:0:0:
468,69,58529,5,0,0:0:0:0:
472,118,58623,1,0,0:0:0:0:
476,167,58717,1,0,0:0:0:0:
480,216,58810,1,0,0:0:0:0:
484,265,58904,2,0,L|492:349,3,62.5,8|0|0|0,0:0|0:0|0:0|0:0,0:0:0:0:
373,254,59279,5,0,0:0:0:0:
326,235,59373,1,0,0:0:0:0:
279,217,59467,1,0,0:0:0:0:
232,199,59560,1,0,0:0:0:0:
184,181,59654,2,0,L|125:160,1,62.5,8|0,0:0|0:0,0:0:0:0:
136,260,59842,6,0,L|136:340,1,62.5,4|0,0:0|0:0,0:0:0:0:
232,304,60029,2,0,L|232:384,1,62.5,4|0,0:0|0:0,0:0:0:0:
256,192,60217,12,4,61529,0:0:0:0:
256,192,71467,12,0,73342,0:0:0:0:
128,116,73529,6,0,L|108:172,3,37.5000014305115
112,181,73904,1,0,0:0:0:0:
116,210,73998,1,0,0:0:0:0:
128,237,74092,1,0,0:0:0:0:
149,257,74185,1,0,0:0:0:0:
174,272,74279,5,0,0:0:0:0:
202,282,74373,2,0,P|240:285|288:276,1,75.0000028610231
328,228,74654,2,0,L|346:191,1,37.5000014305115
411,224,74842,2,0,L|449:203,1,37.5000014305115
466,286,75029,5,0,0:0:0:0:
440,301,75123,1,0,0:0:0:0:
414,316,75217,1,0,0:0:0:0:
388,331,75310,1,0,0:0:0:0:
355,321,75404,5,0,0:0:0:0:
324,320,75498,1,0,0:0:0:0:
295,330,75592,1,0,0:0:0:0:
267,344,75685,1,0,0:0:0:0:
237,337,75779,6,0,L|199:326,1,37.5000014305115
216,255,75967,2,0,L|178:244,1,37.5000014305115,0|0,0:0|0:0,0:0:0:0:
249,177,76154,2,0,L|287:166,1,37.5000014305115
270,95,76342,2,0,L|308:84,1,37.5000014305115,0|0,0:0|0:0,0:0:0:0:
210,36,76529,5,0,0:0:0:0:
176,31,76623,1,0,0:0:0:0:
141,31,76717,1,0,0:0:0:0:
108,39,76810,1,0,0:0:0:0:
77,54,76904,1,0,0:0:0:0:
53,78,76998,1,0,0:0:0:0:
36,107,77092,1,0,0:0:0:0:
27,139,77185,1,0,0:0:0:0:
25,173,77279,5,0,0:0:0:0:
30,206,77373,2,0,P|42:244|73:280,1,85.0000016212464
97,298,77654,2,0,L|141:326,1,42.5000008106232
146,218,77842,2,0,L|110:195,1,42.5000008106232
223,268,78029,5,0,0:0:0:0:
252,285,78123,1,0,0:0:0:0:
281,302,78217,1,0,0:0:0:0:
309,319,78310,1,0,0:0:0:0:
335,297,78404,5,0,0:0:0:0:
365,282,78498,1,0,0:0:0:0:
398,277,78592,1,0,0:0:0:0:
431,283,78685,1,0,0:0:0:0:
443,251,78779,5,0,0:0:0:0:
455,219,78873,1,0,0:0:0:0:
467,187,78967,1,0,0:0:0:0:
478,155,79060,1,0,0:0:0:0:
444,160,79154,5,0,0:0:0:0:
409,158,79248,1,0,0:0:0:0:
376,147,79342,1,0,0:0:0:0:
351,123,79435,1,0,0:0:0:0:
331,90,79529,5,0,0:0:0:0:
308,58,79623,1,0,0:0:0:0:
275,37,79717,1,0,0:0:0:0:
238,29,79810,1,0,0:0:0:0:
199,30,79904,1,0,0:0:0:0:
164,47,79998,1,0,0:0:0:0:
139,75,80092,1,0,0:0:0:0:
126,110,80185,1,0,0:0:0:0:
128,148,80279,5,0,0:0:0:0:
144,182,80373,2,0,L|199:260,1,94.9999974632264
256,172,80654,2,0,L|295:227,1,47.4999987316132
292,300,80842,2,0,L|331:357,1,47.4999987316132
399,296,81029,5,0,0:0:0:0:
413,256,81123,1,0,0:0:0:0:
413,213,81217,1,0,0:0:0:0:
399,173,81310,1,0,0:0:0:0:
403,131,81404,5,0,0:0:0:0:
392,90,81498,1,0,0:0:0:0:
370,54,81592,1,0,0:0:0:0:
335,30,81685,1,0,0:0:0:0:
296,46,81779,5,0,0:0:0:0:
256,60,81873,1,0,0:0:0:0:
213,60,81967,1,0,0:0:0:0:
172,48,82060,1,0,0:0:0:0:
135,26,82154,5,0,0:0:0:0:
99,48,82248,1,0,0:0:0:0:
79,85,82342,1,0,0:0:0:0:
78,126,82435,1,0,0:0:0:0:
88,170,82529,6,0,L|103:233,1,57.5000010967255
180,217,82717,2,0,L|220:267,1,57.5000010967255,0|0,0:0|0:0,0:0:0:0:
283,220,82904,2,0,L|340:249,1,57.5000010967255,0|0,0:0|0:0,0:0:0:0:
377,179,83092,2,0,L|441:180,1,57.5000010967255,0|0,0:0|0:0,0:0:0:0:
495,246,83279,6,0,L|426:269,1,62.5
409,339,83467,2,0,L|344:326,1,62.5
273,353,83654,2,0,L|234:300,1,62.5
134,337,83842,2,0,L|121:262,1,62.5
88,171,84029,6,0,L|77:134,6,33.750000128746
171,101,84404,2,0,L|201:73,6,33.750000128746
295,139,84779,6,0,L|341:157,6,43.7500004172325
427,89,85154,2,0,L|480:54,6,50,0|0|0|0|0|0|0,0:0|0:0|0:0|0:0|0:0|0:0|0:0,0:0:0:0:
460,204,85529,5,4,0:0:0:0:
460,204,85904,2,0,P|398:270|269:287,1,225.000008583069,0|0,0:0|0:0,0:0:0:0:
200,240,86654,6,0,P|131:256|188:276,1,179.999994506836,4|4,0:0|0:0,0:0:0:0:
208,112,87029,6,0,B|252:53|252:53|327:41,1,150.000005722046,4|0,0:0|0:0,0:0:0:0:
379,37,87310,1,0,0:0:0:0:
431,42,87404,1,8,0:0:0:0:
466,80,87498,1,0,0:0:0:0:
465,132,87592,1,0,0:0:0:0:
425,166,87685,6,0,P|362:207|352:296,1,150.000005722046
395,329,87967,2,0,P|411:307|415:256,1,75.0000028610231
277,292,88154,2,0,P|301:332|325:344,1,75.0000028610231,8|0,0:0|0:0,0:0:0:0:
282,221,88342,2,0,P|259:190|227:171,1,75.0000028610231
176,112,88529,6,0,B|150:157|150:157|159:204|159:204|131:252,1,150.000005722046
88,271,88810,1,0,0:0:0:0:
37,257,88904,1,8,0:0:0:0:
15,209,88998,1,0,0:0:0:0:
29,158,89092,1,0,0:0:0:0:
55,113,89185,5,2,0:0:0:0:
192,32,89373,5,2,0:0:0:0:
260,64,89467,1,2,0:0:0:0:
336,64,89560,1,2,0:0:0:0:
404,32,89654,2,0,P|464:68|492:152,1,150.000005722046,10|0,0:0|0:0,0:0:0:0:
328,152,90029,6,0,B|252:172|252:172|220:236,1,150.000005722046
210,287,90310,1,0,0:0:0:0:
228,336,90404,1,8,0:0:0:0:
272,363,90498,1,0,0:0:0:0:
324,358,90592,1,0,0:0:0:0:
360,320,90685,1,0,0:0:0:0:
388,276,90779,6,0,B|403:264|403:264|395:241|395:241|418:234|418:234|411:211|411:211|434:204|434:204|426:181|426:181|449:173|449:173|442:151|442:151|464:143|464:143|457:120|457:120|480:113|480:113|473:90|473:90|495:83|495:83|492:71,1,300,4|2,0:0|2:0,0:0:0:0:
404,32,91154,1,8,0:0:0:0:
360,56,91248,2,0,P|268:84|204:80,1,150.000005722046
144,56,91529,6,0,L|72:24,1,75.0000028610231
56,112,91717,2,0,P|16:188|24:260,1,150.000005722046,0|8,0:0|0:0,0:0:0:0:
76,328,91998,2,0,P|116:252|108:180,1,150.000005722046
176,144,92279,5,0,0:0:0:0:
224,172,92373,2,0,P|300:196|372:184,1,150.000005722046
440,136,92654,5,8,0:0:0:0:
464,192,92748,1,0,0:0:0:0:
460,248,92842,1,0,0:0:0:0:
484,304,92936,1,0,0:0:0:0:
472,360,93029,6,0,B|400:340|400:340|308:372,1,150.000005722046
280,352,93310,1,0,0:0:0:0:
228,360,93404,1,8,0:0:0:0:
180,336,93498,1,0,0:0:0:0:
128,344,93592,1,0,0:0:0:0:
80,320,93685,6,0,P|44:244|40:176,1,150.000005722046
84,112,93967,2,0,P|108:140|120:184,1,75.0000028610231
200,192,94154,2,0,P|183:224|146:252,1,75.0000028610231,8|0,0:0|0:0,0:0:0:0:
180,120,94342,2,0,P|216:108|252:112,1,75.0000028610231
330,72,94529,6,0,B|372:98|372:98|380:145|380:145|424:173,1,150.000005722046
462,209,94810,1,0,0:0:0:0:
474,260,94904,1,8,0:0:0:0:
463,311,94998,1,0,0:0:0:0:
429,351,95092,1,0,0:0:0:0:
378,360,95185,5,2,0:0:0:0:
260,276,95373,5,2,0:0:0:0:
292,208,95467,1,2,0:0:0:0:
292,132,95560,1,2,0:0:0:0:
260,64,95654,2,0,B|208:12|116:28,1,150.000005722046,10|0,0:0|0:0,0:0:0:0:
40,168,96029,6,0,B|36:244|36:244|72:308|72:308,1,150.000005722046
111,343,96310,1,0,0:0:0:0:
160,359,96404,1,8,0:0:0:0:
212,363,96498,1,0,0:0:0:0:
264,358,96592,1,0,0:0:0:0:
310,335,96685,1,0,0:0:0:0:
348,296,96779,6,0,B|348:284|348:284|358:279|358:279|358:268|358:268|369:263|369:263|369:252|369:252|380:247|380:247|380:236|380:236|391:231|391:231|391:219|391:219|402:215|402:215|402:203|402:203|413:199|413:199|413:187|413:187|424:183|424:183|424:171|424:171|434:167|434:167|434:155|434:155|445:151|445:151|445:139|445:139|456:135|456:135|456:123|456:123|467:118|467:118|467:107|467:107|478:102,1,269.999991760254,4|2,0:0|2:0,0:0:0:0:
384,52,97154,2,2,B|340:111|340:111|340:200|252:228,1,225.000008583069,8|0,0:0|0:0,0:0:0:0:
248,132,97529,6,0,P|204:80|152:60,1,125,4|0,1:2|0:0,0:0:0:0:
116,132,97810,2,0,P|68:180|8:196,2,125,0|2|2,1:0|0:0|0:0,0:0:0:0:
184,192,98279,2,2,L|192:260,14,50,2|2|2|2|2|2|2|2|2|2|2|2|2|2|2,3:0|3:0|3:0|3:0|3:0|3:0|3:0|3:0|3:0|3:0|3:0|3:0|3:0|3:0|3:0,0:0:0:0:
240,296,99029,6,0,B|312:324|312:324|384:312,1,150.000005722046,4|0,0:0|0:0,0:0:0:0:
438,297,99310,1,0,0:0:0:0:
477,257,99404,1,8,0:0:0:0:
495,203,99498,1,0,0:0:0:0:
494,146,99592,1,0,0:0:0:0:
478,92,99685,6,0,P|429:43|341:36,1,150.000005722046
389,119,99967,2,0,P|409:149|416:190,1,75.0000028610231
296,111,100154,2,0,P|271:84|257:45,1,75.0000028610231,8|0,0:0|0:0,0:0:0:0:
331,191,100342,2,0,P|337:226|328:266,1,75.0000028610231
276,336,100529,6,0,B|228:280|228:280|216:204,1,150.000005722046
208,148,100810,1,0,0:0:0:0:
192,93,100904,1,8,0:0:0:0:
145,61,100998,1,0,0:0:0:0:
89,51,101092,1,0,0:0:0:0:
36,71,101185,5,2,0:0:0:0:
76,236,101373,5,2,0:0:0:0:
126,297,101467,1,2,0:0:0:0:
198,328,101560,1,2,0:0:0:0:
276,336,101654,2,2,L|444:336,1,150.000005722046,10|0,0:0|0:0,0:0:0:0:
464,144,102029,6,0,B|413:156|413:156|386:196|386:196|332:209,1,150.000005722046,0|0,0:0|0:0,0:0:0:0:
283,222,102310,1,0,0:0:0:0:
226,222,102404,1,8,0:0:0:0:
173,201,102498,1,0,0:0:0:0:
140,160,102592,1,0,0:0:0:0:
124,104,102685,1,0,0:0:0:0:
136,56,102779,6,0,B|148:36|148:36|176:40|176:40|192:24|192:24|216:32|216:32|232:12|232:12|256:20|256:20|280:12|280:12|296:32|296:32|320:24|320:24|336:40|336:40|364:36|364:36|376:56,1,300,4|2,0:0|2:0,0:0:0:0:
452,92,103154,1,8,0:0:0:0:
464,144,103248,2,0,P|460:212|404:272,1,150.000005722046
336,188,103529,6,0,P|300:184|248:204,1,75.0000028610231
260,276,103717,2,0,P|196:316|124:320,1,150.000005722046,0|8,0:0|0:0,0:0:0:0:
156,224,103998,2,0,P|165:140|120:82,1,150.000005722046
220,40,104279,5,0,0:0:0:0:
260,52,104373,2,0,P|332:72|408:56,1,150.000005722046
368,148,104654,5,8,0:0:0:0:
336,188,104748,1,0,0:0:0:0:
340,244,104842,1,0,0:0:0:0:
308,284,104935,1,0,0:0:0:0:
312,340,105029,6,0,B|236:356|236:356|160:340,1,150.000005722046
112,319,105310,1,0,0:0:0:0:
69,282,105404,1,8,0:0:0:0:
46,230,105498,1,0,0:0:0:0:
43,173,105592,1,0,0:0:0:0:
55,118,105685,6,0,P|101:58|171:39,1,150.000005722046
252,44,105967,2,0,P|235:80|205:108,1,75.0000028610231
200,184,106154,2,0,P|163:167|135:137,1,75.0000028610231,8|0,0:0|0:0,0:0:0:0:
272,152,106342,2,0,P|308:168|336:198,1,75.0000028610231
264,276,106529,6,0,B|332:312|332:312|409:285,1,150.000005722046
445,255,106810,1,0,0:0:0:0:
473,206,106904,1,8,0:0:0:0:
478,149,106998,1,0,0:0:0:0:
458,96,107092,1,0,0:0:0:0:
420,54,107185,5,2,0:0:0:0:
272,152,107373,5,2,0:0:0:0:
200,184,107467,1,2,0:0:0:0:
122,185,107560,1,2,0:0:0:0:
50,152,107654,2,0,P|21:223|32:293,1,150.000005722046,10|0,0:0|0:0,0:0:0:0:
260,344,108029,6,0,P|352:340|444:252,1,225.000008583069,4|0,1:2|0:0,0:0:0:0:
364,248,108404,2,0,P|388:192|304:64,1,225.000008583069,8|0,0:0|0:0,0:0:0:0:
308,148,108779,6,0,P|232:128|268:260,1,262.500002503395,4|2,0:0|2:0,0:0:0:0:
256,192,109154,6,2,L|75:86,1,199.499991780854,8|0,0:0|0:0,0:0:0:0:
48,152,109529,6,0,P|64:228|28:300,1,150.000005722046,4|2,0:0|2:0,0:0:0:0:
132,264,109810,2,0,P|208:252|280:280,1,150.000005722046,0|2,0:0|2:0,0:0:0:0:
364,248,110092,2,0,B|428:212|428:212|388:128|448:72,2,225.000008583069,8|8|8,0:0|0:0|0:0,0:0:0:0:
256,72,110842,1,8,0:0:0:0:
208,44,110935,1,0,0:0:0:0:
160,32,111029,6,0,P|88:32|36:72,1,132.999994520569
120,104,111310,1,0,0:0:0:0:
140,148,111404,2,0,P|156:212|132:264,1,125,8|0,0:0|0:0,0:0:0:0:
304,132,111779,5,0,0:0:0:0:
340,108,111873,2,0,P|400:88|456:96,1,119.999996337891
404,168,112154,2,0,L|304:268,1,115.000002193451,8|0,0:0|0:0,0:0:0:0:
384,300,112435,1,0,0:0:0:0:
344,336,112529,6,0,P|292:352|224:348,1,115.000002193451
192,340,112810,1,0,0:0:0:0:
156,320,112904,2,0,P|112:280|92:224,1,115.000002193451,8|0,0:0|0:0,0:0:0:0:
180,36,113279,5,0,0:0:0:0:
152,68,113373,2,0,P|104:100|44:104,1,115.000002193451
172,144,113654,2,0,P|220:176|252:228,1,115.000002193451,8|0,0:0|0:0,0:0:0:0:
268,264,113935,1,0,0:0:0:0:
288,304,114029,6,0,B|328:344|328:344|392:352,1,115.000002193451,2|0,2:0|2:0,0:0:0:0:
372,272,114310,2,0,B|460:196|460:196|476:140,1,172.500003290176,2|0,2:0|2:0,2:0:0:0:
256,32,114779,6,0,P|292:80|344:100,1,115.000002193451
280,156,115060,1,0,0:0:0:0:
252,188,115154,2,0,P|200:216|128:216,1,115.000002193451,8|0,0:0|0:0,0:0:0:0:
76,188,115435,1,0,0:0:0:0:
48,224,115529,6,0,P|56:280|104:328,1,115.000002193451
136,340,115810,1,0,0:0:0:0:
184,344,115904,2,0,P|256:344|300:328,1,115.000002193451,8|0,0:0|0:0,0:0:0:0:
428,132,116279,5,0,0:0:0:0:
444,168,116373,2,0,P|452:224|432:280,1,115.000002193451
348,188,116654,2,0,P|340:132|360:76,1,115.000002193451,8|0,0:0|0:0,0:0:0:0:
288,36,116935,1,0,0:0:0:0:
244,52,117029,6,0,B|192:76|192:76|120:64,1,115.000002193451,12|0,1:0|0:0,0:0:0:0:
116,136,117310,2,0,B|180:148|180:148|256:224,1,172.500003290176,2|0,0:2|0:0,2:0:0:0:
32,280,117779,5,0,0:0:0:0:
68,308,117873,2,0,P|124:336|188:332,1,115.000002193451
256,304,118154,2,0,P|312:288|380:304,1,115.000002193451,8|0,0:0|0:0,0:0:0:0:
448,324,118435,1,0,0:0:0:0:
468,280,118529,6,0,B|480:224|480:224|456:168,1,115.000002193451,2|0,1:2|2:0,0:0:0:0:
396,224,118810,2,0,B|356:116|356:116|368:52,1,172.500003290176,2|0,0:2|0:0,2:0:0:0:
232,28,119279,6,0,P|168:52|120:52,1,115.000002193451
80,52,119560,1,0,0:0:0:0:
48,76,119654,2,0,P|32:136|44:188,1,115.000002193451,8|0,0:0|0:0,0:0:0:0:
64,220,119935,1,0,0:0:0:0:
96,244,120029,6,0,B|148:268|148:268|208:256,1,115.000002193451,2|0,0:2|0:0,0:0:0:0:
196,332,120310,2,0,B|140:344|140:344|24:292,1,172.500003290176,2|0,0:2|0:0,0:0:0:0:
256,192,120779,6,0,P|316:180|372:196,1,115.000002193451
464,312,121154,5,8,0:0:0:0:
312,336,121342,1,0,0:0:0:0:
367,193,121529,6,0,B|388:140|388:140|380:80,1,115.000002193451,2|0,0:2|0:0,0:0:0:0:
352,48,121810,1,2,0:2:0:0:
308,48,121904,2,0,L|252:52,16,50,2|2|2|2|2|2|2|2|2|2|2|2|2|2|2|2|2,0:0|0:0|0:0|0:0|0:0|0:0|0:0|0:0|0:0|0:0|0:0|0:0|0:0|0:0|0:0|0:0|0:0,0:0:0:0:
188,172,122842,1,2,1:2:0:0:
160,200,122935,1,2,1:2:0:0:
132,228,123029,5,4,1:0:0:0:
