osu file format v9

[General]
AudioFilename: Memme - Legend of Moonlight.mp3
AudioLeadIn: 1000
PreviewTime: -1
Countdown: 1
SampleSet: Soft
StackLeniency: 0.7
Mode: 0
LetterboxInBreaks: 1

[Editor]
DistanceSpacing: 0.8
BeatDivisor: 6
GridSize: 8

[Metadata]
Title:Legend of Moonlight
Artist:Memme
Creator:wang211926
Version:Crazy Beat!!
Source:ez2dj
Tags:ez2on a408746369 Amitiel_S Hintendo

[Difficulty]
HPDrainRate:6
CircleSize:4
OverallDifficulty:8
ApproachRate:8
SliderMultiplier:1.7
SliderTickRate:0.5

[Events]
//Background and Video events
0,0,"ez.JPG"
Video,0,"legend of moonlight_0.avi"
//Break Periods
2,25717,27017
2,46716,50265
2,52715,52890
//Storyboard Layer 0 (Background)
//Storyboard Layer 1 (Fail)
//Storyboard Layer 2 (Pass)
//Storyboard Layer 3 (Foreground)
//Storyboard Sound Samples
//Background Colour Transformations
3,100,163,162,255

[TimingPoints]
769,375,4,2,1,55,1,0
1519,375,4,1,1,55,1,0
3018,-100,4,2,1,55,0,0
4425,-100,4,1,1,55,0,0
6112,-100,4,1,1,55,0,0
7518,-100,4,2,1,55,0,0
8362,-100,4,1,1,55,0,0
8737,-100,4,2,1,55,0,0
10424,-200,4,1,1,55,0,0
11924,-100,4,2,1,55,0,0
13424,-100,4,1,1,55,0,0
14830,-100,4,2,1,55,0,0
18111,-100,4,1,1,55,0,0
19517,-100,4,2,1,55,0,0
29548,-100,4,1,1,55,0,0
30110,-100,4,2,1,55,0,0
31048,-100,4,1,1,55,0,0
31610,-100,4,2,1,55,0,0
32548,-100,4,1,1,55,0,0
33110,-100,4,2,1,55,0,0
34048,-100,4,1,1,55,0,0
34610,-100,4,2,1,55,0,0
35548,-100,4,1,1,55,0,0
36110,-100,4,2,1,55,0,0
37048,-100,4,1,1,55,0,0
37610,-100,4,2,1,55,0,0
38547,-100,4,1,1,55,0,0
39110,-100,4,2,1,55,0,0
41547,-100,4,1,1,55,0,0
41922,-100,4,2,1,55,0,0
43047,-100,4,1,1,55,0,0
43422,-100,4,2,1,55,0,0
44547,-100,4,1,1,55,0,0
44922,-100,4,2,1,55,0,0
46047,-100,4,1,1,55,0,0
46516,-100,4,2,1,55,0,0
50922,-100,4,1,1,55,0,0
52609,-100,4,2,1,55,0,0
57109,-200,4,2,1,55,0,0
58609,-100,4,2,1,55,0,0
65827,-100,4,2,1,55,0,1
65921,-100,4,2,1,55,0,0
81014,-100,4,2,1,55,0,1
81107,-100,4,2,1,55,0,0
90013,-100,4,2,1,55,0,0
92825,-100,4,2,1,55,0,0
98919,-100,4,1,1,55,0,0
100700,-100,4,1,1,55,0,0
103231,-100,4,2,1,55,0,0

[Colours]
Combo1 : 0,255,0
Combo2 : 192,192,192

[HitObjects]
96,96,956,1,0
224,96,1143,1,0
144,160,1331,1,0
56,56,1518,1,0
320,272,2081,1,0
456,56,2456,1,0
456,56,2643,1,0
128,304,3582,5,0
264,280,3769,1,0
176,192,3957,1,0
200,312,4144,1,0
304,232,4332,1,0
400,128,4519,1,0
256,328,5082,1,0
64,64,5644,1,0
64,64,5832,1,0
192,144,6206,5,0
320,144,6487,1,0
256,224,6956,1,0
256,232,7143,1,0
256,240,7237,1,0
256,248,7331,1,0
256,256,7424,1,0
256,264,7518,5,0
224,112,8081,1,0
176,224,8456,1,0
336,224,8643,1,0
72,72,9580,5,0
160,136,9768,1,0
72,192,9955,1,0
160,248,10143,1,0
248,192,10330,1,0
256,88,10518,2,0,B|288:72|288:72|304:104|304:104|360:80,2,127.5
256,88,11830,1,0
80,248,12205,5,0
152,152,12393,1,0
216,248,12580,1,0
336,128,12955,1,0
440,192,13143,1,0
512,96,13330,1,0
408,32,13518,1,0
224,256,14080,1,0
104,32,14455,1,0
104,32,14643,1,0
256,192,15580,5,0
160,120,15768,2,0,B|240:72,1,85
160,248,16143,2,0,B|240:296,1,85
264,192,16518,1,0
416,192,17080,1,0
416,64,17268,2,0,B|416:160,1,85
416,320,17642,2,0,B|416:224,1,85
272,120,18205,5,0
272,256,18486,1,0
152,192,18955,1,0
144,192,19142,1,0
136,192,19236,1,0
128,192,19330,1,0
120,192,19424,1,0
112,192,19517,5,0
400,192,20080,1,0
256,152,20455,2,0,B|256:240,1,85
256,192,21580,1,0
160,128,21767,2,0,B|248:72,1,85
352,256,22142,2,0,B|264:312,1,85
160,272,22517,2,0,B|72:272|72:272|40:240,2,127.5
256,208,23267,1,0
272,96,23455,1,0
144,32,23642,1,0
64,184,23830,1,0
256,192,24017,12,0,25517
384,328,27767,6,0,B|424:280|368:240,1,85
304,288,28142,2,0,B|264:240|320:200,1,85
392,152,28517,1,0
256,48,28798,1,0
120,152,29079,1,0
192,304,29361,1,0
360,272,29642,1,0
288,208,29829,1,0
353,89,30017,5,0
183,67,30298,1,0
118,225,30579,1,0
256,320,30861,1,0
386,209,31142,1,0
336,192,31235,1,0
291,189,31329,1,0
288,288,31517,1,0
152,336,31798,1,0
56,248,32079,1,0
112,104,32360,1,0
208,160,32642,5,0
280,72,32829,1,0
208,160,33017,1,0
368,176,33298,1,0
416,320,33579,1,0
256,304,33860,1,0
152,240,34141,1,0
200,208,34235,1,0
256,200,34329,1,0
320,104,34516,5,0
200,32,34798,1,0
80,104,35079,1,0
80,240,35360,1,0
200,312,35641,1,0
296,240,35829,1,0
312,344,36016,1,0
216,224,36298,5,0
312,344,36579,1,0
408,232,36860,1,0
328,144,37141,1,0
328,144,37235,1,0
328,144,37329,1,0
328,32,37516,1,0
192,80,37797,1,0
328,32,38079,1,0
448,112,38360,1,0
320,192,38641,1,0
320,216,38829,1,0
320,240,39016,5,0
408,336,39297,1,0
264,336,39579,1,0
176,224,39860,1,0
240,120,40141,1,4
344,120,40329,1,4
288,24,40516,5,0
136,88,40797,1,0
96,232,41079,1,0
232,320,41360,1,0
352,280,41641,1,0
360,280,41735,1,0
368,280,41828,1,0
448,184,42016,5,0
392,64,42297,1,0
256,32,42578,1,0
128,64,42860,1,0
64,184,43141,1,0
72,184,43235,1,0
80,184,43328,1,0
144,280,43516,5,0
208,128,43797,1,0
272,280,44078,1,0
336,128,44360,1,0
400,280,44641,1,0
400,272,44735,1,0
400,264,44828,1,0
400,144,45016,5,0
272,216,45297,1,0
136,144,45578,1,0
272,48,45859,1,0
272,168,46141,1,0
272,176,46234,1,0
272,184,46328,1,0
272,192,46422,1,0
272,200,46516,1,4
256,56,51015,5,0
176,192,51297,1,0
344,192,51578,1,0
256,152,51859,1,0
160,264,52140,1,0
184,280,52234,1,0
208,288,52328,1,0
232,288,52422,1,0
256,288,52515,1,0
384,144,53640,5,0
360,120,53734,1,0
328,104,53828,1,0
296,96,53921,1,0
264,88,54015,1,0
232,80,54109,1,0
200,80,54203,5,0
168,88,54296,1,0
136,104,54390,1,0
112,128,54484,1,0
96,160,54578,1,0
88,192,54671,1,0
96,224,54765,1,0
112,256,54859,1,0
136,280,54953,1,0
168,288,55046,1,0
200,288,55140,1,0
232,192,55328,5,0
240,192,55421,1,0
248,192,55515,1,0
376,192,55703,5,0
408,192,55796,1,0
440,208,55890,1,0
456,232,55984,1,0
464,264,56078,1,0
464,296,56171,1,0
448,328,56265,1,0
416,344,56359,1,0
384,352,56453,1,0
352,352,56546,1,0
320,352,56640,1,0
256,248,56828,5,0
248,248,56921,1,0
240,248,57015,1,0
144,184,57203,2,0,B|144:80,1,85
224,32,57765,2,0,B|304:32,2,63.75
224,32,58515,1,0
96,72,59077,5,0
112,104,59171,1,0
136,128,59265,1,0
168,144,59359,1,0
200,152,59452,1,0
232,152,59546,1,0
264,152,59640,1,0
296,152,59734,1,0
328,136,59827,1,0
352,112,59921,1,0
368,80,60015,5,0
232,40,60296,1,0
192,184,60577,1,0
288,232,60765,1,0
280,344,61046,1,0
320,200,61327,1,0
224,152,61515,1,0
200,128,61608,5,0
168,112,61702,1,0
136,104,61796,1,0
104,104,61890,1,0
72,112,61983,1,0
48,136,62077,1,0
32,168,62171,1,0
24,200,62265,1,0
104,296,62452,5,0
240,296,62733,1,0
376,296,63015,1,0
408,288,63108,1,0
440,272,63202,1,0
464,248,63296,1,0
480,216,63390,1,0
488,184,63483,1,0
488,152,63577,1,0
480,120,63671,1,0
464,88,63765,1,0
448,120,63858,1,0
448,152,63952,1,0
440,184,64046,1,0
424,216,64140,5,0
400,232,64233,2,0,B|360:248,3,42.5
256,192,64608,12,0,65827
128,72,66014,5,0
96,88,66108,1,0
72,112,66202,1,0
56,144,66296,1,0
48,176,66389,1,0
48,208,66483,1,0
56,240,66577,1,0
80,264,66671,1,0
112,280,66764,1,0
144,288,66858,2,0,B|192:296,5,42.5
224,296,67421,5,0
256,288,67514,1,0
288,272,67608,1,0
312,248,67702,1,0
328,216,67796,1,0
336,184,67889,1,0
328,152,67983,1,0
312,120,68077,1,0
288,96,68171,1,0
256,80,68264,1,0
224,80,68358,2,0,B|176:80,5,42.5
128,176,69014,5,0
128,208,69108,1,0
136,240,69202,1,0
160,264,69296,1,0
192,280,69389,1,0
224,288,69483,1,0
256,288,69577,1,0
288,288,69670,1,0
432,288,69952,1,0
432,128,70233,1,0
304,40,70514,5,0
272,40,70608,1,0
240,40,70702,1,0
208,40,70795,1,0
176,40,70889,1,0
144,40,70983,1,0
112,48,71077,1,0
88,72,71170,1,0
72,104,71264,1,0
64,136,71358,1,0
64,168,71452,5,0
136,304,71733,1,0
160,328,71827,1,0
192,336,71920,1,0
224,344,72014,1,0
256,344,72108,1,0
288,344,72202,1,0
320,344,72295,1,0
352,344,72389,2,0,B|392:328,3,42.5
384,296,72764,6,0,B|336:272,3,42.5
344,240,73139,2,0,B|384:224,3,42.5
384,192,73514,2,0,B|336:168,3,42.5
344,136,73889,2,0,B|384:120,3,42.5
384,88,74264,2,0,B|336:64,3,42.5
312,72,74639,6,0,B|272:56,1,42.5
272,56,74826,2,0,B|240:88,1,42.5
242,85,75014,2,0,B|184:72,1,42.5
200,76,75201,2,0,B|160:96,1,42.5
162,94,75389,2,0,B|120:72,1,42.5
125,74,75576,2,0,B|88:104|80:96,1,42.5
89,97,75764,2,0,B|112:144,1,42.5
107,135,75951,2,0,B|80:184,1,42.5
86,172,76139,2,0,B|112:216,1,42.5
107,209,76326,2,0,B|88:264,1,42.5
88,280,76514,5,0
96,312,76608,1,0
120,336,76701,1,0
152,344,76795,1,0
184,344,76889,1,0
216,344,76983,1,0
248,328,77076,1,0
264,296,77170,1,0
264,264,77264,1,0
264,232,77358,2,0,B|264:184,7,42.5
128,152,78295,5,0
224,64,78576,1,0
224,64,78764,1,0
344,128,79045,1,0
448,208,79326,2,0,B|328:336,1,170
216,336,79889,1,0
104,280,80076,1,0
96,168,80264,1,0
224,72,80545,1,0
400,128,80826,1,0
400,240,81014,5,0
400,272,81107,1,0
384,304,81201,1,0
352,320,81295,1,0
320,312,81389,1,0
296,288,81482,1,0
288,256,81576,1,0
288,224,81670,1,0
288,192,81763,1,0
264,168,81857,1,0
232,160,81951,1,0
200,168,82045,1,0
176,192,82138,1,0
176,224,82232,1,0
176,256,82326,1,0
176,288,82420,1,0
176,328,82513,6,0,B|128:328,3,42.5
104,312,82888,2,0,B|72:264,1,42.5
80,276,83076,2,0,B|104:224,1,42.5
97,237,83263,2,0,B|64:184,1,42.5
75,201,83451,2,0,B|104:160,1,42.5
99,166,83638,2,0,B|64:128,1,42.5
70,135,83826,2,0,B|112:104,1,42.5
216,72,84107,5,0
248,72,84201,1,0
280,72,84295,1,0
280,112,84388,1,0
280,160,84482,1,0
248,160,84576,1,0
216,160,84670,1,0
216,200,84763,1,0
216,240,84857,1,0
248,240,84951,1,0
280,240,85045,1,0
320,240,85138,6,0,B|368:240,3,42.5
384,264,85513,2,0,B|400:304,3,42.5
384,336,85888,2,0,B|336:360,3,42.5
312,352,86263,2,0,B|264:352,3,42.5
232,352,86638,2,0,B|176:352,3,42.5
80,280,87107,5,0
56,256,87201,1,0
48,224,87294,1,0
48,192,87388,1,0
48,160,87482,1,0
56,128,87576,1,0
72,96,87669,1,0
96,72,87763,1,0
128,56,87857,1,0
160,48,87951,1,0
192,48,88044,1,0
224,64,88138,1,0
248,88,88232,1,0
264,120,88326,1,0
280,240,88513,5,0
288,272,88607,1,0
312,296,88701,1,0
344,304,88794,1,0
376,304,88888,1,0
408,296,88982,1,0
432,272,89076,1,0
448,240,89169,1,0
448,208,89263,1,0
440,176,89357,1,0
424,144,89451,1,0
416,112,89544,2,0,B|400:72,5,42.5
272,64,90294,5,0
176,152,90575,2,0,B|144:192|160:232,1,85
216,336,91044,1,0
360,312,91325,1,0
416,184,91607,1,0
408,80,91794,1,0
416,184,91982,1,0
280,168,92263,1,0
208,48,92544,2,0,B|104:144,1,127.5
80,208,93013,5,0
80,216,93107,1,0
80,224,93200,1,0
80,232,93294,2,0,B|80:280,3,42.5
96,304,93669,2,0,B|120:344,3,42.5
152,352,94044,2,0,B|200:360,3,42.5
328,352,94513,1,0
360,344,94606,1,0
392,328,94700,1,0
416,304,94794,1,0
432,272,94888,1,0
440,240,94981,1,0
440,208,95075,5,0
440,176,95169,1,0
432,144,95263,1,0
416,120,95356,1,0
392,96,95450,1,0
368,72,95544,1,0
336,56,95638,1,0
304,56,95731,2,0,B|248:56,3,42.5
136,88,96200,5,0
112,112,96294,1,0
96,144,96388,1,0
88,176,96481,1,0
88,208,96575,1,0
96,240,96669,1,0
112,272,96763,1,0
136,296,96856,1,0
168,312,96950,1,0
200,320,97044,1,0
232,320,97138,1,0
264,320,97231,6,0,B|320:320,3,42.5
344,320,97606,2,0,B|392:320,3,42.5
416,296,97981,2,0,B|448:256,1,42.5
442,262,98169,2,0,B|408:224,1,42.5
414,231,98356,2,0,B|440:192,1,42.5
437,195,98544,2,0,B|400:152,1,42.5
409,163,98731,2,0,B|352:144,1,42.5
240,136,99012,5,0
168,224,99200,1,0
264,280,99387,1,0
328,192,99575,1,0
328,192,99669,1,0
328,192,99762,1,0
240,136,99950,1,0
168,224,100137,1,0
264,280,100325,1,0
272,280,100419,1,0
280,280,100512,1,0
288,280,100606,1,0
416,280,100794,6,0,B|448:248,1,42.5
448,144,101075,2,0,B|416:112,1,42.5
328,192,101356,1,0
320,192,101450,1,0
312,192,101543,1,0
304,192,101637,1,0
296,192,101731,1,0
288,192,101825,1,0
280,192,101918,1,0
272,192,102012,1,0
256,192,102106,12,0,103137
