osu file format v9

[General]
AudioFilename: Legend of Moonlight.mp3
AudioLeadIn: 2000
PreviewTime: -1
Countdown: 1
SampleSet: Soft
StackLeniency: 0.7
Mode: 2
LetterboxInBreaks: 1

[Editor]
DistanceSpacing: 2
BeatDivisor: 4
GridSize: 8

[Metadata]
Title:Legend of Moonlight
Artist:Memme
Creator:SS_Kanzaki
Version:CLSW's Tragic Moon
Source:EZ2DJ 7.5 Trax
Tags:

[Difficulty]
HPDrainRate:5
CircleSize:4
OverallDifficulty:6
ApproachRate:8
SliderMultiplier:3.59999990463257
SliderTickRate:4

[Events]
//Background and Video events
0,0,"Legend of Moonlight bg.jpg"
//Break Periods
2,84200,89250
//Storyboard Layer 0 (Background)
//Storyboard Layer 1 (Fail)
//Storyboard Layer 2 (Pass)
//Storyboard Layer 3 (Foreground)
//Storyboard Sound Samples
//Background Colour Transformations
3,100,163,162,255

[TimingPoints]
0,375,4,2,0,60,1,0
12000,-100,4,1,0,50,0,0
12093,-100,4,2,0,60,0,0
12562,-100,4,1,0,50,0,0
12656,-100,4,2,0,60,0,0
13125,-100,4,1,0,50,0,0
13218,-100,4,2,0,60,0,0
13500,-100,4,1,0,50,0,0
13593,-100,4,2,0,60,0,0
15562,-100,4,1,0,50,0,0
15656,-100,4,2,0,60,0,0
16500,-100,4,1,0,50,0,0
16593,-100,4,2,0,60,0,0
17062,-100,4,1,0,50,0,0
17156,-100,4,2,0,60,0,0
18000,-100,4,1,0,50,0,0
18281,-100,4,2,0,60,0,0
18562,-100,4,1,0,50,0,0
18656,-100,4,2,0,60,0,0
20062,-100,4,1,0,50,0,0
20156,-100,4,2,0,60,0,0
21093,-100,4,2,0,60,0,0
22312,-100,4,1,0,50,0,0
22406,-100,4,2,0,60,0,0
24000,-100,4,1,0,50,0,0
24281,-100,4,2,0,60,0,0
24562,-100,4,1,0,50,0,0
24656,-100,4,2,0,60,0,0
25125,-100,4,1,0,50,0,0
25218,-100,4,2,0,60,0,0
25312,-100,4,1,0,50,0,0
25406,-100,4,2,0,60,0,0
25500,-100,4,2,0,80,0,0
27093,-100,4,2,0,60,0,0
27750,-100,4,1,0,50,0,0
28406,-100,4,1,0,65,0,0
34500,-100,4,2,0,80,0,0
34593,-100,4,1,0,65,0,0
40500,-100,4,2,0,80,0,0
40593,-100,4,1,0,65,0,0
46500,-100,4,2,0,80,0,0
46593,-100,4,1,0,65,0,0
49500,-100,4,2,0,80,0,0
49593,-100,4,1,0,65,0,0
51000,-100,4,2,0,80,0,0
51093,-100,4,1,0,65,0,0
52875,-100,4,2,0,60,0,0
52921,-100,4,1,0,65,0,0
53062,-100,4,2,0,60,0,0
53109,-100,4,1,0,65,0,0
53250,-100,4,1,0,55,0,0
53578,-100,4,2,0,70,0,0
54000,-100,4,2,0,100,0,0
54093,-100,4,2,0,70,0,0
60000,-100,4,2,0,100,0,0
60093,-100,4,2,0,70,0,0
66000,-100,4,2,0,100,0,0
66093,-100,4,2,0,70,0,0
72000,-100,4,2,0,100,0,0
72093,-100,4,2,0,70,0,0
78000,-100,4,2,0,100,0,0
78093,-100,4,2,0,70,0,0
84000,-100,4,2,0,100,0,0
84093,-100,4,2,0,70,0,0
90000,-100,4,2,0,100,0,0
90093,-100,4,2,0,70,0,0
92718,-100,4,2,0,70,0,0
96000,-100,4,2,0,100,0,0
96093,-100,4,2,0,70,0,0
102000,-100,4,2,0,80,0,0
104062,-100,4,2,0,60,0,0
114000,-50,4,2,0,100,0,0
115500,-50,4,2,0,5,0,0
115546,-50,4,2,0,100,0,0
117000,-50,4,2,0,5,0,0

[HitObjects]
200,192,937,1,0
256,192,1125,1,0
312,192,1312,1,0
424,192,1500,5,4
88,192,2062,1,0
384,352,2625,1,2
32,192,3562,5,0
144,192,3750,1,0
224,112,3937,1,0
304,192,4125,1,0
224,264,4312,1,0
472,192,4500,2,0,B|320:88,2,179.999995231629,2|0|0
184,192,5062,2,0,B|344:80,2,179.999995231629
16,32,5625,1,0
272,32,5812,1,2
272,288,6000,6,0,B|88:288,2,179.999995231629,2|0|0
480,144,6562,1,0
32,88,6937,1,2
480,352,7312,1,0
256,168,7500,6,0,B|56:168,2,179.999995231629,2|0|0
256,168,8062,2,0,B|464:168,2,179.999995231629,2|0|0
8,24,8625,1,2
480,192,9562,5,0
192,192,9750,2,0,B|64:64,1,179.999995231629
328,192,10125,2,0,B|464:56,1,179.999995231629,2|0
168,64,10500,1,2
64,328,10687,1,0
352,328,10875,1,0
464,64,11062,1,2
208,192,11250,2,0,B|24:192,1,179.999995231629
312,232,11625,2,0,B|504:232,1,179.999995231629
312,128,12000,6,0,B|400:88,2,89.9999976158143
128,352,12375,2,0,B|32:312,2,89.9999976158143
392,224,12750,2,0,B|264:192,2,89.9999976158143
120,120,13125,2,0,B|224:80,2,89.9999976158143,0|0|2
408,120,13500,5,0
128,40,13687,1,0
48,320,13875,1,8
336,328,14062,1,0
400,48,14250,1,0
112,48,14437,1,0
360,200,14625,1,8
480,192,15562,5,0
192,192,15750,2,0,B|384:192,1,179.999995231629,2|0
96,96,16125,2,0,B|320:96,1,179.999995231629,2|0
280,320,16500,1,0
32,192,17062,5,0
320,192,17250,2,0,B|128:192,1,179.999995231629,2|0
416,96,17625,2,0,B|192:96,1,179.999995231629,2|0
232,320,18000,1,0
128,56,18187,6,0,B|328:120,1,179.999995231629,0|2
32,216,18562,1,0
320,216,18750,2,0,B|120:216,1,179.999995231629
392,72,19125,2,0,B|392:288,1,179.999995231629,2|0
120,160,19500,5,2
408,160,19687,2,0,B|224:160,1,179.999995231629,0|8
32,160,20062,1,0
320,160,20250,2,0,B|120:160,1,179.999995231629
432,160,20625,1,8
480,32,21562,1,0
192,32,21750,6,0,B|368:160,1,179.999995231629,2|0
416,32,22125,2,0,B|200:32,1,179.999995231629,2|0
56,256,22500,1,2
344,256,22687,1,0
56,256,22875,1,2
56,256,23062,1,0
336,192,23250,6,0,B|384:112,2,89.9999976158143,2|0|0
96,32,23625,2,0,B|16:72,2,89.9999976158143,2|0|0
384,32,24000,5,0
384,32,24187,1,0
96,32,24375,2,0,B|288:72,1,179.999995231629,2|0
424,312,24750,2,0,B|328:304,1,89.9999976158143
416,184,24937,2,0,B|304:176,1,89.9999976158143
192,112,25125,2,0,B|176:232,1,89.9999976158143
312,144,25312,2,0,B|408:96,1,89.9999976158143
256,192,25500,12,2,26625
256,192,27000,5,4
256,192,27375,1,8
480,32,27750,1,0
304,32,27843,1,0
120,32,27937,1,0
304,32,28031,1,0
480,72,28125,1,0
304,72,28218,1,0
120,72,28312,1,0
304,72,28406,1,0
480,112,28500,6,0,B|384:136,3,89.9999976158143,4|0|0|0
464,304,28875,2,0,B|352:328,3,89.9999976158143,8|0|0|0
208,248,29250,2,0,B|312:224,3,89.9999976158143
184,72,29625,2,0,B|272:48,3,89.9999976158143,8|0|0|0
168,192,30000,6,0,B|72:128,1,89.9999976158143
264,192,30187,2,0,B|344:136,1,89.9999976158143
168,192,30375,2,0,B|72:128,1,89.9999976158143,8|0
264,192,30562,2,0,B|344:136,1,89.9999976158143
256,304,30750,2,0,B|160:240,1,89.9999976158143
352,304,30937,2,0,B|432:248,1,89.9999976158143
256,304,31125,2,0,B|160:240,1,89.9999976158143,8|0
352,304,31312,2,0,B|432:248,1,89.9999976158143
424,72,31500,6,0,B|336:72,3,89.9999976158143
152,72,31875,2,0,B|240:72,3,89.9999976158143,8|0|0|0
368,200,32250,2,0,B|248:200,3,89.9999976158143
96,208,32625,2,0,B|208:208,3,89.9999976158143,8|0|0|0
352,144,33000,6,0,B|352:56,1,89.9999976158143
352,144,33187,2,0,B|424:72,1,89.9999976158143
352,144,33375,2,0,B|440:144,1,89.9999976158143,8|0
352,144,33562,2,0,B|416:208,1,89.9999976158143
352,144,33750,2,0,B|352:232,1,89.9999976158143
352,144,33937,2,0,B|280:216,1,89.9999976158143
352,144,34125,2,0,B|240:144,1,89.9999976158143,8|0
352,144,34312,2,0,B|272:64,1,89.9999976158143
160,144,34500,6,0,B|160:56,1,89.9999976158143,4|0
160,144,34687,2,0,B|88:72,1,89.9999976158143
160,144,34875,2,0,B|72:144,1,89.9999976158143,8|0
160,144,35062,2,0,B|96:208,1,89.9999976158143
160,144,35250,2,0,B|160:232,1,89.9999976158143
160,144,35437,2,0,B|232:216,1,89.9999976158143
160,144,35625,2,0,B|272:144,1,89.9999976158143,8|0
160,144,35812,2,0,B|240:64,1,89.9999976158143
392,152,36000,5,0
392,104,36093,1,0
408,72,36187,1,0
432,48,36281,1,0
280,136,36375,1,8
280,88,36468,1,0
296,56,36562,1,0
320,32,36656,1,0
168,136,36750,5,0
168,88,36843,1,0
184,56,36937,1,0
208,32,37031,1,0
64,136,37125,1,8
64,88,37218,1,0
80,56,37312,1,0
104,32,37406,1,0
256,136,37500,6,0,B|376:208,1,89.9999976158143
168,248,37687,2,0,B|88:296,1,89.9999976158143
264,248,37875,2,0,B|384:248,3,89.9999976158143,8|0|0|0
440,88,38250,1,0
392,264,38343,1,0
352,88,38437,1,0
304,264,38531,1,0
120,264,38625,1,8
216,112,38718,1,0
400,112,38812,1,0
304,264,38906,1,0
136,192,39000,6,0,B|248:208,3,89.9999976158143
64,128,39375,2,0,B|168:112,3,89.9999976158143,8|0|0|0
328,152,39750,2,0,B|368:248,1,89.9999976158143
208,320,39937,2,0,B|72:304,1,89.9999976158143
304,320,40125,2,0,B|432:328,1,89.9999976158143,8|0
216,320,40312,2,0,B|208:176,1,89.9999976158143
96,88,40500,6,0,B|208:40,3,89.9999976158143,4|0|0|0
360,48,40875,1,8
400,224,40968,1,0
328,56,41062,1,0
368,232,41156,1,0
192,192,41250,1,0
192,192,41343,1,0
376,192,41437,1,0
376,192,41531,1,0
464,32,41625,2,0,B|336:72,3,89.9999976158143,8|0|0|0
200,56,42000,5,0
200,56,42093,1,0
200,56,42187,1,0
200,56,42281,1,0
384,64,42375,2,0,B|480:144,1,89.9999976158143,8|0
384,288,42562,2,0,B|304:352,1,89.9999976158143
152,256,42750,2,0,B|240:256,1,89.9999976158143
336,104,42937,2,0,B|456:104,1,89.9999976158143
424,288,43125,2,0,B|288:288,1,89.9999976158143,8|0
240,136,43312,2,0,B|112:136,1,89.9999976158143
328,192,43500,5,0
152,192,43593,1,0
328,192,43687,1,0
328,64,43875,1,8
504,64,43968,1,0
328,64,44062,1,0
32,64,44250,2,0,B|112:104,1,89.9999976158143
216,256,44437,2,0,B|320:216,1,89.9999976158143
472,168,44625,2,0,B|352:168,3,89.9999976158143,8|0|0|0
352,344,45000,6,0,B|208:304,3,89.9999976158143
352,160,45375,2,0,B|464:112,3,89.9999976158143,8|0|0|0
256,160,45750,1,0
256,336,45843,1,0
88,264,45937,1,0
88,80,46031,1,0
88,264,46125,1,8
264,264,46218,1,0
88,264,46312,1,0
88,264,46406,1,0
16,208,46500,6,0,B|80:200,7,44.9999988079071,4|0|0|0|0|0|0|0
48,112,46875,2,0,B|112:112,7,44.9999988079071,8|0|0|0|0|0|0|0
184,104,47250,1,0
360,104,47343,1,0
360,104,47437,1,0
360,104,47531,1,0
184,104,47625,1,8
496,208,48000,6,0,B|432:200,7,44.9999988079071,4|0|0|0|0|0|0|0
464,112,48375,2,0,B|400:112,7,44.9999988079071,8|0|0|0|0|0|0|0
424,248,48750,1,0
296,120,48843,1,0
360,288,48937,1,0
232,160,49031,1,0
224,72,49125,2,0,B|144:144,3,89.9999976158143,8|0|0|0
328,192,49500,6,0,B|376:192,1,44.9999988079071,4|0
288,152,49593,2,0,B|328:112,1,44.9999988079071
256,56,49687,2,0,B|256:0,1,44.9999988079071
224,152,49781,2,0,B|184:112,1,44.9999988079071
184,192,49875,2,0,B|136:192,1,44.9999988079071,8|0
224,232,49968,2,0,B|184:272,1,44.9999988079071
256,328,50062,2,0,B|256:384,1,44.9999988079071
288,232,50156,2,0,B|328:272,1,44.9999988079071
328,192,50250,2,0,B|376:192,1,44.9999988079071
288,152,50343,2,0,B|328:112,1,44.9999988079071
256,56,50437,2,0,B|256:0,1,44.9999988079071
224,152,50531,2,0,B|184:112,1,44.9999988079071
184,192,50625,2,0,B|136:192,1,44.9999988079071,8|0
224,232,50718,2,0,B|184:272,1,44.9999988079071
256,328,50812,2,0,B|256:384,1,44.9999988079071
288,232,50906,2,0,B|328:272,1,44.9999988079071
184,192,51000,6,0,B|136:192,1,44.9999988079071,4|0
224,152,51093,2,0,B|184:112,1,44.9999988079071
256,56,51187,2,0,B|256:0,1,44.9999988079071
288,152,51281,2,0,B|328:112,1,44.9999988079071
328,192,51375,2,0,B|376:192,1,44.9999988079071,0|0
288,232,51468,2,0,B|328:272,1,44.9999988079071
256,328,51562,2,0,B|256:384,1,44.9999988079071
224,232,51656,2,0,B|184:272,1,44.9999988079071
184,192,51750,2,0,B|136:192,1,44.9999988079071
224,152,51843,2,0,B|184:112,1,44.9999988079071
256,56,51937,2,0,B|256:0,1,44.9999988079071
288,152,52031,2,0,B|328:112,1,44.9999988079071
328,192,52125,2,0,B|376:192,1,44.9999988079071,8|0
288,232,52218,2,0,B|328:272,1,44.9999988079071
256,328,52312,2,0,B|256:384,1,44.9999988079071
224,232,52406,2,0,B|184:272,1,44.9999988079071
256,192,52500,6,0,B|256:128,31,44.9999988079071,0|0|0|0|0|0|0|0|8|0|0|0|8|0|0|0|0|0|0|0|0|0|0|0|2|0|2|0|2|0|2|0
208,304,54000,5,6
464,40,55312,6,0,B|384:96,2,89.9999976158143,2|2|2
24,32,56812,6,2,B|88:96,2,89.9999976158143,2|0|0
384,32,57187,2,0,B|320:96,2,89.9999976158143,2|0|8
128,280,57562,2,0,B|128:168,2,89.9999976158143,2|0|0
432,88,57937,2,0,B|432:176,2,89.9999976158143,2|0|8
112,256,58312,1,0
192,296,58500,6,0,B|120:224,3,89.9999976158143,2|0|0|0
256,104,58875,2,0,B|360:208,3,89.9999976158143,8|0|2|2
448,296,59250,2,0,B|376:232,1,89.9999976158143,2|0
472,248,59437,2,0,B|472:136,1,89.9999976158143
288,160,59625,2,0,B|352:96,3,89.9999976158143,8|0|2|2
184,160,60000,5,4
352,160,60187,1,2
184,160,60375,1,8
352,160,60562,1,2
112,160,60750,1,0
472,160,60937,1,2
112,160,61125,1,8
472,160,61312,1,2
112,160,61500,6,0,B|168:88,3,89.9999976158143,0|0|2|0
168,272,61875,2,0,B|208:352,3,89.9999976158143,8|0|2|0
208,176,62250,2,0,B|256:88,3,89.9999976158143,0|0|2|0
256,280,62625,2,0,B|312:176,3,89.9999976158143,8|0|0|0
144,104,63000,5,0
200,272,63093,1,0
256,96,63187,1,2
320,264,63281,1,0
360,88,63375,1,8
416,256,63468,1,0
392,80,63562,1,2
400,264,63656,1,0
344,96,63750,1,0
304,272,63843,1,0
264,96,63937,1,2
216,272,64031,1,0
168,96,64125,2,0,B|80:136,3,89.9999976158143,8|0|2|0
200,272,64500,6,0,B|368:184,1,179.999995231629,0|2
192,328,64875,2,0,B|392:328,1,179.999995231629,8|2
64,136,65250,2,0,B|224:240,1,179.999995231629,0|2
40,256,65625,2,0,B|256:256,1,179.999995231629,8|2
472,144,66000,6,0,B|448:40,3,89.9999976158143,4|0|0|2
472,232,66375,2,0,B|496:328,3,89.9999976158143,8|0|2|0
328,240,66750,2,0,B|296:136,3,89.9999976158143,2|0|0|2
328,336,67125,2,0,B|360:200,3,89.9999976158143,8|0|2|0
176,192,67500,6,0,B|48:192,2,89.9999976158143,2|0|2
472,192,67875,1,10
472,192,68062,1,2
384,64,68250,1,2
336,240,68343,2,0,B|216:272,1,89.9999976158143,0|2
208,64,68531,1,0
168,240,68625,2,0,B|64:272,1,89.9999976158143,10|2
40,88,68812,1,2
40,88,68906,1,2
104,256,69000,6,0,B|24:216,1,89.9999976158143,6|0
128,216,69187,2,0,B|64:144,1,89.9999976158143,0|2
168,200,69375,2,0,B|136:112,1,89.9999976158143,8|0
208,192,69562,2,0,B|208:104,1,89.9999976158143,2|0
256,176,69750,2,0,B|272:88,1,89.9999976158143,2|0
304,184,69937,2,0,B|344:104,1,89.9999976158143,0|2
344,200,70125,2,0,B|416:136,1,89.9999976158143,8|0
392,192,70312,2,0,B|480:160,1,89.9999976158143,2|0
336,280,70500,6,0,B|224:280,1,89.9999976158143,2|0
176,224,70687,2,0,B|96:144,1,89.9999976158143
176,328,70875,2,0,B|320:328,1,89.9999976158143,8|2
336,160,71062,2,0,B|256:80,1,89.9999976158143,2|0
176,256,71250,1,2
208,80,71343,1,0
120,240,71437,1,0
144,64,71531,1,0
232,224,71625,2,0,B|328:176,3,89.9999976158143,8|2|2|0
408,256,72000,6,0,B|488:216,1,89.9999976158143,4|0
384,216,72187,2,0,B|448:144,1,89.9999976158143,2|0
344,200,72375,2,0,B|376:112,1,89.9999976158143,8|0
304,192,72562,2,0,B|304:104,1,89.9999976158143,2|0
256,176,72750,2,0,B|240:88,1,89.9999976158143
208,184,72937,2,0,B|168:104,1,89.9999976158143,2|0
168,200,73125,2,0,B|96:136,1,89.9999976158143,8|0
120,192,73312,2,0,B|32:160,1,89.9999976158143,2|0
56,344,73500,6,0,B|128:264|144:264,3,89.9999976158143,0|0|2|0
184,112,73875,2,0,B|280:16,3,89.9999976158143,8|0|2|0
312,216,74250,2,0,B|408:304,3,89.9999976158143,0|0|2|0
400,96,74625,2,0,B|496:152,3,89.9999976158143,8|0|2|0
312,80,75000,6,0,B|272:184,1,89.9999976158143
232,336,75187,2,0,B|176:240,1,89.9999976158143,2|0
128,88,75375,2,0,B|64:152,1,89.9999976158143,8|0
24,328,75562,2,0,B|136:296,1,89.9999976158143,2|0
248,184,75750,2,0,B|344:152,3,89.9999976158143,0|0|2|0
336,336,76125,2,0,B|448:304,3,89.9999976158143,8|0|2|0
448,136,76500,5,0
400,304,76593,1,0
344,136,76687,1,2
288,304,76781,1,0
232,136,76875,1,8
176,304,76968,1,0
120,136,77062,1,2
64,312,77156,1,0
120,136,77250,2,0,B|208:80,3,89.9999976158143,0|0|2|0
312,224,77625,2,0,B|432:136,3,89.9999976158143,8|0|2|0
248,48,78000,6,0,B|144:32,1,89.9999976158143,6|0
304,136,78187,2,0,B|400:112,2,89.9999976158143,0|2|8
256,312,78468,2,0,B|144:256,1,89.9999976158143,0|2
304,144,78656,2,0,B|400:176,2,89.9999976158143,0|2|0
256,320,78937,2,0,B|128:264,1,89.9999976158143,0|2
264,120,79125,1,8
216,296,79218,1,0
304,136,79312,1,2
264,312,79406,1,0
120,200,79500,6,0,B|200:144,3,89.9999976158143,2|0|2|0
368,192,79875,2,0,B|272:128,3,89.9999976158143,10|0|2|0
128,72,80250,2,0,B|8:32,3,89.9999976158143,2|0|2|0
360,72,80625,2,0,B|464:32,3,89.9999976158143,10|2|2|2
280,112,81000,5,6
280,112,81093,1,0
304,288,81187,1,0
248,120,81281,1,2
168,280,81375,1,8
192,104,81468,1,0
160,48,81562,1,2
136,224,81656,1,0
312,208,81750,1,2
288,32,81843,2,0,B|336:128,1,89.9999976158143
264,288,82031,1,2
432,216,82125,2,0,B|408:112,1,89.9999976158143,8|0
440,304,82312,2,0,B|472:192,1,89.9999976158143,2|0
384,56,82500,6,0,B|312:112,8,89.9999976158143,2|0|0|0|8|2|2|0|2
216,112,83343,1,0
216,112,83437,1,0
32,112,83531,1,0
32,112,83625,1,8
216,112,83718,1,2
216,112,83812,1,0
32,112,83906,1,0
32,112,84000,1,4
400,48,90000,6,0,B|304:80,3,89.9999976158143,6|0|0|2
312,256,90375,2,0,B|400:224,3,89.9999976158143,8|0|2|0
232,152,90750,2,0,B|40:152,1,179.999995231629,2|0
416,152,91125,2,0,B|184:152,1,179.999995231629,10|0
256,240,91500,2,2,B|16:240,2,179.999995231629,2|2|10
256,240,91968,1,0
256,240,92062,1,2
256,240,92156,1,0
256,240,92250,2,2,B|448:240,2,179.999995231629,2|2|10
440,56,93000,5,6
392,232,93093,1,0
352,56,93187,1,0
304,232,93281,1,2
264,56,93375,2,0,B|192:120,3,89.9999976158143,8|0|2|0
32,192,93750,1,2
88,360,93843,1,0
144,192,93937,1,0
200,360,94031,1,2
256,192,94125,2,0,B|328:128,3,89.9999976158143,8|0|2|0
152,72,94500,5,2
192,248,94593,1,0
208,72,94687,1,0
160,248,94781,1,0
240,88,94875,1,8
272,264,94968,1,2
304,88,95062,1,2
312,272,95156,1,0
424,128,95250,2,0,B|336:128,3,89.9999976158143,2|0|0|0
152,136,95625,2,0,B|152:32,3,89.9999976158143,8|2|0|0
256,192,96000,6,0,B|256:88,3,89.9999976158143,4|0|2|0
384,232,96375,2,0,B|384:112,3,89.9999976158143,8|0|2|0
296,296,96750,1,0
280,312,96843,1,0
304,328,96937,1,2
296,296,97031,1,0
136,208,97125,1,8
152,32,97218,1,0
176,208,97312,1,2
120,32,97406,1,0
304,40,97500,6,0,B|408:40,1,89.9999976158143
400,224,97687,2,0,B|304:224,1,89.9999976158143,2|0
304,40,97875,2,0,B|408:40,1,89.9999976158143,8|0
400,224,98062,2,0,B|304:224,1,89.9999976158143,2|0
368,56,98250,2,0,B|472:56,1,89.9999976158143
464,240,98437,2,0,B|368:240,1,89.9999976158143,2|0
368,56,98625,2,0,B|472:56,1,89.9999976158143,8|0
464,240,98812,2,0,B|368:240,1,89.9999976158143,2|0
224,160,99000,6,0,B|224:104,1,44.9999988079071,2|0
280,160,99093,2,0,B|328:160,1,44.9999988079071
280,224,99187,2,0,B|280:280,1,44.9999988079071,2|0
224,224,99281,2,0,B|152:224,1,44.9999988079071
248,160,99375,2,0,B|248:96,1,44.9999988079071,10|0
280,200,99468,2,0,B|336:200,1,44.9999988079071
240,224,99562,2,0,B|240:296,1,44.9999988079071,2|0
224,176,99656,2,0,B|152:176,1,44.9999988079071
224,160,99750,2,0,B|224:104,1,44.9999988079071,2|0
280,160,99843,2,0,B|328:160,1,44.9999988079071
280,224,99937,2,0,B|280:280,1,44.9999988079071,2|0
224,224,100031,2,0,B|152:224,1,44.9999988079071
248,160,100125,2,0,B|248:96,1,44.9999988079071,10|0
280,200,100218,2,0,B|336:200,1,44.9999988079071,0|0
240,224,100312,2,0,B|240:296,1,44.9999988079071,2|0
224,176,100406,2,0,B|152:176,1,44.9999988079071
288,160,100500,6,0,B|288:104,1,44.9999988079071,2|0
232,160,100593,2,0,B|184:160,1,44.9999988079071,0|0
232,224,100687,2,0,B|232:280,1,44.9999988079071,2|0
288,224,100781,2,0,B|360:224,1,44.9999988079071
264,160,100875,2,0,B|264:96,1,44.9999988079071,10|0
232,200,100968,2,0,B|176:200,1,44.9999988079071
272,224,101062,2,0,B|272:296,1,44.9999988079071,2|0
288,176,101156,2,0,B|360:176,1,44.9999988079071
288,160,101250,2,0,B|288:104,1,44.9999988079071,2|0
232,160,101343,2,0,B|184:160,1,44.9999988079071
232,224,101437,2,0,B|232:280,1,44.9999988079071,2|0
288,224,101531,2,0,B|360:224,1,44.9999988079071
264,160,101625,2,0,B|264:96,1,44.9999988079071,10|0
232,200,101718,2,0,B|176:200,1,44.9999988079071
272,224,101812,2,0,B|272:296,1,44.9999988079071,2|0
288,176,101906,2,0,B|360:176,1,44.9999988079071
288,128,102000,5,6
128,128,102187,1,0
288,128,102375,1,0
416,120,102562,2,0,B|416:304,2,179.999995231629,2|0|0
56,128,103125,1,2
480,120,104062,1,0
120,72,104250,6,0,B|328:72,1,179.999995231629,2|0
272,232,104625,2,0,B|472:232,1,179.999995231629
480,40,105000,6,0,B|64:80,1,359.999990463257,2|0
120,208,105562,1,0
288,128,105750,2,0,B|88:128,1,179.999995231629,2|0
288,128,106125,2,0,B|504:128,1,179.999995231629
112,72,106500,6,0,B|488:112,2,359.999990463257,2|0|2
256,192,107625,1,0
168,96,108000,6,0,B|64:152,2,89.9999976158143,2|0|0
256,96,108375,1,0
352,96,108562,2,0,B|464:152,4,89.9999976158143,2|0|0|0|0
40,192,109125,1,2
472,192,110062,1,0
448,112,110250,6,0,B|248:112,1,179.999995231629,2|0
256,248,110625,2,0,B|48:248,1,179.999995231629
440,248,111000,5,4
32,248,111562,1,0
376,144,111750,2,0,B|456:80,2,89.9999976158143,2|0|0
72,344,112125,2,0,B|144:280,2,89.9999976158143
400,192,112500,5,2
136,192,112875,1,0
472,192,113250,1,2
64,192,113625,1,0
40,40,114000,6,0,B|224:80|224:80|32:136|32:136|240:192|240:192|32:256|32:256|256:296|256:296|48:344|48:344|272:344|272:344|352:304|352:304|272:272|272:272|352:240|352:240|272:208|352:176|352:176|272:152|264:152|352:120|352:120|272:88|272:88|352:48|352:48|488:48|488:48|376:104|376:104|464:104|464:104|464:208|464:208|384:208|384:208|384:312|384:312|464:312,2,2879.99992370606,4|0|0
256,192,117093,12,4,121500
