osu file format v9

[General]
AudioFilename: Legend of Moonlight.mp3
AudioLeadIn: 0
PreviewTime: -1
Countdown: 1
SampleSet: Normal
StackLeniency: 0.7
Mode: 2
LetterboxInBreaks: 1

[Editor]
DistanceSpacing: 0.8
BeatDivisor: 4
GridSize: 4

[Metadata]
Title:Legend of Moonlight
Artist:Memme
Creator:SS_Kanzaki
Version:Fullmoon
Source:
Tags:

[Difficulty]
HPDrainRate:7
CircleSize:5
OverallDifficulty:4
ApproachRate:8
SliderMultiplier:1.4
SliderTickRate:1

[Events]
//Background and Video events
0,0,"Legend of Moonlight bg.jpg"
//Break Periods
//Storyboard Layer 0 (Background)
//Storyboard Layer 1 (Fail)
//Storyboard Layer 2 (Pass)
//Storyboard Layer 3 (Foreground)
//Storyboard Sound Samples
//Background Colour Transformations
3,100,163,162,255

[TimingPoints]
0,375,4,1,0,100,1,0

[HitObjects]
192,168,937,1,0
232,112,1125,1,0
272,48,1312,1,0
384,176,1500,1,2
128,176,2062,1,2
384,144,2625,1,2
320,248,3562,1,0
280,208,3750,1,0
240,168,3937,1,0
200,128,4125,1,0
160,88,4312,1,2
56,192,4500,1,2
352,192,5062,1,2
256,192,5625,1,0
256,128,5812,1,0
160,64,6000,1,2
344,64,6562,1,2
256,0,6937,1,2
32,192,7500,5,2
256,192,8062,1,0
480,192,8625,1,0
392,288,9562,1,0
352,256,9750,1,0
312,216,9937,1,0
272,176,10125,1,0
232,136,10312,1,0
112,136,10500,1,10
488,136,11062,1,10
160,248,12187,1,0
216,192,12375,1,0
272,136,12562,1,0
360,184,12937,1,0
296,136,13125,1,0
232,88,13312,1,0
32,192,13500,5,2
256,192,14062,1,2
472,192,14625,1,2
152,192,15562,1,0
200,144,15750,1,0
248,96,15937,1,0
200,48,16125,1,0
152,0,16312,1,0
24,96,16500,1,8
360,96,17062,5,0
184,96,17250,1,0
360,152,17437,1,0
184,152,17625,1,0
360,208,17812,1,0
272,96,18000,1,2
272,32,18750,1,2
472,192,19500,1,0
256,192,20062,1,0
40,192,20625,1,0
208,72,21562,1,0
304,112,21750,1,0
208,152,21937,1,0
304,192,22125,1,0
208,240,22312,1,0
400,240,22500,1,0
304,240,23062,1,0
208,288,23250,1,0
208,192,23437,1,0
304,136,23625,1,0
208,88,23812,1,0
256,32,24000,1,0
256,192,24750,1,8
256,352,25500,1,12
256,192,25593,12,0,26625
144,192,27000,5,0
360,192,27375,1,0
112,296,27750,1,0
176,240,27937,1,0
240,184,28125,1,0
304,128,28312,1,0
368,64,28500,1,0
440,192,28875,1,0
136,192,29625,1,0
384,192,30375,1,0
248,192,31125,1,0
104,192,31875,1,0
376,192,32625,1,0
208,192,33375,1,0
352,64,34125,1,0
256,192,34500,5,6
144,120,34875,1,0
256,120,35250,1,0
360,120,35625,1,0
256,120,36000,1,0
168,120,36375,1,0
256,120,36750,1,0
336,120,37125,1,0
256,120,37500,1,0
240,120,37875,1,0
256,120,38250,1,0
280,120,38625,1,0
256,120,39000,1,0
88,120,39375,1,0
256,120,39750,1,0
424,120,40125,1,0
256,120,40500,5,2
296,240,40687,1,0
336,240,40875,1,0
216,240,41062,1,0
144,240,41250,1,0
120,240,41437,1,0
184,240,41625,1,0
96,240,42000,1,0
256,144,42375,1,0
336,144,42750,1,0
416,144,43125,1,0
488,144,43500,1,0
416,200,43687,1,0
488,200,43875,1,0
416,256,44062,1,0
488,256,44250,1,0
416,312,44437,1,0
488,312,44625,1,0
32,304,45375,5,0
488,312,46125,1,0
256,192,46500,5,2
304,144,46687,1,0
208,144,46875,1,0
328,88,47062,1,0
184,88,47250,1,0
344,32,47437,1,0
168,32,47625,1,0
464,192,48375,1,0
56,192,49125,1,0
256,192,49500,1,2
160,136,49687,1,0
352,136,49875,1,0
184,80,50062,1,0
328,80,50250,1,0
200,32,50437,1,0
312,32,50625,1,0
256,192,51000,1,2
256,192,51093,12,2,52500
184,192,53625,5,0
208,176,53718,1,0
224,160,53812,1,0
240,144,53906,1,0
256,128,54000,1,0
384,192,55312,1,0
360,176,55406,1,0
336,160,55500,1,0
72,216,56812,1,0
88,200,56906,1,0
104,184,57000,1,0
176,120,57281,1,0
320,120,57562,1,0
432,192,57750,1,0
392,152,58031,1,0
352,112,58312,1,0
312,72,58500,1,8
168,192,59062,1,0
144,168,59156,1,0
120,144,59250,1,0
120,120,59343,1,0
128,96,59437,1,0
136,72,59531,1,0
152,48,59625,1,0
168,32,59718,1,0
184,16,59812,1,0
208,0,59906,1,0
336,192,60000,5,2
224,248,60281,1,0
384,296,60562,1,0
208,344,60750,1,0
272,160,61031,1,0
408,256,61312,1,0
480,224,61500,5,2
448,200,61593,1,0
416,176,61687,1,0
480,176,61781,1,0
448,152,61875,1,0
416,128,61968,1,0
480,136,62062,1,0
448,112,62156,1,0
416,80,62250,1,0
384,232,62343,1,0
352,200,62437,1,0
320,168,62531,1,0
288,200,62625,1,0
256,168,62718,1,0
240,136,62812,1,0
240,96,62906,1,0
248,64,63000,1,0
264,40,63093,1,0
280,16,63187,1,0
320,248,63281,1,0
280,248,63375,1,0
240,248,63468,1,0
280,288,63562,1,0
320,288,63656,1,0
280,328,63750,1,0
240,328,63843,1,0
280,368,63937,1,0
320,368,64031,1,0
280,224,64125,1,0
240,224,64218,1,0
280,192,64312,1,0
320,192,64406,1,0
280,160,64500,1,0
240,160,64593,1,0
280,128,64687,1,0
320,128,64781,1,0
280,96,64875,1,0
240,96,64968,1,0
280,64,65062,1,0
320,64,65156,1,0
280,32,65250,1,0
240,32,65343,1,0
280,256,65437,1,0
320,256,65531,1,0
280,296,65625,1,0
240,296,65718,1,0
280,336,65812,1,0
168,296,66000,1,2
136,272,66093,1,0
104,248,66187,1,0
136,224,66281,1,0
168,200,66375,1,0
200,176,66468,1,0
496,304,66656,5,0
464,272,66750,1,2
432,240,66843,1,0
400,208,66937,1,0
368,176,67031,1,0
336,144,67125,1,0
304,112,67218,1,0
272,80,67312,1,0
240,48,67406,1,0
16,224,67500,5,8
56,184,67687,1,8
96,144,67875,1,8
136,104,68062,1,8
176,64,68250,1,8
392,64,68531,1,8
168,288,68812,5,8
136,264,68906,1,0
48,272,69000,1,0
80,248,69093,1,0
48,232,69187,1,0
80,208,69281,1,0
120,192,69375,1,0
80,168,69468,1,0
120,152,69562,1,0
80,128,69656,1,0
40,104,69750,1,0
80,88,69843,1,0
40,64,69937,1,0
80,40,70031,1,0
120,16,70125,1,0
80,0,70218,1,0
120,112,70312,1,0
144,88,70406,1,0
168,64,70500,1,0
192,40,70593,1,0
216,40,70687,1,0
240,40,70781,1,0
264,40,70875,1,0
288,40,70968,1,0
312,40,71062,1,0
304,72,71156,1,0
272,72,71250,1,0
240,72,71343,1,0
208,72,71437,1,0
232,104,71531,1,0
256,104,71625,1,0
280,104,71718,1,0
480,272,71999,5,8
448,248,72093,1,0
416,224,72186,1,0
24,272,72374,1,8
56,248,72468,1,0
88,224,72561,1,0
480,200,72749,1,8
448,176,72843,1,0
416,152,72936,1,0
24,200,73124,1,8
56,176,73218,1,0
88,152,73311,1,0
256,104,73500,5,0
224,88,73593,1,0
256,64,73687,1,0
288,48,73781,1,0
256,144,73875,1,0
224,168,73968,1,0
256,192,74062,1,0
288,216,74156,1,0
256,240,74250,1,0
224,264,74343,1,0
256,288,74437,1,0
288,312,74531,1,0
320,288,74625,1,0
288,312,74718,1,0
256,288,74812,1,0
24,232,75000,5,0
56,216,75093,1,0
88,200,75187,1,0
56,176,75281,1,0
24,160,75375,1,0
56,136,75468,1,0
88,120,75562,1,0
56,96,75656,1,0
24,80,75750,1,0
56,56,75843,1,0
88,40,75937,1,0
120,264,76031,1,0
152,240,76125,1,0
184,216,76218,1,0
216,192,76312,1,0
496,192,76500,5,2
464,160,76593,1,0
432,128,76687,1,0
464,96,76781,1,0
432,64,76875,1,0
400,32,76968,1,0
400,224,77062,1,0
368,192,77156,1,0
336,160,77250,1,0
368,128,77343,1,0
336,96,77437,1,0
304,64,77531,1,0
336,40,77625,1,0
304,8,77718,1,0
272,40,77812,1,0
0,192,78000,5,2
32,192,78093,1,0
64,192,78187,1,0
96,192,78281,1,0
120,192,78375,1,0
144,192,78468,1,0
168,192,78562,1,0
192,192,78656,1,0
176,160,78750,1,0
152,160,78843,1,0
128,160,78937,1,0
104,160,79031,1,0
80,160,79125,1,0
56,160,79218,1,0
32,160,79312,1,0
8,160,79406,1,0
24,128,79500,1,0
48,128,79593,1,0
72,128,79687,1,0
96,128,79781,1,0
80,96,79875,1,0
56,96,79968,1,0
32,96,80062,1,0
48,72,80156,1,0
72,72,80250,1,0
56,48,80343,1,0
72,24,80437,1,0
48,24,80531,1,0
256,192,80812,5,0
288,176,80906,1,0
256,160,81000,1,0
288,144,81093,1,0
256,128,81187,1,0
288,112,81281,1,0
256,96,81375,1,0
288,80,81468,1,0
256,64,81562,1,0
288,48,81656,1,0
256,32,81750,1,0
288,208,81843,1,0
256,224,81937,1,0
288,240,82031,1,0
256,256,82125,1,0
288,272,82218,1,0
256,288,82312,1,0
288,304,82406,1,0
320,288,82500,1,0
352,264,82593,1,0
384,240,82687,1,0
408,216,82781,1,0
432,192,82875,1,0
408,168,82968,1,0
384,144,83062,1,0
360,120,83156,1,0
336,104,83250,1,0
360,80,83343,1,0
392,64,83437,1,0
424,48,83531,1,0
456,32,83625,1,0
432,24,83718,1,0
400,8,83812,1,0
24,240,84000,5,2
48,224,84093,1,0
72,208,84187,1,0
368,256,84375,1,2
344,240,84468,1,0
320,224,84562,1,0
24,168,84750,1,2
48,152,84843,1,0
72,136,84937,1,0
368,184,85125,1,2
344,168,85218,1,0
320,152,85312,1,0
296,136,85406,1,0
272,112,85500,1,0
256,88,85593,1,0
256,56,85687,1,0
264,32,85781,1,0
280,8,85875,1,0
304,0,85968,1,0
328,0,86062,1,0
352,8,86156,1,0
376,16,86250,1,0
400,32,86343,1,0
424,48,86437,1,0
392,64,86531,1,0
360,56,86625,1,0
320,40,86718,1,0
288,32,86812,1,0
248,16,86906,1,0
256,88,87000,1,2
296,104,87093,1,0
336,120,87187,1,0
304,136,87281,1,0
272,152,87375,1,0
304,176,87468,1,0
328,200,87562,1,0
288,216,87656,1,0
256,240,87750,1,0
288,256,87843,1,0
320,272,87937,1,0
288,288,88031,1,0
256,304,88125,1,0
288,328,88218,1,0
256,344,88312,1,0
224,360,88406,1,0
24,352,88500,5,8
40,320,88593,1,8
56,288,88687,1,8
72,256,88781,1,8
88,224,88875,1,8
104,192,88968,1,8
120,160,89062,1,8
136,128,89156,1,8
152,96,89250,1,8
168,64,89343,1,8
184,32,89437,1,8
200,0,89531,1,8
216,32,89625,1,8
216,32,89718,1,8
216,32,89812,1,8
488,192,90000,5,2
428,192,90093,1,0
488,136,90187,1,0
428,136,90281,1,0
488,80,90375,1,0
428,80,90468,1,0
488,24,90562,1,0
68,192,90750,1,2
8,192,90843,1,0
68,136,90937,1,0
8,136,91031,1,0
68,80,91125,1,0
8,80,91218,1,0
8,24,91312,1,0
160,200,91500,1,8
216,144,91687,1,8
280,80,91875,1,8
344,152,92062,1,8
280,144,92250,1,8
216,48,92531,1,8
104,360,92812,1,0
440,352,93000,1,0
416,328,93093,1,0
392,304,93187,1,0
368,280,93281,1,0
440,304,93375,1,0
416,280,93468,1,0
392,256,93562,1,0
368,232,93656,1,0
392,208,93750,1,0
416,184,93843,1,0
440,160,93937,1,0
416,136,94031,1,0
392,112,94125,1,0
368,88,94218,1,0
344,72,94312,1,0
16,320,94500,5,0
32,296,94593,1,0
48,272,94687,1,0
64,248,94781,1,0
168,224,94875,1,0
152,200,94968,1,0
136,176,95062,1,0
120,152,95156,1,0
136,128,95250,1,0
152,104,95343,1,0
168,80,95437,1,0
152,64,95531,1,0
136,48,95625,1,0
120,32,95718,1,0
120,32,95812,1,4
496,192,96000,5,0
464,192,96093,1,0
432,192,96187,1,0
400,192,96281,1,0
368,192,96375,1,0
336,192,96468,1,0
304,192,96562,1,0
16,344,96750,5,0
48,344,96843,1,0
80,344,96937,1,0
112,344,97031,1,0
144,344,97125,1,0
176,344,97218,1,0
208,344,97312,1,0
240,344,97406,1,0
440,296,97500,1,8
400,256,97593,1,8
360,216,97687,1,8
400,168,97781,1,8
440,120,97875,1,8
400,72,97968,1,8
360,24,98062,1,8
320,64,98156,1,8
280,104,98250,1,8
32,264,98343,1,8
64,216,98437,1,8
96,168,98531,1,8
128,120,98625,1,8
152,168,98718,1,8
184,216,98812,1,0
488,272,99000,5,8
488,208,99187,1,8
488,144,99375,1,8
488,80,99562,1,8
488,240,99750,1,8
488,176,99937,1,8
488,112,100125,1,8
488,48,100312,1,8
376,200,100500,1,0
352,176,100593,1,8
232,192,100781,1,8
208,168,100875,1,8
288,128,101062,1,8
264,104,101156,1,8
128,112,101343,1,8
104,88,101437,1,8
64,320,101625,5,8
24,296,101718,1,8
64,272,101812,1,8
24,248,101906,1,8
256,304,102000,5,10
384,208,102562,1,0
136,208,103125,1,0
456,224,104062,1,0
344,168,104250,1,0
240,112,104437,1,0
120,48,104625,1,0
16,0,104812,1,0
512,8,105000,1,2
456,304,105562,1,0
344,240,105750,1,0
232,184,105937,1,0
120,128,106125,1,0
24,72,106312,1,0
504,72,106500,1,2
400,192,107250,1,0
64,192,108000,5,10
464,192,108562,1,8
16,160,109125,1,8
16,280,110062,1,0
136,208,110250,1,0
248,144,110437,1,0
352,80,110625,1,0
456,24,110812,1,0
8,88,111000,1,0
256,280,111562,1,0
176,224,111750,1,0
328,184,111937,1,0
120,120,112125,1,0
384,56,112312,1,0
64,24,112500,1,0
256,192,113250,1,0
256,144,114000,1,4
256,192,114093,12,4,118500
