osu file format v9

[General]
AudioFilename: Legend of Moonlight.mp3
AudioLeadIn: 2000
PreviewTime: -1
Countdown: 1
SampleSet: Soft
StackLeniency: 0.2
Mode: 2
LetterboxInBreaks: 1

[Editor]
DistanceSpacing: 0.7
BeatDivisor: 4
GridSize: 32

[Metadata]
Title:Legend of Moonlight
Artist:Memme
Creator:SS_Kanzaki
Version:CLSWTB Expert
Source:EZ2DJ 7.5 Trax
Tags:

[Difficulty]
HPDrainRate:6
CircleSize:5
OverallDifficulty:5
ApproachRate:9
SliderMultiplier:3.59999990463257
SliderTickRate:1

[Events]
//Background and Video events
0,0,"Legend of Moonlight bg.jpg"
//Break Periods
//Storyboard Layer 0 (Background)
//Storyboard Layer 1 (Fail)
//Storyboard Layer 2 (Pass)
//Storyboard Layer 3 (Foreground)
//Storyboard Sound Samples
//Background Colour Transformations
3,100,163,162,255

[TimingPoints]
0,375,4,2,0,60,1,0
2062,-100,4,2,0,40,0,0
2625,-100,4,2,0,20,0,0
3468,-100,4,2,0,60,0,0
4500,-100,4,2,0,20,0,0
6375,-100,4,2,0,60,0,0
8062,-100,4,2,0,30,0,0
8625,-100,4,2,0,20,0,0
9562,-100,4,2,0,60,0,0
10500,-100,4,2,0,20,0,0
12000,-100,4,1,0,50,0,0
12093,-100,4,2,0,60,0,0
12562,-100,4,1,0,50,0,0
12656,-100,4,2,0,60,0,0
13125,-100,4,1,0,50,0,0
13218,-100,4,2,0,60,0,0
13500,-100,4,1,0,50,0,0
13546,-100,4,1,0,5,0,0
13593,-100,4,2,0,60,0,0
14062,-100,4,1,0,50,0,0
14109,-100,4,2,0,40,0,0
14625,-100,4,2,0,60,0,0
14671,-100,4,2,0,20,0,0
15562,-100,4,1,0,50,0,0
15656,-100,4,2,0,60,0,0
16500,-100,4,1,0,50,0,0
16546,-100,4,2,0,20,0,0
16593,-100,4,2,0,20,0,0
17062,-100,4,1,0,50,0,0
17156,-100,4,2,0,60,0,0
18000,-100,4,1,0,50,0,0
18046,-100,4,2,0,20,0,0
18281,-100,4,2,0,60,0,0
18421,-100,4,2,0,20,0,0
18562,-100,4,1,0,5,0,0
18656,-100,4,2,0,60,0,0
18750,-100,4,1,0,50,0,0
18796,-100,4,2,0,20,0,0
19125,-100,4,2,0,60,0,0
19171,-100,4,2,0,20,0,0
19500,-100,4,1,0,50,0,0
19546,-100,4,2,0,20,0,0
19875,-100,4,2,0,60,0,0
20062,-100,4,1,0,50,0,0
20109,-100,4,2,0,20,0,0
20437,-100,4,2,0,60,0,0
20625,-100,4,1,0,50,0,0
20671,-100,4,2,0,20,0,0
21562,-100,4,2,0,60,0,0
22406,-100,4,1,0,50,0,0
22546,-100,4,2,0,20,0,0
22875,-100,4,2,0,60,0,0
24000,-100,4,1,0,50,0,0
24281,-100,4,2,0,60,0,0
24562,-100,4,1,0,50,0,0
24656,-100,4,2,0,60,0,0
25125,-100,4,1,0,50,0,0
25218,-100,4,2,0,60,0,0
25312,-100,4,1,0,50,0,0
25406,-100,4,2,0,60,0,0
25500,-100,4,2,0,80,0,0
27093,-100,4,2,0,80,0,0
27750,-100,4,1,0,50,0,0
28406,-100,4,1,0,65,0,0
34500,-100,4,2,0,80,0,0
34593,-100,4,1,0,65,0,0
40500,-100,4,2,0,80,0,0
40593,-100,4,1,0,65,0,0
46500,-100,4,2,0,80,0,0
46593,-100,4,1,0,65,0,0
49500,-100,4,2,0,80,0,0
49593,-100,4,1,0,65,0,0
51000,-100,4,2,0,80,0,0
51093,-100,4,1,0,65,0,0
52500,-100,4,2,0,20,0,0
53578,-100,4,2,0,70,0,0
54000,-100,4,2,0,100,0,0
54093,-100,4,2,0,70,0,0
60000,-100,4,2,0,100,0,0
60093,-100,4,2,0,70,0,0
66000,-100,4,2,0,100,0,1
66093,-100,4,2,0,70,0,1
72000,-100,4,2,0,100,0,1
72093,-100,4,2,0,70,0,1
78000,-100,4,2,0,100,0,1
78093,-100,4,2,0,70,0,1
84000,-100,4,2,0,100,0,1
84093,-100,4,2,0,70,0,1
90000,-100,4,2,0,100,0,1
90093,-100,4,2,0,70,0,1
92718,-100,4,2,0,70,0,1
96000,-100,4,2,0,100,0,1
96093,-100,4,2,0,70,0,1
102000,-100,4,2,0,80,0,0
104062,-100,4,2,0,60,0,0
114000,-50,4,2,0,100,0,0
115500,-50,4,2,0,5,0,0
115546,-50,4,2,0,100,0,0
117000,-50,4,2,0,5,0,0

[HitObjects]
320,192,937,1,0
256,192,1125,1,0
192,192,1312,1,0
256,128,1500,6,0,B|256:64,6,44.9999988079071
320,96,1875,1,0
192,96,2062,6,0,B|192:32,6,44.9999988079071
256,64,2437,1,0
128,64,2625,6,0,B|128:0,16,44.9999988079071
192,160,3562,1,0
352,160,3750,1,0
192,160,3937,1,0
480,160,4125,1,0
480,160,4312,1,0
320,160,4500,6,0,B|320:96,6,44.9999988079071
256,96,4875,1,0
128,224,5062,6,0,B|128:160,6,44.9999988079071
128,128,5437,1,0
288,128,5625,1,0
288,128,5812,1,0
448,192,6000,6,0,B|448:128,6,44.9999988079071
384,224,6375,1,0
224,224,6562,1,0
96,128,6750,1,0
416,128,6937,1,0
288,32,7125,1,0
96,288,7500,6,0,B|96:224,6,44.9999988079071
32,224,7875,1,0
160,160,8062,6,0,B|160:96,6,44.9999988079071
96,96,8437,1,0
224,192,8625,6,0,B|224:128,16,44.9999988079071
256,32,9562,1,0
416,32,9750,1,0
288,128,9937,1,0
416,224,10125,1,0
256,224,10312,1,0
384,128,10500,6,0,B|384:64,6,44.9999988079071
320,160,10875,1,0
192,256,11062,6,0,B|192:192,6,44.9999988079071
128,192,11437,1,0
288,192,11625,1,0
32,32,12000,5,0
128,160,12187,1,0
256,64,12375,1,0
256,224,12562,1,0
384,160,12750,1,0
480,32,12937,1,0
128,160,13125,1,0
32,32,13312,1,0
160,160,13500,6,0,B|160:96,6,44.9999988079071
256,160,13875,1,0
352,288,14062,6,0,B|352:224,6,44.9999988079071
256,288,14437,1,0
416,288,14625,6,0,B|416:224,12,44.9999988079071,8|0|0|0|0|0|0|0|0|0|0|0|0
192,64,15562,1,0
320,160,15750,1,2
160,160,15937,1,0
352,160,16125,1,2
192,160,16312,1,0
256,320,16500,6,0,B|256:256,10,44.9999988079071
256,256,17062,1,0
416,288,17250,1,2
96,288,17437,1,0
416,288,17625,1,2
96,288,17812,1,0
416,256,18000,6,0,B|416:192,6,44.9999988079071
352,288,18375,2,0,B|352:224,6,44.9999988079071,8|0|0|0|0|0|0
288,224,18750,6,0,B|288:160,6,44.9999988079071
224,192,19125,2,0,B|224:128,6,44.9999988079071,2|0|0|0|0|0|0
288,160,19500,6,0,B|288:96,6,44.9999988079071
352,128,19875,1,8
224,224,20062,6,0,B|224:160,6,44.9999988079071
288,256,20437,1,8
160,128,20625,6,0,B|160:64,16,44.9999988079071
256,256,21562,1,0
416,256,21750,1,2
256,256,21937,1,0
96,256,22125,1,2
96,256,22312,1,0
352,288,22500,6,0,B|352:224,6,44.9999988079071
256,256,22875,1,0
96,256,23062,1,0
256,256,23250,1,2
416,256,23437,1,0
416,256,23625,1,2
256,256,23812,1,0
160,128,24000,5,0
352,128,24375,1,2
32,32,24750,1,0
480,32,25125,1,0
256,256,25500,5,4
256,192,25593,12,0,26812
352,192,27000,5,2
320,128,27093,1,2
288,64,27187,1,2
192,192,27375,1,2
192,192,27562,1,0
96,320,27750,1,0
64,256,27843,1,0
96,192,27937,1,0
64,128,28031,1,0
128,128,28125,1,0
96,64,28218,1,0
128,128,28312,1,0
96,64,28406,1,0
224,64,28500,5,0
384,64,28687,1,0
384,64,28781,1,0
224,256,29062,1,0
288,96,29250,1,0
288,96,29531,1,0
288,96,29812,1,0
128,128,30000,5,0
288,128,30187,1,0
256,192,30281,1,0
128,288,30468,1,0
160,224,30562,1,0
320,256,30750,1,0
224,128,30938,1,0
192,64,31031,1,0
384,192,31312,1,0
224,192,31500,5,0
96,96,31687,1,0
96,96,31781,1,0
256,96,31968,1,0
256,96,32062,1,0
256,256,32250,1,0
416,256,32437,1,0
416,256,32531,1,0
256,256,32718,1,0
256,256,32812,1,0
128,160,33000,5,0
160,96,33093,1,0
256,96,33187,1,0
224,160,33281,1,0
128,160,33375,1,0
160,96,33468,1,0
256,96,33562,1,0
224,160,33656,1,0
320,160,33750,1,0
160,256,34031,1,0
320,160,34312,1,0
416,32,34500,5,0
256,32,34687,1,0
192,64,34781,1,0
416,96,35062,1,0
416,256,35250,1,0
256,256,35437,1,0
192,224,35531,1,0
416,288,35812,1,0
320,160,36000,5,0
192,96,36187,1,0
256,224,36375,1,0
320,192,36468,1,0
256,160,36562,1,0
192,128,36656,1,0
256,96,36750,1,0
384,224,37031,1,0
224,32,37312,1,0
96,96,37500,5,0
192,224,37687,1,0
32,160,37875,1,0
128,288,38062,1,0
32,224,38250,1,0
192,224,38437,1,0
64,288,38625,1,0
160,160,38812,1,0
320,160,39000,5,0
224,32,39187,1,0
192,96,39281,1,0
64,32,39468,1,0
32,96,39562,1,0
128,224,39750,1,0
128,224,40031,1,0
384,224,40312,1,0
384,64,40500,5,0
256,256,40781,1,0
128,64,41062,1,0
128,64,41250,1,0
256,256,41531,1,0
384,64,41812,1,0
224,32,42000,5,0
288,192,42187,1,0
288,96,42281,1,0
160,192,42468,1,0
160,192,42562,1,0
352,192,42750,1,0
352,192,43031,1,0
352,192,43312,1,0
192,128,43500,5,0
128,96,43593,1,0
128,96,43687,1,0
288,96,43875,1,0
448,96,44062,1,0
288,96,44250,1,0
192,224,44437,1,0
160,288,44531,1,0
416,224,44718,1,0
448,288,44812,1,0
288,288,45000,5,0
224,128,45187,1,0
192,64,45281,1,0
96,192,45468,1,0
128,256,45562,1,0
288,192,45750,1,0
96,224,46031,1,0
288,192,46312,1,0
288,32,46500,5,4
288,32,46687,1,0
448,32,46875,1,0
448,96,46968,1,0
448,192,47062,1,0
288,192,47250,1,0
128,192,47437,1,0
288,192,47625,1,0
288,32,47812,1,0
224,32,48000,5,0
224,32,48187,1,0
64,32,48375,1,0
64,96,48468,1,0
64,192,48562,1,0
224,192,48750,1,0
384,192,48937,1,0
224,192,49125,1,0
224,32,49312,1,0
192,192,49500,5,4
352,192,49687,1,0
224,288,49875,1,0
256,224,49968,1,0
288,288,50062,1,0
256,128,50250,1,0
192,256,50437,1,0
352,256,50625,1,0
160,256,50812,1,0
256,128,51000,5,4
256,320,51281,1,0
256,128,51562,1,0
480,32,51843,1,0
256,128,52125,1,0
256,128,52312,1,0
256,128,52500,6,0,B|256:64,22,44.9999988079071
192,192,53625,1,0
256,224,53718,1,0
320,192,53812,1,0
288,256,53906,1,0
224,320,54000,1,0
448,96,55312,5,0
448,96,55500,1,0
64,64,56812,5,0
64,160,56906,1,0
96,224,57000,1,0
224,32,57281,1,0
352,224,57562,1,0
224,320,57750,5,0
224,64,58031,1,0
224,320,58312,1,0
384,320,58500,1,6
448,160,59062,5,0
448,160,59156,1,0
384,96,59250,1,0
352,160,59343,1,0
384,224,59437,1,0
352,288,59531,1,0
288,224,59625,1,0
256,160,59718,1,0
288,96,59812,1,0
256,32,59906,1,0
160,32,60000,5,4
160,32,60281,1,0
160,32,60562,1,0
320,32,60750,1,0
320,32,61031,1,0
320,32,61312,1,0
224,128,61500,5,0
288,128,61593,1,0
320,192,61687,1,0
224,192,61781,1,0
288,192,61875,1,2
320,128,61968,1,0
224,128,62062,1,0
192,64,62156,1,0
256,64,62250,1,0
288,128,62343,1,0
320,64,62437,1,0
352,128,62531,1,0
384,192,62625,1,2
320,224,62718,1,0
256,224,62812,1,0
192,224,62906,1,0
128,192,63000,5,0
96,128,63093,1,0
160,128,63187,1,0
128,64,63281,1,0
160,128,63375,1,2
192,192,63468,1,0
224,128,63562,1,0
192,64,63656,1,0
256,64,63750,1,0
320,64,63843,1,0
288,128,63937,1,0
352,128,64031,1,0
384,192,64125,1,2
416,256,64218,1,0
448,192,64312,1,0
480,128,64406,1,0
448,64,64500,5,0
384,64,64593,1,0
416,128,64687,1,0
352,128,64781,1,0
384,192,64875,1,2
384,256,64968,1,0
384,320,65062,1,0
384,256,65156,1,0
288,256,65250,1,2
288,192,65343,1,0
288,256,65437,1,0
288,192,65531,1,0
320,128,65625,1,2
256,128,65718,1,0
288,64,65812,1,0
224,64,65906,1,0
160,64,66000,5,4
128,128,66093,1,0
96,192,66187,1,0
160,192,66281,1,0
224,192,66375,1,2
192,256,66468,1,0
160,320,66562,1,0
224,320,66656,1,0
288,320,66750,1,0
320,256,66843,1,0
352,192,66937,1,0
288,192,67031,1,0
224,192,67125,1,2
256,128,67218,1,0
288,64,67312,1,0
224,64,67406,1,0
352,64,67500,5,0
384,128,67593,1,0
416,192,67687,1,0
352,192,67781,1,0
288,192,67875,1,2
320,256,67968,1,0
352,320,68062,1,0
288,320,68156,1,0
224,320,68250,1,2
192,256,68343,1,0
160,192,68437,1,0
224,192,68531,1,2
288,192,68625,1,0
256,128,68718,1,0
224,64,68812,1,2
288,64,68906,1,0
320,128,69000,5,0
352,64,69093,1,0
320,128,69187,1,0
352,64,69281,1,0
288,64,69375,1,2
320,128,69468,1,0
288,64,69562,1,0
320,128,69656,1,0
256,128,69750,1,0
288,64,69843,1,0
256,128,69937,1,0
288,64,70031,1,0
224,64,70125,1,2
256,128,70218,1,0
224,64,70312,1,0
256,128,70406,1,0
192,128,70500,5,0
160,192,70593,1,0
128,256,70687,1,0
96,320,70781,1,0
224,320,70875,1,2
256,256,70968,1,0
288,192,71062,1,0
320,128,71156,1,0
448,128,71250,1,2
416,192,71343,1,0
384,256,71437,1,0
352,320,71531,1,0
224,320,71625,1,2
192,256,71718,1,0
160,192,71812,1,0
128,128,71906,1,0
160,64,72000,5,4
224,64,72093,1,0
160,64,72187,1,0
224,64,72281,1,0
256,128,72375,1,2
320,128,72468,1,0
256,128,72562,1,0
320,128,72656,1,0
352,64,72750,1,0
384,128,72843,1,0
352,192,72937,1,0
320,128,73031,1,0
320,128,73125,1,2
256,128,73218,1,0
320,128,73312,1,0
256,128,73406,1,0
224,192,73500,5,2
160,192,73593,1,0
224,192,73687,1,0
160,192,73781,1,0
128,256,73875,1,2
160,320,73968,1,0
224,352,74062,1,0
256,288,74156,1,0
320,288,74250,1,0
352,352,74343,1,0
416,320,74437,1,0
448,256,74531,1,0
416,192,74625,1,2
448,128,74718,1,0
384,128,74812,1,0
416,64,74906,1,0
352,64,75000,5,0
320,128,75093,1,0
256,128,75187,1,0
224,64,75281,1,0
160,64,75375,1,2
128,128,75468,1,0
64,128,75562,1,0
32,64,75656,1,0
32,128,75750,1,0
32,192,75843,1,0
32,256,75937,1,0
32,320,76031,1,0
128,320,76125,1,2
192,320,76218,1,0
256,320,76312,1,0
320,320,76406,1,0
352,256,76500,5,0
384,192,76593,1,0
416,256,76687,1,0
352,224,76781,1,0
288,192,76875,1,2
256,128,76968,1,0
288,64,77062,1,0
352,128,77156,1,0
384,64,77250,1,2
416,128,77343,1,0
384,192,77437,1,0
352,128,77531,1,0
320,64,77625,1,2
256,64,77718,1,0
192,64,77812,1,0
128,64,77906,1,0
96,128,78000,5,4
96,192,78093,1,0
128,256,78187,1,0
96,320,78281,1,0
192,320,78375,1,2
192,256,78468,1,0
160,192,78562,1,0
192,128,78656,1,0
288,128,78750,1,0
288,192,78843,1,0
256,256,78937,1,0
288,320,79031,1,0
384,320,79125,1,2
384,256,79218,1,0
416,192,79312,1,0
384,128,79406,1,0
384,64,79500,5,0
448,64,79593,1,0
384,64,79687,1,0
448,64,79781,1,0
384,64,79875,1,2
416,128,79968,1,0
384,64,80062,1,0
416,128,80156,1,0
384,192,80250,1,2
416,256,80343,1,0
384,320,80437,1,0
352,256,80531,1,0
256,256,80625,1,2
288,192,80718,1,0
256,128,80812,1,0
224,192,80906,1,0
160,192,81000,5,0
160,192,81093,1,0
160,192,81187,1,0
160,192,81281,1,0
32,192,81375,1,2
32,192,81468,1,0
32,192,81562,1,0
32,192,81656,1,0
64,128,81750,1,0
64,128,81843,1,0
64,128,81937,1,0
64,128,82031,1,0
192,128,82125,1,2
192,128,82218,1,0
192,128,82312,1,0
192,128,82406,1,0
256,96,82500,5,0
288,160,82593,1,0
256,96,82687,1,0
224,32,82781,1,0
256,96,82875,1,2
320,96,82968,1,0
256,96,83062,1,0
192,96,83156,1,0
256,96,83250,1,0
224,160,83343,1,0
256,96,83437,1,0
288,32,83531,1,0
256,96,83625,1,2
256,96,83718,1,0
256,96,83812,1,0
256,96,83906,1,0
256,96,84000,5,4
224,160,84093,1,0
160,160,84187,1,0
128,224,84281,1,0
64,224,84375,1,0
32,288,84468,1,0
96,288,84562,1,0
128,352,84656,1,0
192,352,84750,1,0
224,288,84843,1,0
288,288,84937,1,0
320,224,85031,1,0
384,224,85125,1,0
416,160,85218,1,0
480,160,85312,1,0
448,96,85406,1,0
416,32,85500,5,0
416,96,85593,1,0
416,160,85687,1,0
416,224,85781,1,0
320,224,85875,1,2
320,160,85968,1,0
320,96,86062,1,0
320,32,86156,1,0
192,32,86250,1,0
192,96,86343,1,0
192,160,86437,1,0
192,224,86531,1,0
96,224,86625,1,2
96,160,86718,1,0
96,96,86812,1,0
96,32,86906,1,0
128,96,87000,5,0
160,160,87093,1,0
96,160,87187,1,0
128,224,87281,1,0
64,224,87375,1,2
96,288,87468,1,0
32,288,87562,1,0
64,352,87656,1,0
224,352,87750,1,0
192,288,87843,1,0
256,288,87937,1,0
224,224,88031,1,0
288,224,88125,1,2
256,160,88218,1,0
320,160,88312,1,0
288,96,88406,1,0
352,96,88500,5,0
320,32,88593,1,0
256,32,88687,1,0
224,96,88781,1,0
256,160,88875,1,2
320,160,88968,1,0
352,224,89062,1,0
320,288,89156,1,0
256,288,89250,1,2
224,224,89343,1,0
256,160,89437,1,0
192,160,89531,1,0
128,160,89625,1,2
96,128,89718,1,0
64,160,89812,1,2
96,192,89906,1,0
128,256,90000,5,6
192,256,90093,1,0
192,320,90187,1,0
256,320,90281,1,0
256,256,90375,1,2
320,256,90468,1,0
320,192,90562,1,0
384,192,90656,1,0
448,192,90750,1,0
448,128,90843,1,0
384,128,90937,1,0
416,64,91031,1,0
352,64,91125,1,2
288,64,91218,1,0
320,128,91312,1,0
256,96,91406,1,0
256,96,91500,5,2
192,96,91593,1,0
224,160,91687,1,2
288,160,91781,1,0
288,224,91875,1,2
224,224,91968,1,0
192,288,92062,1,0
256,288,92156,1,0
224,352,92250,1,0
224,288,92343,1,0
224,224,92437,1,0
224,160,92531,1,0
224,96,92625,1,2
224,32,92718,1,0
192,96,92812,1,0
192,160,92906,1,0
128,192,93000,5,0
96,160,93093,1,0
128,128,93187,1,0
96,96,93281,1,0
160,96,93375,1,2
96,64,93468,1,0
160,64,93562,1,0
96,32,93656,1,0
64,96,93750,1,0
32,160,93843,1,0
64,224,93937,1,0
96,288,94031,1,0
64,352,94125,1,2
32,288,94218,1,0
64,352,94312,1,0
96,288,94406,1,0
128,224,94500,5,0
192,192,94593,1,0
256,160,94687,1,0
320,128,94781,1,0
384,128,94875,1,2
352,160,94968,1,0
288,192,95062,1,0
224,224,95156,1,0
128,192,95250,1,0
192,224,95343,1,0
256,256,95437,1,0
320,288,95531,1,0
416,288,95625,1,2
352,256,95718,1,0
288,224,95812,1,0
224,192,95906,1,0
192,128,96000,5,4
160,96,96093,1,0
192,128,96187,1,0
160,96,96281,1,0
256,128,96375,1,2
288,96,96468,1,0
256,128,96562,1,0
288,96,96656,1,0
128,128,96750,1,0
96,96,96843,1,0
128,128,96937,1,0
96,96,97031,1,0
320,128,97125,1,2
352,96,97218,1,0
320,128,97312,1,0
352,96,97406,1,0
384,128,97500,5,0
352,192,97593,1,0
320,256,97687,1,0
288,320,97781,1,0
160,320,97875,1,2
128,256,97968,1,0
96,192,98062,1,0
64,128,98156,1,0
64,128,98250,1,0
96,192,98343,1,0
128,256,98437,1,0
160,320,98531,1,0
288,320,98625,1,2
320,256,98718,1,0
352,192,98812,1,0
384,128,98906,1,0
416,192,99000,5,0
352,192,99093,1,0
352,128,99187,1,0
384,64,99281,1,0
320,64,99375,1,2
256,64,99468,1,0
256,128,99562,1,0
288,192,99656,1,0
224,192,99750,1,2
160,192,99843,1,0
160,128,99937,1,2
192,64,100031,1,0
128,64,100125,1,2
64,64,100218,1,0
64,128,100312,1,2
96,192,100406,1,0
96,256,100500,5,6
32,224,100593,1,0
96,256,100687,1,0
192,256,100781,1,6
256,224,100875,1,0
192,256,100968,1,0
128,288,101062,1,6
128,352,101156,1,0
160,288,101250,1,0
160,352,101343,1,0
192,256,101437,1,6
256,224,101531,1,0
96,256,101625,1,6
32,224,101718,1,0
64,288,101812,1,6
64,352,101906,1,0
96,320,102000,5,0
160,224,102375,1,0
160,96,102562,1,2
352,224,102937,1,0
352,96,103125,1,0
256,160,104250,5,2
128,192,105000,5,0
384,192,105750,1,2
128,192,106125,1,2
384,192,106500,5,0
384,192,107250,1,0
256,192,108000,5,0
160,128,108375,1,0
160,128,108562,1,2
352,128,108937,1,0
352,128,109125,1,0
96,192,110250,5,2
256,192,111000,5,4
480,64,111375,1,0
480,64,111562,1,2
128,192,112500,5,4
96,192,114000,5,4
256,192,114093,12,0,120000
