osu file format v9

[General]
AudioFilename: Legend of Moonlight.mp3
AudioLeadIn: 2000
PreviewTime: -1
Countdown: 1
SampleSet: Normal
StackLeniency: 0.7
Mode: 2
LetterboxInBreaks: 1

[Editor]
DistanceSpacing: 0.8
BeatDivisor: 4
GridSize: 8

[Metadata]
Title:Legend of Moonlight
Artist:Memme
Creator:SS_Kanzaki
Version:Broken Moon
Source:EZ2DJ 7.5 Trax
Tags:

[Difficulty]
HPDrainRate:5
CircleSize:5
OverallDifficulty:6
ApproachRate:9
SliderMultiplier:1.4
SliderTickRate:1

[Events]
//Background and Video events
0,0,"Legend of Moonlight bg.jpg"
//Break Periods
//Storyboard Layer 0 (Background)
//Storyboard Layer 1 (Fail)
//Storyboard Layer 2 (Pass)
//Storyboard Layer 3 (Foreground)
//Storyboard Sound Samples
//Background Colour Transformations
3,100,163,162,255

[TimingPoints]
0,375,4,1,0,32,1,0

[HitObjects]
192,272,937,1,0
256,192,1125,1,0
320,104,1312,1,0
480,192,1500,1,10
24,192,2062,1,10
480,128,2625,1,10
80,240,3562,1,0
216,240,3750,1,0
152,160,3937,1,0
400,160,4125,1,2
272,64,4312,1,2
272,304,4500,1,10
272,176,5062,1,8
184,240,5625,1,8
104,176,5812,1,8
480,184,6000,1,10
16,176,6562,1,10
480,104,6937,1,10
344,184,7500,5,12
256,104,8062,1,12
168,32,8625,1,12
328,224,9562,1,0
192,184,9750,1,0
328,136,9937,1,0
192,96,10125,1,0
328,48,10312,1,0
24,184,10500,1,2
480,176,11062,1,2
296,304,12187,1,8
232,272,12375,1,8
296,240,12562,1,8
360,184,12937,1,10
160,160,13125,1,10
360,112,13312,1,10
32,208,13500,5,12
488,200,14062,1,12
32,144,14625,1,12
256,216,15562,1,0
192,168,15750,1,0
312,136,15937,1,0
144,96,16125,1,0
376,72,16312,1,0
256,16,16500,1,8
256,328,17062,1,0
200,264,17250,1,0
304,232,17437,1,0
152,192,17625,1,0
360,160,17812,1,0
256,88,18000,1,8
256,192,18750,1,10
488,192,19500,5,10
24,192,20062,1,10
488,128,20625,1,10
320,256,21562,1,8
184,208,21750,1,8
320,152,21937,1,8
184,104,22125,1,8
320,48,22312,1,8
184,0,22500,1,10
248,48,22875,1,0
88,264,23062,1,8
240,200,23250,1,8
88,128,23437,1,8
240,328,23625,1,8
88,16,23812,1,8
432,200,24000,1,10
24,192,24750,1,12
256,192,25500,1,12
256,192,25593,12,0,26625
256,256,27000,5,8
256,136,27375,1,8
128,240,27750,1,0
160,200,27937,1,0
184,168,28125,1,0
208,136,28312,1,0
376,272,28500,1,12
336,240,28593,1,0
376,224,28687,1,0
336,192,28781,1,0
56,360,28875,1,8
96,336,28968,1,0
56,312,29062,1,0
96,288,29156,1,0
272,344,29250,1,8
232,320,29343,1,0
272,296,29437,1,0
232,272,29531,1,0
152,88,29625,1,8
192,64,29718,1,8
152,40,29812,1,8
192,16,29906,1,8
496,200,30000,5,8
456,176,30093,1,0
496,152,30187,1,0
456,128,30281,1,0
256,176,30375,1,8
296,152,30468,1,0
256,128,30562,1,0
296,104,30656,1,0
416,328,30750,1,8
376,304,30843,1,0
416,280,30937,1,0
376,256,31031,1,0
104,304,31125,1,8
144,280,31218,1,8
104,256,31312,1,8
144,232,31406,1,8
304,344,31500,5,8
264,320,31593,1,0
304,296,31687,1,0
264,272,31781,1,0
24,200,31875,1,8
64,176,31968,1,0
24,152,32062,1,0
64,128,32156,1,0
440,192,32250,1,8
400,168,32343,1,0
440,144,32437,1,0
400,120,32531,1,0
192,160,32625,1,8
232,136,32718,1,8
192,112,32812,1,8
232,88,32906,1,8
336,208,33000,5,8
296,184,33093,1,0
336,160,33187,1,0
296,136,33281,1,0
128,352,33375,1,8
168,328,33468,1,0
128,304,33562,1,0
168,280,33656,1,0
408,344,33750,1,8
368,320,33843,1,0
408,296,33937,1,0
368,272,34031,1,0
32,224,34125,1,8
72,200,34218,1,8
32,176,34312,1,8
72,152,34406,1,8
472,192,34500,5,10
440,160,34593,1,0
416,128,34687,1,0
384,96,34781,1,0
160,128,34875,1,10
128,96,34968,1,0
104,64,35062,1,0
72,32,35156,1,0
296,352,35250,1,10
264,320,35343,1,0
240,288,35437,1,0
208,256,35531,1,0
16,312,35625,1,8
40,296,35718,1,8
16,280,35812,1,8
40,264,35906,1,8
176,192,36000,5,10
208,160,36093,1,0
232,128,36187,1,0
264,96,36281,1,0
392,336,36375,1,10
424,304,36468,1,0
448,272,36562,1,0
480,240,36656,1,0
288,264,36750,1,10
320,232,36843,1,0
344,200,36937,1,0
376,168,37031,1,0
32,176,37125,1,8
72,152,37218,1,8
32,128,37312,1,8
72,104,37406,1,8
272,344,37500,5,10
240,312,37593,1,0
216,280,37687,1,0
184,248,37781,1,0
400,128,37875,1,10
368,96,37968,1,0
344,72,38062,1,0
312,40,38156,1,0
488,336,38250,1,10
456,304,38343,1,0
432,272,38437,1,0
400,240,38531,1,0
168,176,38625,1,8
208,152,38718,1,8
168,128,38812,1,8
208,104,38906,1,8
16,336,39000,5,10
48,304,39093,1,0
72,272,39187,1,0
104,240,39281,1,0
304,224,39375,1,10
336,192,39468,1,0
360,160,39562,1,0
392,128,39656,1,0
144,344,39750,1,10
176,312,39843,1,0
200,280,39937,1,0
232,248,40031,1,0
496,328,40125,1,8
456,304,40218,1,8
496,280,40312,1,8
456,256,40406,1,8
168,176,40500,5,10
168,136,40593,1,0
168,96,40687,1,0
168,56,40781,1,0
488,184,40875,1,10
488,144,40968,1,0
488,96,41062,1,0
488,56,41156,1,0
288,352,41250,1,10
288,312,41343,1,0
288,272,41437,1,0
288,232,41531,1,0
96,256,41625,1,8
56,232,41718,1,8
96,208,41812,1,8
56,184,41906,1,8
264,152,42000,5,10
264,112,42093,1,0
264,72,42187,1,0
264,32,42281,1,0
144,352,42375,1,10
144,312,42468,1,0
144,272,42562,1,0
144,232,42656,1,0
448,328,42750,1,10
448,288,42843,1,0
448,248,42937,1,0
448,208,43031,1,0
312,328,43125,1,8
272,304,43218,1,8
312,280,43312,1,8
272,256,43406,1,8
56,184,43500,5,10
56,144,43593,1,0
56,104,43687,1,0
56,64,43781,1,0
216,192,43875,1,10
216,152,43968,1,0
216,112,44062,1,0
216,72,44156,1,0
368,192,44250,1,10
368,152,44343,1,0
368,112,44437,1,0
368,72,44531,1,0
120,336,44625,1,8
160,312,44718,1,8
120,288,44812,1,8
160,264,44906,1,8
16,336,45000,5,10
16,296,45093,1,0
16,256,45187,1,0
16,216,45281,1,0
488,336,45375,1,10
488,296,45468,1,0
488,256,45562,1,0
488,216,45656,1,0
16,144,45750,1,10
16,104,45843,1,0
16,64,45937,1,0
16,24,46031,1,0
288,328,46125,1,8
248,304,46218,1,8
288,280,46312,1,8
248,256,46406,1,8
200,200,46500,1,0
320,200,46687,1,0
200,128,46875,1,0
320,128,47062,1,0
200,56,47250,1,0
320,56,47437,1,0
232,168,47625,1,8
272,136,47718,1,8
232,112,47812,1,8
272,80,47906,1,8
200,352,48000,5,0
320,352,48187,1,0
200,288,48375,1,0
320,288,48562,1,0
200,224,48750,1,0
320,224,48937,1,0
240,320,49125,1,8
272,296,49218,1,8
240,280,49312,1,8
272,256,49406,1,8
256,32,49500,5,10
256,192,51000,1,10
256,192,52125,12,0,52500
208,232,53625,5,8
232,192,53718,1,8
256,152,53812,1,8
280,112,53906,1,8
304,72,54000,1,8
56,224,55312,1,8
88,192,55406,1,8
120,160,55500,1,8
256,88,56625,1,0
472,200,56812,1,8
448,168,56906,1,8
424,144,57000,1,8
480,304,57281,1,0
16,312,57562,1,0
360,232,57750,1,0
128,232,58031,1,0
256,184,58312,1,0
256,96,58500,1,12
472,336,59062,5,0
432,312,59156,1,0
472,288,59250,1,0
432,264,59343,1,0
472,240,59437,1,0
432,216,59531,1,0
392,192,59625,1,0
432,168,59718,1,0
392,144,59812,1,0
432,120,59906,1,0
392,96,60000,1,10
80,200,60281,1,10
336,304,60562,1,10
136,304,60750,1,10
336,56,61031,1,10
80,48,61312,1,10
8,352,61406,5,0
48,328,61500,1,0
8,304,61593,1,0
48,280,61687,1,0
88,256,61781,1,0
48,232,61875,1,0
88,208,61968,1,0
128,184,62062,1,0
88,160,62156,1,0
128,136,62250,1,0
168,112,62343,1,0
128,88,62437,1,0
168,64,62531,1,0
208,40,62625,1,0
168,16,62718,1,0
208,304,62812,1,0
248,280,62906,1,0
208,256,63000,1,0
248,232,63093,1,0
288,208,63187,1,0
248,184,63281,1,0
288,160,63375,1,0
328,136,63468,1,0
288,112,63562,1,0
328,88,63656,1,0
368,64,63750,1,0
328,40,63843,1,0
368,16,63937,1,0
336,360,64031,1,0
296,336,64125,1,0
336,312,64218,1,0
296,288,64312,1,0
488,256,64406,1,0
448,232,64500,1,0
488,208,64593,1,0
448,184,64687,1,0
160,264,64781,1,0
120,240,64875,1,0
160,216,64968,1,0
120,192,65062,1,0
312,224,65156,1,0
280,192,65250,1,0
248,160,65343,1,0
232,120,65437,1,0
232,80,65531,1,0
248,40,65625,1,0
272,8,65718,1,0
312,104,65812,1,0
360,104,65906,1,0
472,344,66000,5,10
432,344,66093,1,0
392,344,66187,1,0
352,344,66281,1,0
312,344,66375,1,0
272,344,66468,1,0
232,344,66562,1,0
192,344,66656,1,0
216,296,66750,5,10
256,296,66843,1,0
296,296,66937,1,0
336,296,67031,1,0
376,296,67125,1,0
416,296,67218,1,0
456,296,67312,1,0
496,296,67406,1,0
392,208,67500,5,10
208,208,67687,1,10
304,120,67875,1,10
120,120,68062,1,10
448,40,68250,1,10
24,32,68531,1,10
152,360,68812,1,0
176,328,68906,1,0
448,336,69000,1,10
416,296,69093,1,0
384,256,69187,1,0
352,216,69281,1,0
448,256,69375,1,10
416,216,69468,1,0
384,176,69562,1,0
352,136,69656,1,0
448,168,69750,1,10
416,128,69843,1,0
384,88,69937,1,0
352,48,70031,1,0
448,96,70125,1,10
416,56,70218,1,0
384,16,70312,1,0
344,336,70406,1,0
24,360,70500,5,10
56,320,70593,1,0
88,280,70687,1,0
120,240,70781,1,0
24,296,70875,1,10
56,256,70968,1,0
88,216,71062,1,0
120,176,71156,1,0
24,232,71250,1,10
56,192,71343,1,0
88,152,71437,1,0
120,112,71531,1,0
152,72,71625,1,0
184,32,71718,1,0
224,64,71812,1,0
264,96,71906,1,0
416,312,72000,5,8
448,272,72093,1,8
208,304,72187,1,8
184,264,72281,1,8
416,104,72375,1,8
448,64,72468,1,8
232,192,72562,1,8
208,160,72656,1,8
232,328,72750,1,0
272,304,72843,1,0
232,280,72937,1,0
272,256,73031,1,0
232,232,73125,1,0
272,208,73218,1,0
232,184,73312,1,0
272,160,73406,1,0
128,240,73500,1,10
88,224,73593,1,0
56,192,73687,1,0
40,152,73781,1,0
40,112,73875,1,0
56,72,73968,1,0
80,40,74062,1,0
112,16,74156,1,0
376,232,74250,5,10
408,208,74343,1,0
432,176,74437,1,0
448,136,74531,1,0
448,96,74625,1,0
432,56,74718,1,0
400,24,74812,1,0
368,0,74906,1,0
192,320,75000,1,8
224,280,75093,1,0
256,248,75187,1,0
184,224,75281,1,8
216,192,75375,1,0
248,160,75468,1,0
168,128,75562,1,8
200,96,75656,1,0
232,56,75750,1,0
208,32,75843,1,8
176,8,75937,1,0
144,24,76031,1,0
112,48,76125,1,8
80,80,76218,1,0
48,112,76312,1,0
48,280,76406,1,0
488,272,76500,5,8
448,256,76593,1,8
488,224,76687,1,8
448,208,76781,1,8
488,184,76875,1,8
448,160,76968,1,8
488,136,77062,1,8
448,112,77156,1,8
408,288,77250,1,8
368,256,77343,1,8
336,224,77437,1,8
296,192,77531,1,8
264,160,77625,1,8
224,128,77718,1,8
192,96,77812,1,8
160,64,77906,1,8
24,352,78000,5,10
56,312,78093,1,0
80,272,78187,1,0
104,232,78281,1,0
128,192,78375,1,0
152,152,78468,1,0
192,360,78562,1,0
224,320,78656,1,0
504,200,78750,5,10
480,160,78843,1,0
456,120,78937,1,0
432,80,79031,1,0
408,40,79125,1,0
376,8,79218,1,0
344,224,79312,1,0
320,184,79406,1,0
184,224,79500,1,8
344,120,79687,1,8
184,64,79875,1,8
336,288,80062,1,8
264,168,80250,1,8
40,168,80531,1,8
416,272,80812,1,0
384,240,80906,1,0
104,296,81000,1,0
136,264,81093,1,0
416,168,81187,1,0
392,136,81281,1,0
104,120,81375,1,0
136,88,81468,1,0
264,80,81562,1,0
264,40,81656,1,0
304,280,81750,1,0
304,240,81843,1,0
192,96,81937,1,0
192,64,82031,1,0
304,112,82125,1,0
304,72,82218,1,0
200,280,82312,1,0
200,240,82406,1,0
256,352,82500,1,0
256,320,82593,1,0
256,288,82687,1,0
256,256,82781,1,0
256,320,82874,1,0
256,224,82875,1,0
256,192,82968,1,0
256,160,83062,1,0
256,128,83156,1,0
184,224,83250,1,0
184,184,83343,1,0
328,224,83437,1,0
328,184,83531,1,0
216,112,83625,1,0
216,72,83718,1,0
296,112,83812,1,0
296,72,83906,1,0
16,352,84000,5,10
40,312,84093,1,0
64,272,84187,1,0
88,232,84281,1,0
496,360,84375,1,10
480,320,84468,1,0
464,280,84562,1,0
448,240,84656,1,0
16,232,84750,1,10
40,192,84843,1,0
56,152,84937,1,0
80,112,85031,1,0
504,240,85125,1,10
488,200,85218,1,0
464,160,85312,1,0
448,120,85406,1,0
328,304,85500,1,0
256,272,85593,1,0
184,240,85687,1,0
256,200,85781,1,0
328,168,85875,1,0
256,128,85968,1,0
192,96,86062,1,0
256,56,86156,1,0
320,96,86250,1,0
376,128,86343,1,0
416,176,86437,1,0
440,232,86531,1,0
464,288,86625,1,0
448,336,86718,1,0
400,360,86812,1,0
352,368,86906,1,0
16,352,87000,5,10
56,320,87093,1,0
96,288,87187,1,0
56,256,87281,1,0
16,224,87375,1,0
56,192,87468,1,0
96,160,87562,1,0
56,128,87656,1,0
16,96,87750,1,0
56,64,87843,1,0
96,32,87937,1,0
136,352,88031,1,0
176,320,88125,1,0
216,288,88218,1,0
256,256,88312,1,0
296,224,88406,1,0
488,296,88500,5,10
488,248,88593,1,0
488,200,88687,1,0
488,152,88781,1,0
488,104,88875,1,0
488,56,88968,1,0
488,8,89062,1,0
488,344,89156,1,0
288,168,89250,5,8
240,152,89343,1,8
288,120,89437,1,8
240,104,89531,1,8
288,72,89625,1,8
240,56,89718,1,8
288,24,89812,1,8
240,8,89906,1,8
88,344,90000,5,10
40,312,90093,1,0
88,256,90187,1,0
128,224,90281,1,0
88,168,90375,1,0
48,144,90468,1,0
88,96,90562,1,0
128,64,90656,1,0
440,352,90750,1,10
480,320,90843,1,0
440,264,90937,1,0
400,232,91031,1,0
448,176,91125,1,0
488,152,91218,1,0
448,96,91312,1,0
408,64,91406,1,0
304,312,91500,1,8
184,264,91687,1,8
304,208,91875,1,8
184,160,92062,1,8
304,104,92250,1,8
184,48,92531,1,8
16,256,92812,1,0
48,224,92906,1,0
496,128,93000,5,0
464,96,93093,1,0
432,64,93187,1,0
400,32,93281,1,0
176,360,93375,1,0
208,328,93468,1,0
240,296,93562,1,0
272,264,93656,1,0
336,192,93750,1,0
304,152,93843,1,0
272,112,93937,1,0
248,72,94031,1,0
0,320,94125,1,0
32,288,94218,1,0
64,256,94312,1,0
96,224,94406,1,0
456,296,94500,1,0
416,280,94593,1,0
456,256,94687,1,0
416,232,94781,1,0
456,208,94875,1,0
416,184,94968,1,0
456,160,95062,1,0
416,136,95156,1,0
160,312,95250,1,0
200,288,95343,1,0
160,264,95437,1,0
200,240,95531,1,0
160,216,95625,1,0
200,192,95718,1,0
160,168,95812,1,0
200,144,95906,1,0
336,320,96000,5,10
336,280,96093,1,0
336,240,96187,1,0
336,200,96281,1,0
88,328,96375,1,10
88,288,96468,1,0
88,248,96562,1,0
88,208,96656,1,0
248,328,96750,1,10
248,288,96843,1,0
248,248,96937,1,0
248,208,97031,1,0
488,320,97125,1,2
488,280,97218,1,0
488,240,97312,1,0
488,200,97406,1,0
248,120,97500,1,8
272,88,97593,1,8
296,56,97687,1,8
312,88,97781,1,8
440,112,97875,1,8
416,88,97968,1,8
392,56,98062,1,8
368,88,98156,1,8
112,184,98250,1,8
136,152,98343,1,8
160,120,98437,1,8
176,152,98531,1,8
440,184,98625,1,8
416,160,98718,1,8
392,128,98812,1,8
368,160,98906,1,8
240,328,99000,5,0
240,288,99093,1,0
240,248,99187,1,0
240,216,99281,1,0
296,328,99375,1,0
296,288,99468,1,0
296,248,99562,1,0
296,216,99656,1,0
176,328,99750,1,0
176,288,99843,1,0
176,248,99937,1,0
176,216,100031,1,0
360,328,100125,1,0
360,288,100218,1,0
360,248,100312,1,0
360,208,100406,1,0
112,328,100500,1,0
112,288,100593,1,0
112,248,100687,1,0
112,216,100781,1,0
424,328,100875,1,0
424,288,100968,1,0
424,248,101062,1,0
424,208,101156,1,0
48,328,101250,1,0
48,288,101343,1,0
48,248,101437,1,0
48,208,101531,1,0
272,320,101625,1,8
240,304,101718,1,8
272,280,101812,1,8
240,264,101906,1,8
360,208,102000,5,10
168,152,102562,1,10
360,96,103125,1,10
256,256,104062,1,8
200,192,104250,1,8
312,160,104437,1,8
152,120,104625,1,8
360,80,104812,1,8
256,16,105000,1,8
256,336,105562,1,8
192,288,105750,1,8
304,256,105937,1,8
152,224,106125,1,8
352,192,106312,1,8
256,96,106500,1,8
256,192,107250,1,0
456,192,108000,5,10
56,192,108562,1,10
456,120,109125,1,10
152,272,110062,1,8
360,240,110250,1,8
192,200,110437,1,8
312,176,110625,1,8
256,128,110812,1,8
256,32,111000,1,12
160,336,111562,1,8
352,304,111750,1,8
200,272,111937,1,8
296,256,112125,1,8
248,192,112312,1,8
256,80,112500,1,12
256,136,113250,5,8
256,200,114000,1,8
256,192,114093,12,4,117000
