osu file format v14

[General]
AudioFilename: Happy+Solo+Chrismas_238096041_soundcloud.mp3
AudioLeadIn: 0
PreviewTime: -1
Countdown: 0
SampleSet: Normal
StackLeniency: 0.7
Mode: 1
LetterboxInBreaks: 0
WidescreenStoryboard: 0

[Editor]
DistanceSpacing: 1.3
BeatDivisor: 4
GridSize: 4
TimelineZoom: 1

[Metadata]
Title:Happy Solo Christmas
TitleUnicode:Happy Solo Christmas
Artist:Memme
ArtistUnicode:Memme
Creator:agu
Version:Kantan
Source:O2JAM
Tags:Chiptune Christmas Chromoxx
BeatmapID:862198
BeatmapSetID:396286

[Difficulty]
HPDrainRate:8
CircleSize:5
OverallDifficulty:3
ApproachRate:5
SliderMultiplier:1.4
SliderTickRate:1

[Events]
//Background and Video events
//Break Periods
//Storyboard Layer 0 (Background)
//Storyboard Layer 1 (Fail)
//Storyboard Layer 2 (Pass)
//Storyboard Layer 3 (Foreground)
//Storyboard Sound Samples

[TimingPoints]
1760,428.571428571429,4,1,0,90,1,0
29188,-100,4,1,0,90,0,1
42902,-100,4,1,0,90,0,0
56402,-100,4,1,0,90,0,1
76974,-100,4,1,0,90,0,0

[HitObjects]
216,260,1760,5,8,0:0:0:0:
216,260,3045,1,0,0:0:0:0:
216,260,3474,1,8,0:0:0:0:
216,260,4760,1,8,0:0:0:0:
216,260,5188,1,0,0:0:0:0:
216,260,6045,1,0,0:0:0:0:
216,260,6902,1,8,0:0:0:0:
190,260,7760,1,8,0:0:0:0:
216,260,8617,1,0,0:0:0:0:
216,260,9902,1,0,0:0:0:0:
216,260,10331,1,8,0:0:0:0:
196,256,11617,1,8,0:0:0:0:
196,256,12045,1,0,0:0:0:0:
196,256,12902,1,0,0:0:0:0:
196,256,13760,1,8,0:0:0:0:
196,256,14617,1,0,0:0:0:0:
196,256,15045,1,0,0:0:0:0:
196,256,15474,1,8,0:0:0:0:
196,256,16331,1,0,0:0:0:0:
196,256,16974,1,0,0:0:0:0:
196,256,18045,1,0,0:0:0:0:
196,256,18474,1,0,0:0:0:0:
196,256,18902,1,8,0:0:0:0:
196,256,19760,1,0,0:0:0:0:
196,256,21045,1,8,0:0:0:0:
196,256,21474,1,0,0:0:0:0:
196,256,22331,1,8,0:0:0:0:
196,256,23188,1,0,0:0:0:0:
196,256,23831,1,0,0:0:0:0:
196,256,24474,1,8,0:0:0:0:
196,256,24902,1,0,0:0:0:0:
196,256,25760,1,8,0:0:0:0:
196,256,26617,1,8,0:0:0:0:
196,256,27260,1,0,0:0:0:0:
196,256,27902,1,8,0:0:0:0:
204,280,28760,1,8,0:0:0:0:
196,256,29188,1,0,0:0:0:0:
196,256,29617,1,8,0:0:0:0:
196,256,30474,1,8,0:0:0:0:
196,256,31331,1,8,0:0:0:0:
196,256,32188,1,8,0:0:0:0:
196,256,32617,1,0,0:0:0:0:
204,280,33045,1,8,0:0:0:0:
204,280,33902,1,8,0:0:0:0:
204,280,34760,1,8,0:0:0:0:
204,280,35617,1,8,0:0:0:0:
204,280,36045,1,0,0:0:0:0:
204,280,36474,1,8,0:0:0:0:
204,280,37331,1,8,0:0:0:0:
204,280,38188,1,8,0:0:0:0:
204,280,39045,1,8,0:0:0:0:
204,280,39474,1,0,0:0:0:0:
204,280,39902,1,8,0:0:0:0:
204,280,40760,1,8,0:0:0:0:
204,280,41617,1,8,0:0:0:0:
204,280,42474,1,8,0:0:0:0:
204,280,42902,1,0,0:0:0:0:
204,280,43331,1,8,0:0:0:0:
204,280,44188,1,8,0:0:0:0:
204,280,44617,1,0,0:0:0:0:
204,280,45474,1,0,0:0:0:0:
204,280,46331,1,0,0:0:0:0:
204,280,46760,1,0,0:0:0:0:
204,280,47188,1,8,0:0:0:0:
204,280,48045,1,0,0:0:0:0:
204,280,48795,1,0,0:0:0:0:
204,280,49652,1,0,0:0:0:0:
404,368,50188,1,8,0:0:0:0:
244,296,51045,1,8,0:0:0:0:
244,296,51474,1,0,0:0:0:0:
220,328,52331,1,0,0:0:0:0:
220,328,53188,1,0,0:0:0:0:
220,328,53617,1,8,0:0:0:0:
220,328,54474,1,8,0:0:0:0:
220,328,54902,1,0,0:0:0:0:
220,328,55974,1,8,0:0:0:0:
220,328,56402,1,0,0:0:0:0:
220,328,57045,1,8,0:0:0:0:
220,328,57902,1,8,0:0:0:0:
202,146,58331,1,0,0:0:0:0:
220,328,58760,1,8,0:0:0:0:
220,328,59617,1,8,0:0:0:0:
220,328,60474,1,8,0:0:0:0:
224,328,61331,1,8,0:0:0:0:
224,328,61760,1,0,0:0:0:0:
224,328,62188,1,0,0:0:0:0:
224,328,62617,1,0,0:0:0:0:
224,328,63045,1,8,0:0:0:0:
224,328,63902,1,8,0:0:0:0:
224,328,64760,1,8,0:0:0:0:
224,328,65188,1,0,0:0:0:0:
224,328,65617,1,8,0:0:0:0:
224,328,66474,1,8,0:0:0:0:
224,328,67331,1,8,0:0:0:0:
224,328,67760,1,0,0:0:0:0:
224,328,68188,1,8,0:0:0:0:
224,328,69045,1,8,0:0:0:0:
224,328,69902,1,8,0:0:0:0:
228,156,70331,1,0,0:0:0:0:
224,328,70760,1,8,0:0:0:0:
224,328,71617,1,8,0:0:0:0:
224,328,72474,1,8,0:0:0:0:
224,328,73331,1,8,0:0:0:0:
224,328,74188,1,8,0:0:0:0:
224,328,74617,1,0,0:0:0:0:
224,328,75260,1,8,0:0:0:0:
224,328,75902,1,8,0:0:0:0:
224,328,76331,1,8,0:0:0:0:
224,328,76974,1,8,0:0:0:0:
224,328,78902,1,8,0:0:0:0:
224,328,79974,1,0,0:0:0:0:
224,328,80617,1,8,0:0:0:0:
224,328,81902,1,8,0:0:0:0:
224,328,82331,1,0,0:0:0:0:
228,320,83188,1,0,0:0:0:0:
224,328,84045,1,8,0:0:0:0:
228,320,84902,1,8,0:0:0:0:
228,340,85331,1,8,0:0:0:0:
224,328,85760,1,0,0:0:0:0:
224,328,87474,1,0,0:0:0:0:
224,328,89188,1,0,0:0:0:0:
224,328,90045,1,0,0:0:0:0:
224,328,90902,1,0,0:0:0:0:
