osu file format v13

[General]
AudioFilename: Gold Town.mp3
AudioLeadIn: 0
PreviewTime: 35894
Countdown: 0
SampleSet: None
StackLeniency: 0.7
Mode: 1
LetterboxInBreaks: 0
WidescreenStoryboard: 0

[Editor]
DistanceSpacing: 1.2
BeatDivisor: 4
GridSize: 32
TimelineZoom: 3.099999

[Metadata]
Title:Gold Town
TitleUnicode:Gold Town
Artist:Memme
ArtistUnicode:Memme
Creator:TKS
Version:Futsuu
Source:Rhythm Master
Tags:ParkMemme 节奏大师 節奏大師 黃金之城 黄金之城 azger
BeatmapID:490531
BeatmapSetID:208286

[Difficulty]
HPDrainRate:5
CircleSize:5
OverallDifficulty:4
ApproachRate:5
SliderMultiplier:1.2
SliderTickRate:1

[Events]
//Background and Video events
0,0,"bg.png",0,0
//Break Periods
//Storyboard Layer 0 (Background)
//Storyboard Layer 1 (Fail)
//Storyboard Layer 2 (Pass)
//Storyboard Layer 3 (Foreground)
//Storyboard Sound Samples
//Background Colour Transformations
3,100,163,162,255

[TimingPoints]
1582,375,4,1,0,80,1,0
6082,-100,4,1,0,90,0,0
30082,-100,4,1,0,75,0,0
34582,-100,4,1,0,80,0,0
36082,-100,4,1,0,90,0,1
60082,-100,4,1,0,90,0,0
72082,-100,4,1,0,75,0,0
72175,-100,4,1,0,60,0,0
78082,-100,4,1,0,75,0,0
84082,-100,4,1,0,90,0,1
108082,-100,4,1,0,90,0,0
120019,-100,4,1,0,60,0,0

[HitObjects]
256,192,1582,5,12,0:0:0:0:
256,192,2332,1,0,0:0:0:0:
256,192,2894,1,4,0:0:0:0:
256,192,3832,1,0,0:0:0:0:
256,192,4207,1,8,0:0:0:0:
256,192,4582,1,0,0:0:0:0:
256,192,5332,1,0,0:0:0:0:
256,192,5707,1,8,0:0:0:0:
256,192,5894,1,8,0:0:0:0:
256,192,6082,1,4,0:0:0:0:
256,192,6832,1,0,0:0:0:0:
256,192,7207,1,8,0:0:0:0:
256,192,7582,1,8,0:0:0:0:
256,192,8332,1,8,0:0:0:0:
256,192,8613,1,8,0:0:0:0:
256,192,8894,1,8,0:0:0:0:
256,192,9082,1,0,0:0:0:0:
256,192,9832,1,0,0:0:0:0:
256,192,10207,1,8,0:0:0:0:
256,192,10582,1,4,0:0:0:0:
256,192,11332,1,8,0:0:0:0:
256,192,11613,1,8,0:0:0:0:
256,192,11894,1,8,0:0:0:0:
256,192,12082,1,4,0:0:0:0:
256,192,12832,1,0,0:0:0:0:
256,192,13207,1,8,0:0:0:0:
256,192,13582,1,8,0:0:0:0:
256,192,14332,1,8,0:0:0:0:
256,192,14613,1,8,0:0:0:0:
256,192,14894,1,8,0:0:0:0:
256,192,15082,1,0,0:0:0:0:
256,192,15832,1,0,0:0:0:0:
256,192,16207,1,8,0:0:0:0:
256,192,16582,1,0,0:0:0:0:
256,192,17332,1,12,0:0:0:0:
256,192,17707,1,12,0:0:0:0:
256,192,18082,1,4,0:0:0:0:
256,192,18832,1,0,0:0:0:0:
256,192,19019,1,0,0:0:0:0:
256,192,19207,1,8,0:0:0:0:
256,192,19582,1,0,0:0:0:0:
256,192,19957,1,8,0:0:0:0:
256,192,20144,1,8,0:0:0:0:
256,192,20332,1,0,0:0:0:0:
256,192,20707,1,8,0:0:0:0:
256,192,21082,1,0,0:0:0:0:
256,192,21832,1,0,0:0:0:0:
256,192,22019,1,0,0:0:0:0:
256,192,22207,1,8,0:0:0:0:
256,192,22582,1,4,0:0:0:0:
256,192,23332,1,8,0:0:0:0:
256,192,23613,1,8,0:0:0:0:
256,192,23894,1,8,0:0:0:0:
256,192,24082,1,4,0:0:0:0:
256,192,24832,1,0,0:0:0:0:
256,192,25019,1,0,0:0:0:0:
256,192,25207,1,8,0:0:0:0:
256,192,25582,1,0,0:0:0:0:
256,192,25957,1,8,0:0:0:0:
256,192,26144,1,8,0:0:0:0:
256,192,26332,1,0,0:0:0:0:
256,192,26707,1,8,0:0:0:0:
256,192,27082,1,0,0:0:0:0:
256,192,27832,1,8,0:0:0:0:
256,192,28113,1,8,0:0:0:0:
256,192,28394,1,8,0:0:0:0:
256,192,28582,1,0,0:0:0:0:
256,192,28863,1,0,0:0:0:0:
256,192,29144,1,0,0:0:0:0:
256,192,29425,1,0,0:0:0:0:
256,192,29707,1,8,0:0:0:0:
256,192,29894,1,8,0:0:0:0:
256,192,30082,1,4,0:0:0:0:
256,192,30644,1,0,0:0:0:0:
256,192,31019,1,0,0:0:0:0:
256,192,31207,1,8,0:0:0:0:
256,192,31582,1,0,0:0:0:0:
256,192,32144,1,0,0:0:0:0:
256,192,32519,1,0,0:0:0:0:
256,192,32707,1,8,0:0:0:0:
256,192,33082,1,0,0:0:0:0:
256,192,33644,1,0,0:0:0:0:
256,192,34019,1,0,0:0:0:0:
256,192,34207,1,8,0:0:0:0:
256,192,34582,1,4,0:0:0:0:
256,192,34863,1,4,0:0:0:0:
256,192,35144,1,4,0:0:0:0:
256,192,36082,1,4,0:0:0:0:
256,192,36457,1,8,0:0:0:0:
256,192,36644,1,0,0:0:0:0:
256,192,37019,1,0,0:0:0:0:
256,192,37207,1,8,0:0:0:0:
256,192,37394,1,8,0:0:0:0:
256,192,37582,1,0,0:0:0:0:
256,192,37957,1,8,0:0:0:0:
256,192,38332,1,0,0:0:0:0:
256,192,38519,1,0,0:0:0:0:
256,192,38707,1,8,0:0:0:0:
256,192,39082,1,0,0:0:0:0:
256,192,39457,1,8,0:0:0:0:
256,192,39644,1,0,0:0:0:0:
256,192,40019,1,0,0:0:0:0:
256,192,40207,1,8,0:0:0:0:
256,192,40394,1,0,0:0:0:0:
256,192,40582,1,0,0:0:0:0:
256,192,40957,1,8,0:0:0:0:
256,192,41332,1,0,0:0:0:0:
256,192,41519,1,0,0:0:0:0:
256,192,41707,1,8,0:0:0:0:
256,192,42082,1,0,0:0:0:0:
256,192,42457,1,8,0:0:0:0:
256,192,42644,1,0,0:0:0:0:
256,192,43207,1,8,0:0:0:0:
256,192,43582,1,0,0:0:0:0:
256,192,43957,1,8,0:0:0:0:
256,192,44144,1,0,0:0:0:0:
256,192,44707,1,8,0:0:0:0:
256,192,45082,1,4,0:0:0:0:
256,192,45457,1,0,0:0:0:0:
256,192,45832,1,12,0:0:0:0:
256,192,46207,1,8,0:0:0:0:
256,192,46582,1,4,0:0:0:0:
256,192,46957,1,12,0:0:0:0:
256,192,47332,1,0,0:0:0:0:
256,192,47707,1,8,0:0:0:0:
256,192,47894,1,8,0:0:0:0:
256,192,48082,1,4,0:0:0:0:
256,192,48457,1,8,0:0:0:0:
256,192,48644,1,0,0:0:0:0:
256,192,48832,1,0,0:0:0:0:
256,192,49207,1,8,0:0:0:0:
256,192,49394,1,8,0:0:0:0:
256,192,49769,1,0,0:0:0:0:
256,192,49957,1,8,0:0:0:0:
256,192,50144,1,0,0:0:0:0:
256,192,50332,1,0,0:0:0:0:
256,192,50707,1,8,0:0:0:0:
256,192,51082,1,0,0:0:0:0:
256,192,51457,1,8,0:0:0:0:
256,192,51644,1,0,0:0:0:0:
256,192,51832,1,0,0:0:0:0:
256,192,52207,1,8,0:0:0:0:
256,192,52394,1,8,0:0:0:0:
256,192,52769,1,0,0:0:0:0:
256,192,52957,1,8,0:0:0:0:
256,192,53144,1,8,0:0:0:0:
256,192,53332,1,0,0:0:0:0:
256,192,53707,1,8,0:0:0:0:
256,192,54082,1,4,0:0:0:0:
256,192,54457,1,8,0:0:0:0:
256,192,54644,1,8,0:0:0:0:
256,192,55019,1,0,0:0:0:0:
256,192,55207,1,8,0:0:0:0:
256,192,55582,1,4,0:0:0:0:
256,192,55957,1,0,0:0:0:0:
256,192,56144,1,0,0:0:0:0:
256,192,56519,1,0,0:0:0:0:
256,192,56707,1,8,0:0:0:0:
256,192,57082,1,12,0:0:0:0:
256,192,57457,1,0,0:0:0:0:
256,192,57644,1,0,0:0:0:0:
256,192,57832,1,12,0:0:0:0:
256,192,58207,1,8,0:0:0:0:
256,192,58394,1,8,0:0:0:0:
256,192,58582,1,4,0:0:0:0:
256,192,58863,1,4,0:0:0:0:
256,192,59144,1,4,0:0:0:0:
256,192,59707,1,12,0:0:0:0:
256,192,60082,1,4,0:0:0:0:
256,192,60832,1,0,0:0:0:0:
256,192,61019,1,0,0:0:0:0:
256,192,61207,1,8,0:0:0:0:
256,192,61582,1,0,0:0:0:0:
256,192,61957,1,8,0:0:0:0:
256,192,62144,1,8,0:0:0:0:
256,192,62332,1,0,0:0:0:0:
256,192,62707,1,8,0:0:0:0:
256,192,63082,1,0,0:0:0:0:
256,192,63832,1,0,0:0:0:0:
256,192,64019,1,0,0:0:0:0:
256,192,64207,1,8,0:0:0:0:
256,192,64582,1,4,0:0:0:0:
256,192,65332,1,8,0:0:0:0:
256,192,65613,1,8,0:0:0:0:
256,192,65894,1,8,0:0:0:0:
256,192,66082,1,4,0:0:0:0:
256,192,66832,1,0,0:0:0:0:
256,192,67019,1,0,0:0:0:0:
256,192,67207,1,8,0:0:0:0:
256,192,67582,1,0,0:0:0:0:
256,192,67957,1,8,0:0:0:0:
256,192,68144,1,8,0:0:0:0:
256,192,68332,1,0,0:0:0:0:
256,192,68707,1,8,0:0:0:0:
256,192,69082,1,0,0:0:0:0:
256,192,69832,1,8,0:0:0:0:
256,192,70113,1,8,0:0:0:0:
256,192,70394,1,8,0:0:0:0:
256,192,70582,1,0,0:0:0:0:
256,192,70863,1,0,0:0:0:0:
256,192,71144,1,0,0:0:0:0:
256,192,71425,1,0,0:0:0:0:
256,192,71707,1,8,0:0:0:0:
256,192,71894,1,8,0:0:0:0:
256,192,72082,1,4,0:0:0:0:
256,192,72832,1,8,0:0:0:0:
256,192,73207,1,8,0:0:0:0:
256,192,73582,1,0,0:0:0:0:
256,192,74332,1,8,0:0:0:0:
256,192,75082,1,0,0:0:0:0:
256,192,75832,1,8,0:0:0:0:
256,192,76207,1,0,0:0:0:0:
256,192,76582,1,0,0:0:0:0:
256,192,77332,1,8,0:0:0:0:
256,192,77707,1,8,0:0:0:0:
256,192,78082,1,4,0:0:0:0:
256,192,78644,1,0,0:0:0:0:
256,192,79019,1,0,0:0:0:0:
256,192,79207,1,8,0:0:0:0:
256,192,79582,1,0,0:0:0:0:
256,192,79957,1,8,0:0:0:0:
256,192,80144,1,0,0:0:0:0:
256,192,80519,1,0,0:0:0:0:
256,192,80707,1,8,0:0:0:0:
256,192,81082,1,0,0:0:0:0:
256,192,81644,1,0,0:0:0:0:
256,192,82019,1,0,0:0:0:0:
256,192,82207,1,8,0:0:0:0:
256,192,82582,1,0,0:0:0:0:
256,192,82863,1,0,0:0:0:0:
256,192,83144,1,0,0:0:0:0:
256,192,83332,1,8,0:0:0:0:
256,192,83613,1,8,0:0:0:0:
256,192,83894,1,8,0:0:0:0:
256,192,84082,1,4,0:0:0:0:
256,192,84457,1,8,0:0:0:0:
256,192,84832,1,0,0:0:0:0:
256,192,85019,1,0,0:0:0:0:
256,192,85207,1,8,0:0:0:0:
256,192,85582,1,0,0:0:0:0:
256,192,85957,1,8,0:0:0:0:
256,192,86144,1,8,0:0:0:0:
256,192,86332,1,0,0:0:0:0:
256,192,86707,1,8,0:0:0:0:
256,192,87082,1,0,0:0:0:0:
256,192,87457,1,8,0:0:0:0:
256,192,87832,1,0,0:0:0:0:
256,192,88019,1,0,0:0:0:0:
256,192,88207,1,8,0:0:0:0:
256,192,88582,1,0,0:0:0:0:
256,192,88769,1,8,0:0:0:0:
256,192,89144,1,8,0:0:0:0:
256,192,89332,1,0,0:0:0:0:
256,192,89707,1,8,0:0:0:0:
256,192,90082,1,4,0:0:0:0:
256,192,90457,1,8,0:0:0:0:
256,192,90832,1,0,0:0:0:0:
256,192,91019,1,0,0:0:0:0:
256,192,91207,1,8,0:0:0:0:
256,192,91582,1,0,0:0:0:0:
256,192,91957,1,8,0:0:0:0:
256,192,92144,1,8,0:0:0:0:
256,192,92332,1,0,0:0:0:0:
256,192,92707,1,8,0:0:0:0:
256,192,93082,1,0,0:0:0:0:
256,192,93457,1,8,0:0:0:0:
256,192,93832,1,0,0:0:0:0:
256,192,94019,1,0,0:0:0:0:
256,192,94207,1,8,0:0:0:0:
256,192,94582,1,0,0:0:0:0:
256,192,94957,1,8,0:0:0:0:
256,192,95144,1,8,0:0:0:0:
256,192,95332,1,0,0:0:0:0:
256,192,95519,1,0,0:0:0:0:
256,192,95707,1,8,0:0:0:0:
256,192,96082,1,4,0:0:0:0:
256,192,96457,1,8,0:0:0:0:
256,192,96644,1,0,0:0:0:0:
256,192,97019,1,0,0:0:0:0:
256,192,97207,1,8,0:0:0:0:
256,192,97582,1,0,0:0:0:0:
256,192,97769,1,0,0:0:0:0:
256,192,97957,1,8,0:0:0:0:
256,192,98144,1,8,0:0:0:0:
256,192,98332,1,0,0:0:0:0:
256,192,98707,1,8,0:0:0:0:
256,192,99082,1,0,0:0:0:0:
256,192,99457,1,8,0:0:0:0:
256,192,99644,1,0,0:0:0:0:
256,192,100019,1,0,0:0:0:0:
256,192,100207,1,8,0:0:0:0:
256,192,100582,1,0,0:0:0:0:
256,192,100769,1,8,0:0:0:0:
256,192,100957,1,0,0:0:0:0:
256,192,101144,1,8,0:0:0:0:
256,192,101332,1,0,0:0:0:0:
256,192,101707,1,8,0:0:0:0:
256,192,102082,1,4,0:0:0:0:
256,192,102457,1,8,0:0:0:0:
256,192,102644,1,0,0:0:0:0:
256,192,103019,1,0,0:0:0:0:
256,192,103207,1,8,0:0:0:0:
256,192,103582,1,0,0:0:0:0:
256,192,103769,1,0,0:0:0:0:
256,192,103957,1,8,0:0:0:0:
256,192,104144,1,0,0:0:0:0:
256,192,104332,1,8,0:0:0:0:
256,192,104707,1,8,0:0:0:0:
256,192,105082,1,4,0:0:0:0:
256,192,105644,1,4,0:0:0:0:
256,192,106207,1,4,0:0:0:0:
256,192,106769,1,4,0:0:0:0:
256,192,107332,1,0,0:0:0:0:
256,192,107707,1,8,0:0:0:0:
256,192,107894,1,8,0:0:0:0:
256,192,108082,1,4,0:0:0:0:
256,192,108832,1,0,0:0:0:0:
256,192,109019,1,0,0:0:0:0:
256,192,109207,1,8,0:0:0:0:
256,192,109582,1,0,0:0:0:0:
256,192,110332,1,0,0:0:0:0:
256,192,110707,1,8,0:0:0:0:
256,192,111082,1,0,0:0:0:0:
256,192,111832,1,0,0:0:0:0:
256,192,112019,1,0,0:0:0:0:
256,192,112207,1,8,0:0:0:0:
256,192,112582,1,4,0:0:0:0:
256,192,113332,1,8,0:0:0:0:
256,192,113613,1,8,0:0:0:0:
256,192,113894,1,8,0:0:0:0:
256,192,114082,1,4,0:0:0:0:
256,192,114832,1,0,0:0:0:0:
256,192,115019,1,0,0:0:0:0:
256,192,115207,1,8,0:0:0:0:
256,192,115582,1,12,0:0:0:0:
256,192,116332,1,0,0:0:0:0:
256,192,116519,1,0,0:0:0:0:
256,192,116707,1,8,0:0:0:0:
256,192,117082,1,0,0:0:0:0:
256,192,117832,1,8,0:0:0:0:
256,192,118113,1,8,0:0:0:0:
256,192,118394,1,8,0:0:0:0:
256,192,118582,1,0,0:0:0:0:
256,192,118863,1,0,0:0:0:0:
256,192,119144,1,0,0:0:0:0:
256,192,119425,1,0,0:0:0:0:
256,192,119707,1,8,0:0:0:0:
256,192,119894,1,8,0:0:0:0:
256,192,120082,12,0,123457,0:0:0:0:
