osu file format v13

[General]
AudioFilename: Extreme Fantasy Survival.mp3
AudioLeadIn: 0
PreviewTime: 50720
Countdown: 0
SampleSet: Normal
StackLeniency: 0.7
Mode: 3
LetterboxInBreaks: 0
SpecialStyle: 1
WidescreenStoryboard: 1

[Editor]
DistanceSpacing: 1.2
BeatDivisor: 4
GridSize: 4
TimelineZoom: 0.9

[Metadata]
Title:Extreme Fantasy Survival
TitleUnicode:Extreme Fantasy Survival
Artist:Memme
ArtistUnicode:Memme
Creator:jamesalegre15
Version:9K HD
Source:BMS
Tags:arcwin eternalie 1K 2K 3K 9K 10K memme dubstep
BeatmapID:536737
BeatmapSetID:220543

[Difficulty]
HPDrainRate:7
CircleSize:9
OverallDifficulty:7
ApproachRate:5
SliderMultiplier:1.4
SliderTickRate:1

[Events]
//Background and Video events
0,0,"0097.jpg",0,0
//Break Periods
//Storyboard Layer 0 (Background)
//Storyboard Layer 1 (Fail)
//Storyboard Layer 2 (Pass)
//Storyboard Layer 3 (Foreground)
//Storyboard Sound Samples
//Background Colour Transformations
3,100,163,162,255

[TimingPoints]
4734,394.736842105263,4,1,0,50,1,0
146444,-400,4,1,0,50,0,0

[HitObjects]
256,192,3155,128,0,4734:0:0:0:0:
85,192,3549,1,0,0:0:0:0:
426,192,3549,1,0,0:0:0:0:
142,192,3747,1,0,0:0:0:0:
369,192,3747,1,0,0:0:0:0:
199,192,3944,1,0,0:0:0:0:
312,192,3944,1,0,0:0:0:0:
142,192,4141,1,0,0:0:0:0:
369,192,4141,1,0,0:0:0:0:
85,192,4339,1,0,0:0:0:0:
426,192,4339,1,0,0:0:0:0:
142,192,4536,1,0,0:0:0:0:
369,192,4536,1,0,0:0:0:0:
28,192,4734,5,0,0:0:0:0:
483,192,4734,1,0,0:0:0:0:
199,192,4734,1,0,0:0:0:0:
312,192,4734,1,0,0:0:0:0:
369,192,5128,128,0,5523:0:0:0:0:
142,192,5128,128,0,5523:0:0:0:0:
199,192,5523,128,0,5918:0:0:0:0:
312,192,5523,128,0,5918:0:0:0:0:
28,192,5918,1,0,0:0:0:0:
256,192,5918,128,0,6312:0:0:0:0:
483,192,5918,1,0,0:0:0:0:
28,192,6312,1,0,0:0:0:0:
483,192,6312,1,0,0:0:0:0:
435,192,6510,1,0,0:0:0:0:
85,192,6510,1,0,0:0:0:0:
142,192,6707,1,0,0:0:0:0:
369,192,6707,1,0,0:0:0:0:
332,192,6905,1,0,0:0:0:0:
199,192,6905,1,0,0:0:0:0:
256,192,7102,1,0,0:0:0:0:
312,192,7299,1,0,0:0:0:0:
199,192,7299,1,0,0:0:0:0:
369,192,7497,1,0,0:0:0:0:
142,192,7497,1,0,0:0:0:0:
76,192,7694,1,0,0:0:0:0:
426,192,7694,1,0,0:0:0:0:
28,192,7891,1,0,0:0:0:0:
483,192,7891,1,0,0:0:0:0:
179,192,8089,1,0,0:0:0:0:
312,192,8089,1,0,0:0:0:0:
256,192,8286,1,0,0:0:0:0:
369,192,8484,1,0,0:0:0:0:
142,192,8484,1,0,0:0:0:0:
256,192,8681,1,0,0:0:0:0:
312,192,8878,1,0,0:0:0:0:
199,192,8878,1,0,0:0:0:0:
256,192,9076,1,0,0:0:0:0:
426,192,9273,1,0,0:0:0:0:
85,192,9273,1,0,0:0:0:0:
256,192,9470,1,0,0:0:0:0:
142,192,9668,1,0,0:0:0:0:
369,192,9668,1,0,0:0:0:0:
256,192,9865,1,0,0:0:0:0:
199,192,10062,1,0,0:0:0:0:
312,192,10062,1,0,0:0:0:0:
256,192,10260,1,0,0:0:0:0:
76,192,10457,1,0,0:0:0:0:
179,192,10457,1,0,0:0:0:0:
312,192,10457,1,0,0:0:0:0:
426,192,10457,1,0,0:0:0:0:
128,192,10655,1,0,0:0:0:0:
230,192,10655,1,0,0:0:0:0:
369,192,10655,1,0,0:0:0:0:
199,192,10852,1,0,0:0:0:0:
312,192,10852,1,0,0:0:0:0:
256,192,11049,1,0,0:0:0:0:
199,192,11247,1,0,0:0:0:0:
312,192,11247,1,0,0:0:0:0:
142,192,11444,1,0,0:0:0:0:
256,192,11444,1,0,0:0:0:0:
369,192,11444,1,0,0:0:0:0:
312,192,11641,1,0,0:0:0:0:
199,192,11641,1,0,0:0:0:0:
85,192,11641,1,0,0:0:0:0:
426,192,11641,1,0,0:0:0:0:
483,192,11839,1,0,0:0:0:0:
426,192,12036,1,0,0:0:0:0:
369,192,12233,1,0,0:0:0:0:
312,192,12431,1,0,0:0:0:0:
256,192,12628,1,0,0:0:0:0:
312,192,12826,1,0,0:0:0:0:
384,192,13023,1,0,0:0:0:0:
435,192,13220,1,0,0:0:0:0:
28,192,13418,1,0,0:0:0:0:
486,192,13418,1,0,0:0:0:0:
76,192,13615,1,0,0:0:0:0:
128,192,13812,1,0,0:0:0:0:
199,192,14010,1,0,0:0:0:0:
256,192,14207,1,0,0:0:0:0:
199,192,14405,1,0,0:0:0:0:
142,192,14602,1,0,0:0:0:0:
85,192,14799,1,0,0:0:0:0:
256,192,14997,1,0,0:0:0:0:
28,192,14997,1,0,0:0:0:0:
312,192,15194,1,0,0:0:0:0:
256,192,15391,1,0,0:0:0:0:
199,192,15589,1,0,0:0:0:0:
256,192,15786,1,0,0:0:0:0:
332,192,15984,1,0,0:0:0:0:
256,192,16181,1,0,0:0:0:0:
199,192,16378,1,0,0:0:0:0:
256,192,16576,1,0,0:0:0:0:
312,192,16773,1,0,0:0:0:0:
256,192,16970,1,0,0:0:0:0:
179,192,17168,1,0,0:0:0:0:
230,192,17365,1,0,0:0:0:0:
25,192,17365,1,0,0:0:0:0:
486,192,17365,1,0,0:0:0:0:
179,192,18154,1,0,0:0:0:0:
332,192,18154,1,0,0:0:0:0:
142,192,18155,1,0,0:0:0:0:
85,192,18155,1,0,0:0:0:0:
369,192,18155,1,0,0:0:0:0:
426,192,18155,1,0,0:0:0:0:
179,192,18352,1,0,0:0:0:0:
332,192,18352,1,0,0:0:0:0:
256,192,18352,1,0,0:0:0:0:
28,192,18352,1,0,0:0:0:0:
483,192,18352,1,0,0:0:0:0:
85,192,18549,128,0,18944:0:0:0:0:
142,192,18549,128,0,18944:0:0:0:0:
369,192,18549,128,0,18944:0:0:0:0:
426,192,18549,128,0,18944:0:0:0:0:
199,192,18944,1,0,0:0:0:0:
312,192,18944,1,0,0:0:0:0:
256,192,18944,128,0,20523:0:0:0:0:
483,192,19141,1,0,0:0:0:0:
28,192,19141,1,0,0:0:0:0:
332,192,19339,1,0,0:0:0:0:
199,192,19339,1,0,0:0:0:0:
199,192,19931,1,0,0:0:0:0:
312,192,19931,1,0,0:0:0:0:
486,192,20128,1,0,0:0:0:0:
28,192,20128,1,0,0:0:0:0:
312,192,20523,128,0,22102:0:0:0:0:
25,192,20720,1,0,0:0:0:0:
142,192,20918,1,0,0:0:0:0:
256,192,21115,1,0,0:0:0:0:
369,192,21214,1,0,0:0:0:0:
486,192,21312,1,0,0:0:0:0:
256,192,21510,1,0,0:0:0:0:
25,192,21707,1,0,0:0:0:0:
483,192,21707,1,0,0:0:0:0:
384,192,21905,1,0,0:0:0:0:
483,192,22102,1,0,0:0:0:0:
426,192,22201,1,0,0:0:0:0:
369,192,22299,1,0,0:0:0:0:
312,192,22398,1,0,0:0:0:0:
256,192,22497,1,0,0:0:0:0:
312,192,22595,1,0,0:0:0:0:
369,192,22694,1,0,0:0:0:0:
426,192,22793,1,0,0:0:0:0:
483,192,22891,1,0,0:0:0:0:
435,192,22990,1,0,0:0:0:0:
369,192,23089,1,0,0:0:0:0:
312,192,23187,1,0,0:0:0:0:
256,192,23286,1,0,0:0:0:0:
312,192,23385,1,0,0:0:0:0:
369,192,23483,1,0,0:0:0:0:
426,192,23582,1,0,0:0:0:0:
483,192,23681,1,0,0:0:0:0:
28,192,23681,1,0,0:0:0:0:
85,192,23780,1,0,0:0:0:0:
142,192,23878,1,0,0:0:0:0:
199,192,23977,1,0,0:0:0:0:
256,192,24076,1,0,0:0:0:0:
199,192,24174,1,0,0:0:0:0:
142,192,24273,1,0,0:0:0:0:
85,192,24372,1,0,0:0:0:0:
25,192,24470,1,0,0:0:0:0:
85,192,24569,1,0,0:0:0:0:
142,192,24668,1,0,0:0:0:0:
199,192,24766,1,0,0:0:0:0:
256,192,24865,1,0,0:0:0:0:
199,192,24964,1,0,0:0:0:0:
142,192,25062,1,0,0:0:0:0:
85,192,25161,1,0,0:0:0:0:
426,192,25260,128,0,25655:0:0:0:0:
486,192,25457,1,0,0:0:0:0:
312,192,25655,128,0,26049:0:0:0:0:
256,192,25852,1,0,0:0:0:0:
85,192,26049,128,0,26444:0:0:0:0:
142,192,26247,1,0,0:0:0:0:
312,192,26444,128,0,26839:0:0:0:0:
281,192,26641,1,0,0:0:0:0:
142,192,26839,128,0,27233:0:0:0:0:
199,192,27036,1,0,0:0:0:0:
369,192,27233,1,0,0:0:0:0:
426,192,27233,128,0,27628:0:0:0:0:
486,192,27628,1,0,0:0:0:0:
199,192,27628,128,0,28023:0:0:0:0:
230,192,27826,1,0,0:0:0:0:
486,192,28023,1,0,0:0:0:0:
312,192,28023,128,0,28418:0:0:0:0:
281,192,28220,1,0,0:0:0:0:
25,192,28418,1,0,0:0:0:0:
486,192,28418,128,0,29997:0:0:0:0:
332,192,28812,1,0,0:0:0:0:
256,192,28812,1,0,0:0:0:0:
199,192,28812,1,0,0:0:0:0:
179,192,29207,1,0,0:0:0:0:
256,192,29207,128,0,29997:0:0:0:0:
142,192,29207,1,0,0:0:0:0:
332,192,29602,1,0,0:0:0:0:
369,192,29602,1,0,0:0:0:0:
435,192,29997,1,0,0:0:0:0:
369,192,29997,1,0,0:0:0:0:
85,192,30391,1,0,0:0:0:0:
142,192,30391,1,0,0:0:0:0:
369,192,30391,1,0,0:0:0:0:
426,192,30391,1,0,0:0:0:0:
179,192,30589,1,0,0:0:0:0:
312,192,30589,1,0,0:0:0:0:
256,192,30786,1,0,0:0:0:0:
142,192,30786,1,0,0:0:0:0:
369,192,30786,1,0,0:0:0:0:
199,192,30983,1,0,0:0:0:0:
312,192,30983,1,0,0:0:0:0:
76,192,31181,1,0,0:0:0:0:
142,192,31181,1,0,0:0:0:0:
369,192,31181,1,0,0:0:0:0:
426,192,31181,1,0,0:0:0:0:
369,192,31576,1,0,0:0:0:0:
435,192,31576,1,0,0:0:0:0:
142,192,31576,1,0,0:0:0:0:
199,192,31576,1,0,0:0:0:0:
85,192,31576,1,0,0:0:0:0:
312,192,31576,1,0,0:0:0:0:
435,192,31970,1,0,0:0:0:0:
369,192,31970,1,0,0:0:0:0:
312,192,31970,1,0,0:0:0:0:
76,192,32365,1,0,0:0:0:0:
142,192,32365,1,0,0:0:0:0:
199,192,32365,1,0,0:0:0:0:
369,192,32760,1,0,0:0:0:0:
426,192,32760,1,0,0:0:0:0:
312,192,32760,1,0,0:0:0:0:
25,192,33155,1,0,0:0:0:0:
312,192,33155,128,0,33549:0:0:0:0:
85,192,33155,1,0,0:0:0:0:
142,192,33253,1,0,0:0:0:0:
142,192,33549,1,0,0:0:0:0:
76,192,33549,1,0,0:0:0:0:
256,192,33549,128,0,33944:0:0:0:0:
28,192,33648,1,0,0:0:0:0:
128,192,33944,1,0,0:0:0:0:
312,192,33944,128,0,34339:0:0:0:0:
85,192,33944,1,0,0:0:0:0:
199,192,34043,1,0,0:0:0:0:
179,192,34339,1,0,0:0:0:0:
256,192,34339,128,0,34733:0:0:0:0:
142,192,34339,1,0,0:0:0:0:
85,192,34437,1,0,0:0:0:0:
435,192,34733,1,0,0:0:0:0:
28,192,34733,1,0,0:0:0:0:
85,192,34733,1,0,0:0:0:0:
486,192,34734,1,0,0:0:0:0:
435,192,35128,1,0,0:0:0:0:
384,192,35128,1,0,0:0:0:0:
85,192,35128,1,0,0:0:0:0:
142,192,35128,1,0,0:0:0:0:
384,192,35523,1,0,0:0:0:0:
332,192,35523,1,0,0:0:0:0:
142,192,35523,1,0,0:0:0:0:
199,192,35523,1,0,0:0:0:0:
369,192,35918,1,0,0:0:0:0:
281,192,35918,1,0,0:0:0:0:
199,192,35918,1,0,0:0:0:0:
312,192,35918,1,0,0:0:0:0:
142,192,35918,1,0,0:0:0:0:
28,192,36312,1,0,0:0:0:0:
85,192,36411,1,0,0:0:0:0:
142,192,36510,1,0,0:0:0:0:
199,192,36608,1,0,0:0:0:0:
256,192,36707,1,0,0:0:0:0:
312,192,36806,1,0,0:0:0:0:
369,192,36905,1,0,0:0:0:0:
426,192,37003,1,0,0:0:0:0:
483,192,37102,1,0,0:0:0:0:
426,192,37201,1,0,0:0:0:0:
369,192,37300,1,0,0:0:0:0:
312,192,37398,1,0,0:0:0:0:
256,192,37497,1,0,0:0:0:0:
199,192,37596,1,0,0:0:0:0:
142,192,37694,1,0,0:0:0:0:
85,192,37793,1,0,0:0:0:0:
28,192,37891,1,0,0:0:0:0:
483,192,37891,1,0,0:0:0:0:
435,192,38286,1,0,0:0:0:0:
128,192,38286,1,0,0:0:0:0:
28,192,38286,1,0,0:0:0:0:
369,192,38286,1,0,0:0:0:0:
384,192,38681,1,0,0:0:0:0:
179,192,38681,1,0,0:0:0:0:
142,192,38681,1,0,0:0:0:0:
483,192,38681,1,0,0:0:0:0:
332,192,39076,1,0,0:0:0:0:
230,192,39076,1,0,0:0:0:0:
85,192,39076,1,0,0:0:0:0:
28,192,39076,1,0,0:0:0:0:
426,192,39076,1,0,0:0:0:0:
483,192,39076,1,0,0:0:0:0:
25,192,39470,1,0,0:0:0:0:
85,192,39470,128,0,39668:0:0:0:0:
142,192,39865,1,0,0:0:0:0:
199,192,39865,128,0,40062:0:0:0:0:
312,192,40260,1,0,0:0:0:0:
256,192,40260,128,0,40457:0:0:0:0:
369,192,40655,1,0,0:0:0:0:
426,192,40655,128,0,40852:0:0:0:0:
256,192,41049,1,0,0:0:0:0:
199,192,41049,128,0,41247:0:0:0:0:
332,192,41444,1,0,0:0:0:0:
369,192,41444,128,0,41641:0:0:0:0:
142,192,41839,1,0,0:0:0:0:
256,192,41839,1,0,0:0:0:0:
199,192,41839,128,0,42036:0:0:0:0:
332,192,42233,1,0,0:0:0:0:
369,192,42233,128,0,42431:0:0:0:0:
435,192,42234,1,0,0:0:0:0:
281,192,42628,1,0,0:0:0:0:
332,192,42727,1,0,0:0:0:0:
384,192,42826,1,0,0:0:0:0:
426,192,42924,1,0,0:0:0:0:
483,192,43023,1,0,0:0:0:0:
426,192,43122,1,0,0:0:0:0:
369,192,43220,1,0,0:0:0:0:
312,192,43319,1,0,0:0:0:0:
256,192,43418,1,0,0:0:0:0:
199,192,43516,1,0,0:0:0:0:
142,192,43615,1,0,0:0:0:0:
85,192,43714,1,0,0:0:0:0:
28,192,43812,1,0,0:0:0:0:
85,192,43911,1,0,0:0:0:0:
142,192,44010,1,0,0:0:0:0:
199,192,44108,1,0,0:0:0:0:
256,192,44207,1,0,0:0:0:0:
179,192,44602,1,0,0:0:0:0:
332,192,44602,128,0,44997:0:0:0:0:
256,192,44997,128,0,48944:0:0:0:0:
426,192,47365,128,0,50523:0:0:0:0:
199,192,48944,128,0,50523:0:0:0:0:
28,192,50523,1,0,0:0:0:0:
85,192,50622,1,0,0:0:0:0:
142,192,50720,1,0,0:0:0:0:
199,192,50819,1,0,0:0:0:0:
256,192,50918,1,0,0:0:0:0:
312,192,51016,1,0,0:0:0:0:
369,192,51115,1,0,0:0:0:0:
426,192,51214,1,0,0:0:0:0:
483,192,51312,1,0,0:0:0:0:
28,192,51312,1,0,0:0:0:0:
85,192,51411,1,0,0:0:0:0:
142,192,51509,1,0,0:0:0:0:
199,192,51608,1,0,0:0:0:0:
256,192,51707,1,0,0:0:0:0:
312,192,51806,1,0,0:0:0:0:
369,192,51904,1,0,0:0:0:0:
426,192,52003,1,0,0:0:0:0:
483,192,52102,1,0,0:0:0:0:
426,192,52201,1,0,0:0:0:0:
369,192,52299,1,0,0:0:0:0:
312,192,52398,1,0,0:0:0:0:
256,192,52497,1,0,0:0:0:0:
199,192,52595,1,0,0:0:0:0:
142,192,52694,1,0,0:0:0:0:
85,192,52793,1,0,0:0:0:0:
483,192,52891,1,0,0:0:0:0:
28,192,52891,1,0,0:0:0:0:
435,192,52990,1,0,0:0:0:0:
369,192,53089,1,0,0:0:0:0:
312,192,53187,1,0,0:0:0:0:
256,192,53286,1,0,0:0:0:0:
199,192,53385,1,0,0:0:0:0:
142,192,53483,1,0,0:0:0:0:
85,192,53582,1,0,0:0:0:0:
28,192,53681,1,0,0:0:0:0:
85,192,53780,1,0,0:0:0:0:
142,192,53879,1,0,0:0:0:0:
199,192,53977,1,0,0:0:0:0:
256,192,54076,1,0,0:0:0:0:
483,192,54076,1,0,0:0:0:0:
426,192,54174,1,0,0:0:0:0:
369,192,54273,1,0,0:0:0:0:
312,192,54372,1,0,0:0:0:0:
256,192,54470,1,0,0:0:0:0:
28,192,54471,1,0,0:0:0:0:
85,192,54570,1,0,0:0:0:0:
142,192,54668,1,0,0:0:0:0:
199,192,54767,1,0,0:0:0:0:
486,192,54865,1,0,0:0:0:0:
256,192,54866,1,0,0:0:0:0:
426,192,54964,1,0,0:0:0:0:
369,192,55062,1,0,0:0:0:0:
312,192,55161,1,0,0:0:0:0:
256,192,55260,1,0,0:0:0:0:
312,192,55358,1,0,0:0:0:0:
369,192,55457,1,0,0:0:0:0:
312,192,55556,1,0,0:0:0:0:
256,192,55655,1,0,0:0:0:0:
199,192,55753,1,0,0:0:0:0:
142,192,55852,1,0,0:0:0:0:
199,192,55951,1,0,0:0:0:0:
281,192,56049,1,0,0:0:0:0:
312,192,56148,1,0,0:0:0:0:
369,192,56247,1,0,0:0:0:0:
312,192,56345,1,0,0:0:0:0:
256,192,56444,1,0,0:0:0:0:
199,192,56543,1,0,0:0:0:0:
142,192,56641,1,0,0:0:0:0:
199,192,56740,1,0,0:0:0:0:
256,192,56839,1,0,0:0:0:0:
435,192,56839,128,0,57036:0:0:0:0:
369,192,56839,128,0,57036:0:0:0:0:
256,192,57233,128,0,57431:0:0:0:0:
199,192,57233,128,0,57431:0:0:0:0:
25,192,57234,1,0,0:0:0:0:
486,192,57628,1,0,0:0:0:0:
426,192,57628,128,0,57826:0:0:0:0:
369,192,57628,128,0,57826:0:0:0:0:
25,192,58023,1,0,0:0:0:0:
142,192,58023,128,0,58220:0:0:0:0:
199,192,58023,128,0,58220:0:0:0:0:
486,192,58418,1,0,0:0:0:0:
384,192,58418,128,0,58615:0:0:0:0:
426,192,58418,128,0,58615:0:0:0:0:
25,192,58812,1,0,0:0:0:0:
85,192,58812,128,0,59010:0:0:0:0:
142,192,58812,128,0,59010:0:0:0:0:
369,192,59207,1,0,0:0:0:0:
256,192,59207,128,0,59405:0:0:0:0:
312,192,59207,128,0,59405:0:0:0:0:
85,192,59602,1,0,0:0:0:0:
142,192,59602,128,0,59799:0:0:0:0:
28,192,59602,128,0,59799:0:0:0:0:
486,192,59997,1,0,0:0:0:0:
426,192,59997,128,0,60194:0:0:0:0:
369,192,59997,128,0,60194:0:0:0:0:
312,192,59997,128,0,60194:0:0:0:0:
25,192,60391,1,0,0:0:0:0:
85,192,60391,128,0,60589:0:0:0:0:
142,192,60391,128,0,60589:0:0:0:0:
199,192,60391,128,0,60589:0:0:0:0:
256,192,60786,1,0,0:0:0:0:
312,192,60786,128,0,60983:0:0:0:0:
369,192,60786,128,0,60983:0:0:0:0:
426,192,60786,128,0,60983:0:0:0:0:
199,192,61181,1,0,0:0:0:0:
142,192,61181,128,0,61378:0:0:0:0:
85,192,61181,128,0,61378:0:0:0:0:
28,192,61181,128,0,61378:0:0:0:0:
486,192,61576,1,0,0:0:0:0:
426,192,61576,128,0,61773:0:0:0:0:
369,192,61576,1,0,0:0:0:0:
312,192,61576,128,0,61773:0:0:0:0:
25,192,61970,1,0,0:0:0:0:
85,192,61970,1,0,0:0:0:0:
142,192,61970,128,0,62168:0:0:0:0:
199,192,61970,128,0,62168:0:0:0:0:
486,192,62365,1,0,0:0:0:0:
312,192,62365,128,0,62562:0:0:0:0:
369,192,62365,128,0,62562:0:0:0:0:
426,192,62365,1,0,0:0:0:0:
179,192,62760,1,0,0:0:0:0:
142,192,62760,1,0,0:0:0:0:
85,192,62760,128,0,62957:0:0:0:0:
28,192,62760,128,0,62957:0:0:0:0:
426,192,63155,1,0,0:0:0:0:
256,192,63155,128,0,65128:0:0:0:0:
369,192,63155,1,0,0:0:0:0:
312,192,63155,1,0,0:0:0:0:
25,192,63549,1,0,0:0:0:0:
85,192,63549,1,0,0:0:0:0:
142,192,63549,1,0,0:0:0:0:
486,192,63944,1,0,0:0:0:0:
426,192,63944,1,0,0:0:0:0:
369,192,63944,1,0,0:0:0:0:
179,192,64339,1,0,0:0:0:0:
142,192,64339,1,0,0:0:0:0:
85,192,64339,1,0,0:0:0:0:
435,192,64733,1,0,0:0:0:0:
369,192,64733,1,0,0:0:0:0:
312,192,64733,1,0,0:0:0:0:
28,192,65128,1,0,0:0:0:0:
85,192,65227,1,0,0:0:0:0:
142,192,65326,1,0,0:0:0:0:
199,192,65424,1,0,0:0:0:0:
256,192,65523,1,0,0:0:0:0:
199,192,65622,1,0,0:0:0:0:
142,192,65720,1,0,0:0:0:0:
85,192,65819,1,0,0:0:0:0:
256,192,65918,1,0,0:0:0:0:
28,192,65918,1,0,0:0:0:0:
312,192,66016,1,0,0:0:0:0:
369,192,66115,1,0,0:0:0:0:
312,192,66214,1,0,0:0:0:0:
256,192,66312,1,0,0:0:0:0:
199,192,66411,1,0,0:0:0:0:
142,192,66510,1,0,0:0:0:0:
199,192,66608,1,0,0:0:0:0:
25,192,66707,128,0,69470:0:0:0:0:
486,192,66707,128,0,69470:0:0:0:0:
76,192,66707,128,0,67891:0:0:0:0:
435,192,66707,128,0,67891:0:0:0:0:
256,192,66707,1,0,0:0:0:0:
256,192,67891,128,0,69470:0:0:0:0:
142,192,68681,128,0,69470:0:0:0:0:
369,192,68681,128,0,69470:0:0:0:0:
179,192,69470,1,0,0:0:0:0:
332,192,69470,1,0,0:0:0:0:
85,192,69470,1,0,0:0:0:0:
426,192,69470,1,0,0:0:0:0:
76,192,69865,1,0,0:0:0:0:
435,192,69865,1,0,0:0:0:0:
256,192,69865,1,0,0:0:0:0:
28,192,69865,1,0,0:0:0:0:
483,192,69865,1,0,0:0:0:0:
384,192,70260,1,0,0:0:0:0:
128,192,70260,1,0,0:0:0:0:
199,192,70260,1,0,0:0:0:0:
312,192,70260,1,0,0:0:0:0:
85,192,70260,1,0,0:0:0:0:
426,192,70260,1,0,0:0:0:0:
179,192,70655,1,0,0:0:0:0:
332,192,70655,1,0,0:0:0:0:
281,192,70655,1,0,0:0:0:0:
28,192,70655,1,0,0:0:0:0:
483,192,70655,1,0,0:0:0:0:
256,192,71049,1,0,0:0:0:0:
85,192,71049,1,0,0:0:0:0:
142,192,71049,1,0,0:0:0:0:
369,192,71049,1,0,0:0:0:0:
426,192,71049,1,0,0:0:0:0:
76,192,71444,1,0,0:0:0:0:
486,192,71444,1,0,0:0:0:0:
25,192,71444,128,0,71839:0:0:0:0:
179,192,71839,1,0,0:0:0:0:
128,192,71839,128,0,72233:0:0:0:0:
199,192,72233,128,0,72628:0:0:0:0:
281,192,72233,1,0,0:0:0:0:
384,192,72628,1,0,0:0:0:0:
332,192,72628,128,0,73023:0:0:0:0:
128,192,73023,1,0,0:0:0:0:
179,192,73023,128,0,73418:0:0:0:0:
486,192,73418,1,0,0:0:0:0:
435,192,73418,128,0,73812:0:0:0:0:
76,192,73812,1,0,0:0:0:0:
25,192,73812,128,0,74207:0:0:0:0:
179,192,74207,1,0,0:0:0:0:
230,192,74207,128,0,74602:0:0:0:0:
426,192,74602,1,0,0:0:0:0:
486,192,74602,128,0,74997:0:0:0:0:
256,192,74997,1,0,0:0:0:0:
256,192,75194,1,0,0:0:0:0:
256,192,75391,1,0,0:0:0:0:
142,192,75391,128,0,75786:0:0:0:0:
199,192,75589,128,0,75983:0:0:0:0:
369,192,75786,128,0,76181:0:0:0:0:
312,192,75983,128,0,76378:0:0:0:0:
256,192,76181,128,0,76576:0:0:0:0:
76,192,76576,1,0,0:0:0:0:
179,192,76576,1,0,0:0:0:0:
332,192,76576,1,0,0:0:0:0:
435,192,76576,1,0,0:0:0:0:
28,192,76576,128,0,77365:0:0:0:0:
483,192,76576,128,0,77365:0:0:0:0:
76,192,77365,1,0,0:0:0:0:
179,192,77365,1,0,0:0:0:0:
332,192,77365,1,0,0:0:0:0:
435,192,77365,1,0,0:0:0:0:
256,192,77365,128,0,78155:0:0:0:0:
25,192,78155,1,0,0:0:0:0:
486,192,78155,1,0,0:0:0:0:
85,192,78352,1,0,0:0:0:0:
426,192,78352,1,0,0:0:0:0:
28,192,78549,1,0,0:0:0:0:
483,192,78549,1,0,0:0:0:0:
85,192,78747,1,0,0:0:0:0:
426,192,78747,1,0,0:0:0:0:
25,192,78944,1,0,0:0:0:0:
486,192,78944,1,0,0:0:0:0:
85,192,79141,1,0,0:0:0:0:
426,192,79141,1,0,0:0:0:0:
199,192,79339,1,0,0:0:0:0:
312,192,79339,1,0,0:0:0:0:
435,192,79733,1,0,0:0:0:0:
76,192,79733,1,0,0:0:0:0:
256,192,79733,128,0,80523:0:0:0:0:
483,192,79733,128,0,80523:0:0:0:0:
28,192,79733,128,0,80523:0:0:0:0:
332,192,80523,1,0,0:0:0:0:
179,192,80523,1,0,0:0:0:0:
128,192,80523,128,0,81312:0:0:0:0:
384,192,80523,128,0,81312:0:0:0:0:
435,192,81312,1,0,0:0:0:0:
76,192,81312,1,0,0:0:0:0:
28,192,81510,1,0,0:0:0:0:
483,192,81510,1,0,0:0:0:0:
85,192,81707,1,0,0:0:0:0:
426,192,81707,1,0,0:0:0:0:
28,192,81905,1,0,0:0:0:0:
483,192,81905,1,0,0:0:0:0:
230,192,82102,1,0,0:0:0:0:
199,192,82102,1,0,0:0:0:0:
312,192,82102,1,0,0:0:0:0:
281,192,82497,1,0,0:0:0:0:
199,192,82497,1,0,0:0:0:0:
312,192,82497,1,0,0:0:0:0:
76,192,82891,1,0,0:0:0:0:
142,192,82891,128,0,83681:0:0:0:0:
369,192,82891,128,0,83681:0:0:0:0:
435,192,82891,1,0,0:0:0:0:
435,192,83681,1,0,0:0:0:0:
179,192,83681,128,0,84470:0:0:0:0:
76,192,83681,1,0,0:0:0:0:
332,192,83681,128,0,84470:0:0:0:0:
25,192,84470,1,0,0:0:0:0:
256,192,84470,128,0,86049:0:0:0:0:
85,192,84668,1,0,0:0:0:0:
199,192,84865,1,0,0:0:0:0:
142,192,85062,1,0,0:0:0:0:
312,192,85260,1,0,0:0:0:0:
369,192,85457,1,0,0:0:0:0:
483,192,85655,1,0,0:0:0:0:
426,192,85852,1,0,0:0:0:0:
142,192,86049,1,0,0:0:0:0:
25,192,86049,1,0,0:0:0:0:
76,192,86049,128,0,86839:0:0:0:0:
179,192,86839,1,0,0:0:0:0:
256,192,86839,128,0,87628:0:0:0:0:
483,192,87628,1,0,0:0:0:0:
28,192,87628,1,0,0:0:0:0:
85,192,87727,1,0,0:0:0:0:
142,192,87826,1,0,0:0:0:0:
199,192,87924,1,0,0:0:0:0:
256,192,88023,1,0,0:0:0:0:
28,192,88023,1,0,0:0:0:0:
85,192,88122,1,0,0:0:0:0:
142,192,88220,1,0,0:0:0:0:
199,192,88319,1,0,0:0:0:0:
256,192,88418,1,0,0:0:0:0:
483,192,88418,1,0,0:0:0:0:
426,192,88516,1,0,0:0:0:0:
369,192,88615,1,0,0:0:0:0:
312,192,88714,1,0,0:0:0:0:
256,192,88812,1,0,0:0:0:0:
483,192,88812,1,0,0:0:0:0:
426,192,88911,1,0,0:0:0:0:
369,192,89010,1,0,0:0:0:0:
312,192,89108,1,0,0:0:0:0:
28,192,89207,1,0,0:0:0:0:
256,192,89207,1,0,0:0:0:0:
85,192,89306,1,0,0:0:0:0:
142,192,89405,1,0,0:0:0:0:
199,192,89503,1,0,0:0:0:0:
256,192,89602,1,0,0:0:0:0:
28,192,89602,1,0,0:0:0:0:
85,192,89701,1,0,0:0:0:0:
142,192,89799,1,0,0:0:0:0:
199,192,89898,1,0,0:0:0:0:
483,192,89997,1,0,0:0:0:0:
256,192,89997,1,0,0:0:0:0:
426,192,90095,1,0,0:0:0:0:
369,192,90194,1,0,0:0:0:0:
312,192,90293,1,0,0:0:0:0:
256,192,90391,1,0,0:0:0:0:
483,192,90391,1,0,0:0:0:0:
426,192,90490,1,0,0:0:0:0:
369,192,90589,1,0,0:0:0:0:
312,192,90687,1,0,0:0:0:0:
256,192,90786,1,0,0:0:0:0:
28,192,90786,1,0,0:0:0:0:
85,192,90885,1,0,0:0:0:0:
142,192,90983,1,0,0:0:0:0:
199,192,91082,1,0,0:0:0:0:
256,192,91181,1,0,0:0:0:0:
199,192,91280,1,0,0:0:0:0:
142,192,91379,1,0,0:0:0:0:
85,192,91477,1,0,0:0:0:0:
483,192,91576,1,0,0:0:0:0:
28,192,91576,1,0,0:0:0:0:
426,192,91674,1,0,0:0:0:0:
369,192,91773,1,0,0:0:0:0:
312,192,91872,1,0,0:0:0:0:
256,192,91970,1,0,0:0:0:0:
312,192,92069,1,0,0:0:0:0:
369,192,92168,1,0,0:0:0:0:
426,192,92266,1,0,0:0:0:0:
332,192,92365,1,0,0:0:0:0:
179,192,92365,1,0,0:0:0:0:
256,192,92365,128,0,93155:0:0:0:0:
483,192,92365,1,0,0:0:0:0:
435,192,93155,1,0,0:0:0:0:
76,192,93155,1,0,0:0:0:0:
486,192,93155,128,0,93944:0:0:0:0:
25,192,93155,128,0,93944:0:0:0:0:
85,192,93944,1,0,0:0:0:0:
426,192,93944,1,0,0:0:0:0:
256,192,94043,1,0,0:0:0:0:
312,192,94142,1,0,0:0:0:0:
199,192,94142,1,0,0:0:0:0:
142,192,94241,1,0,0:0:0:0:
369,192,94241,1,0,0:0:0:0:
85,192,94339,1,0,0:0:0:0:
426,192,94339,1,0,0:0:0:0:
256,192,94437,1,0,0:0:0:0:
199,192,94536,1,0,0:0:0:0:
312,192,94536,1,0,0:0:0:0:
142,192,94634,1,0,0:0:0:0:
369,192,94634,1,0,0:0:0:0:
426,192,94733,1,0,0:0:0:0:
85,192,94733,1,0,0:0:0:0:
256,192,94832,1,0,0:0:0:0:
199,192,94931,1,0,0:0:0:0:
312,192,94931,1,0,0:0:0:0:
142,192,95030,1,0,0:0:0:0:
369,192,95030,1,0,0:0:0:0:
435,192,95128,1,0,0:0:0:0:
76,192,95128,1,0,0:0:0:0:
128,192,95227,1,0,0:0:0:0:
384,192,95227,1,0,0:0:0:0:
199,192,95326,1,0,0:0:0:0:
312,192,95326,1,0,0:0:0:0:
256,192,95424,1,0,0:0:0:0:
85,192,95523,128,0,96312:0:0:0:0:
28,192,95523,128,0,96312:0:0:0:0:
483,192,95523,128,0,96312:0:0:0:0:
426,192,95523,128,0,96312:0:0:0:0:
332,192,96312,1,0,0:0:0:0:
179,192,96312,1,0,0:0:0:0:
256,192,96312,1,0,0:0:0:0:
25,192,97102,1,0,0:0:0:0:
486,192,97102,1,0,0:0:0:0:
256,192,97102,128,0,98681:0:0:0:0:
85,192,97102,1,0,0:0:0:0:
426,192,97102,1,0,0:0:0:0:
199,192,97201,1,0,0:0:0:0:
312,192,97201,1,0,0:0:0:0:
142,192,97299,1,0,0:0:0:0:
369,192,97299,1,0,0:0:0:0:
85,192,97398,1,0,0:0:0:0:
426,192,97398,1,0,0:0:0:0:
28,192,97497,1,0,0:0:0:0:
483,192,97497,1,0,0:0:0:0:
199,192,97595,1,0,0:0:0:0:
312,192,97595,1,0,0:0:0:0:
142,192,97694,1,0,0:0:0:0:
369,192,97694,1,0,0:0:0:0:
85,192,97793,1,0,0:0:0:0:
426,192,97793,1,0,0:0:0:0:
28,192,97891,1,0,0:0:0:0:
483,192,97891,1,0,0:0:0:0:
486,192,98681,1,0,0:0:0:0:
25,192,98681,1,0,0:0:0:0:
85,192,98878,1,0,0:0:0:0:
426,192,98878,1,0,0:0:0:0:
28,192,99076,1,0,0:0:0:0:
483,192,99076,1,0,0:0:0:0:
256,192,99076,128,0,99470:0:0:0:0:
76,192,99470,1,0,0:0:0:0:
435,192,99470,1,0,0:0:0:0:
128,192,99470,1,0,0:0:0:0:
384,192,99470,1,0,0:0:0:0:
256,192,100260,1,0,0:0:0:0:
483,192,100260,1,0,0:0:0:0:
312,192,100358,1,0,0:0:0:0:
426,192,100358,1,0,0:0:0:0:
369,192,100457,1,0,0:0:0:0:
312,192,100556,1,0,0:0:0:0:
426,192,100556,1,0,0:0:0:0:
483,192,100655,1,0,0:0:0:0:
256,192,100655,1,0,0:0:0:0:
28,192,100655,1,0,0:0:0:0:
85,192,100753,1,0,0:0:0:0:
199,192,100753,1,0,0:0:0:0:
142,192,100852,1,0,0:0:0:0:
85,192,100951,1,0,0:0:0:0:
199,192,100951,1,0,0:0:0:0:
28,192,101049,1,0,0:0:0:0:
256,192,101049,1,0,0:0:0:0:
483,192,101049,1,0,0:0:0:0:
312,192,101148,1,0,0:0:0:0:
426,192,101148,1,0,0:0:0:0:
369,192,101247,1,0,0:0:0:0:
426,192,101345,1,0,0:0:0:0:
312,192,101345,1,0,0:0:0:0:
483,192,101444,1,0,0:0:0:0:
256,192,101444,1,0,0:0:0:0:
28,192,101444,1,0,0:0:0:0:
85,192,101543,1,0,0:0:0:0:
199,192,101543,1,0,0:0:0:0:
142,192,101641,1,0,0:0:0:0:
85,192,101740,1,0,0:0:0:0:
199,192,101740,1,0,0:0:0:0:
483,192,101839,1,0,0:0:0:0:
28,192,101839,1,0,0:0:0:0:
256,192,101839,1,0,0:0:0:0:
426,192,101937,1,0,0:0:0:0:
369,192,102036,1,0,0:0:0:0:
142,192,102233,1,0,0:0:0:0:
199,192,102332,1,0,0:0:0:0:
256,192,102431,1,0,0:0:0:0:
426,192,102628,1,0,0:0:0:0:
369,192,102727,1,0,0:0:0:0:
312,192,102826,1,0,0:0:0:0:
128,192,103023,1,0,0:0:0:0:
199,192,103122,1,0,0:0:0:0:
256,192,103220,1,0,0:0:0:0:
25,192,103418,1,0,0:0:0:0:
85,192,103516,1,0,0:0:0:0:
142,192,103615,1,0,0:0:0:0:
281,192,103812,1,0,0:0:0:0:
199,192,103911,1,0,0:0:0:0:
142,192,104010,1,0,0:0:0:0:
384,192,104207,1,0,0:0:0:0:
312,192,104306,1,0,0:0:0:0:
256,192,104405,1,0,0:0:0:0:
486,192,104602,1,0,0:0:0:0:
426,192,104701,1,0,0:0:0:0:
369,192,104799,1,0,0:0:0:0:
230,192,104997,1,0,0:0:0:0:
312,192,105095,1,0,0:0:0:0:
369,192,105194,1,0,0:0:0:0:
128,192,105391,1,0,0:0:0:0:
199,192,105490,1,0,0:0:0:0:
256,192,105589,1,0,0:0:0:0:
25,192,105786,1,0,0:0:0:0:
85,192,105885,1,0,0:0:0:0:
142,192,105983,1,0,0:0:0:0:
281,192,106181,1,0,0:0:0:0:
199,192,106280,1,0,0:0:0:0:
142,192,106378,1,0,0:0:0:0:
384,192,106576,1,0,0:0:0:0:
426,192,106674,1,0,0:0:0:0:
483,192,106773,1,0,0:0:0:0:
28,192,106970,1,0,0:0:0:0:
85,192,107069,1,0,0:0:0:0:
142,192,107168,1,0,0:0:0:0:
230,192,107365,128,0,107760:0:0:0:0:
369,192,107365,128,0,107760:0:0:0:0:
199,192,107760,128,0,108155:0:0:0:0:
312,192,107760,128,0,108155:0:0:0:0:
142,192,108155,128,0,108549:0:0:0:0:
256,192,108155,128,0,108549:0:0:0:0:
312,192,108549,128,0,108944:0:0:0:0:
199,192,108549,128,0,108944:0:0:0:0:
384,192,108944,128,0,109339:0:0:0:0:
256,192,108944,128,0,109339:0:0:0:0:
426,192,109339,128,0,109733:0:0:0:0:
312,192,109339,128,0,109733:0:0:0:0:
230,192,109733,128,0,110128:0:0:0:0:
369,192,109733,128,0,110128:0:0:0:0:
199,192,110128,128,0,110523:0:0:0:0:
312,192,110128,128,0,110523:0:0:0:0:
142,192,110523,128,0,110918:0:0:0:0:
256,192,110523,128,0,110918:0:0:0:0:
312,192,110918,128,0,111312:0:0:0:0:
199,192,110918,128,0,111312:0:0:0:0:
369,192,111312,128,0,111707:0:0:0:0:
256,192,111312,128,0,111707:0:0:0:0:
312,192,111707,128,0,112102:0:0:0:0:
199,192,111707,128,0,112102:0:0:0:0:
256,192,112102,128,0,112497:0:0:0:0:
142,192,112102,128,0,112497:0:0:0:0:
369,192,112102,128,0,112497:0:0:0:0:
199,192,112497,128,0,112891:0:0:0:0:
312,192,112497,128,0,112891:0:0:0:0:
426,192,112497,128,0,112891:0:0:0:0:
256,192,112891,128,0,113286:0:0:0:0:
369,192,112891,128,0,113286:0:0:0:0:
483,192,112891,128,0,113286:0:0:0:0:
332,192,113286,128,0,113681:0:0:0:0:
199,192,113286,128,0,113681:0:0:0:0:
426,192,113286,128,0,113681:0:0:0:0:
384,192,113681,128,0,114076:0:0:0:0:
256,192,113681,128,0,114076:0:0:0:0:
142,192,113681,128,0,114076:0:0:0:0:
312,192,114076,128,0,114470:0:0:0:0:
179,192,114076,128,0,114470:0:0:0:0:
85,192,114076,128,0,114470:0:0:0:0:
256,192,114470,128,0,114865:0:0:0:0:
128,192,114470,128,0,114865:0:0:0:0:
28,192,114470,128,0,114865:0:0:0:0:
85,192,114865,128,0,115260:0:0:0:0:
199,192,114865,128,0,115260:0:0:0:0:
312,192,114865,128,0,115260:0:0:0:0:
486,192,115260,128,0,117628:0:0:0:0:
369,192,115260,128,0,115655:0:0:0:0:
256,192,115260,128,0,115655:0:0:0:0:
312,192,115655,128,0,116049:0:0:0:0:
426,192,115655,128,0,116049:0:0:0:0:
281,192,116049,128,0,116444:0:0:0:0:
369,192,116049,128,0,116444:0:0:0:0:
332,192,116444,128,0,116839:0:0:0:0:
199,192,116444,128,0,116839:0:0:0:0:
384,192,116839,128,0,117233:0:0:0:0:
256,192,116839,128,0,117233:0:0:0:0:
435,192,117233,128,0,117628:0:0:0:0:
312,192,117233,128,0,117628:0:0:0:0:
25,192,117628,1,0,0:0:0:0:
256,192,117628,128,0,120786:0:0:0:0:
85,192,117727,1,0,0:0:0:0:
142,192,117826,1,0,0:0:0:0:
199,192,117924,1,0,0:0:0:0:
483,192,118023,1,0,0:0:0:0:
426,192,118122,1,0,0:0:0:0:
369,192,118220,1,0,0:0:0:0:
312,192,118319,1,0,0:0:0:0:
25,192,118418,1,0,0:0:0:0:
85,192,118516,1,0,0:0:0:0:
142,192,118615,1,0,0:0:0:0:
199,192,118714,1,0,0:0:0:0:
483,192,118812,1,0,0:0:0:0:
426,192,118911,1,0,0:0:0:0:
369,192,119010,1,0,0:0:0:0:
312,192,119108,1,0,0:0:0:0:
28,192,119207,1,0,0:0:0:0:
85,192,119306,1,0,0:0:0:0:
142,192,119405,1,0,0:0:0:0:
199,192,119503,1,0,0:0:0:0:
483,192,119602,1,0,0:0:0:0:
426,192,119701,1,0,0:0:0:0:
369,192,119799,1,0,0:0:0:0:
312,192,119898,1,0,0:0:0:0:
28,192,119997,1,0,0:0:0:0:
85,192,120095,1,0,0:0:0:0:
142,192,120194,1,0,0:0:0:0:
199,192,120293,1,0,0:0:0:0:
483,192,120786,1,0,0:0:0:0:
28,192,120786,1,0,0:0:0:0:
85,192,120885,1,0,0:0:0:0:
426,192,120885,1,0,0:0:0:0:
142,192,120983,1,0,0:0:0:0:
369,192,120983,1,0,0:0:0:0:
199,192,121082,1,0,0:0:0:0:
312,192,121082,1,0,0:0:0:0:
256,192,121181,1,0,0:0:0:0:
312,192,121279,1,0,0:0:0:0:
199,192,121280,1,0,0:0:0:0:
369,192,121378,1,0,0:0:0:0:
142,192,121378,1,0,0:0:0:0:
426,192,121477,1,0,0:0:0:0:
85,192,121477,1,0,0:0:0:0:
483,192,121575,1,0,0:0:0:0:
28,192,121575,1,0,0:0:0:0:
85,192,121674,1,0,0:0:0:0:
435,192,121674,1,0,0:0:0:0:
142,192,121772,1,0,0:0:0:0:
369,192,121773,1,0,0:0:0:0:
199,192,121871,1,0,0:0:0:0:
312,192,121872,1,0,0:0:0:0:
256,192,121970,1,0,0:0:0:0:
312,192,122069,1,0,0:0:0:0:
199,192,122069,1,0,0:0:0:0:
369,192,122167,1,0,0:0:0:0:
142,192,122168,1,0,0:0:0:0:
426,192,122266,1,0,0:0:0:0:
85,192,122266,1,0,0:0:0:0:
483,192,122365,1,0,0:0:0:0:
28,192,122365,1,0,0:0:0:0:
426,192,122464,1,0,0:0:0:0:
369,192,122562,1,0,0:0:0:0:
312,192,122661,1,0,0:0:0:0:
256,192,122760,1,0,0:0:0:0:
199,192,122858,1,0,0:0:0:0:
142,192,122957,1,0,0:0:0:0:
85,192,123056,1,0,0:0:0:0:
28,192,123154,1,0,0:0:0:0:
486,192,123155,1,0,0:0:0:0:
435,192,123253,1,0,0:0:0:0:
369,192,123352,1,0,0:0:0:0:
312,192,123450,1,0,0:0:0:0:
256,192,123549,1,0,0:0:0:0:
199,192,123648,1,0,0:0:0:0:
142,192,123746,1,0,0:0:0:0:
85,192,123845,1,0,0:0:0:0:
28,192,123944,1,0,0:0:0:0:
85,192,124043,1,0,0:0:0:0:
142,192,124142,1,0,0:0:0:0:
199,192,124240,1,0,0:0:0:0:
483,192,124339,1,0,0:0:0:0:
256,192,124339,1,0,0:0:0:0:
426,192,124437,1,0,0:0:0:0:
369,192,124536,1,0,0:0:0:0:
312,192,124635,1,0,0:0:0:0:
256,192,124733,1,0,0:0:0:0:
28,192,124734,1,0,0:0:0:0:
85,192,124833,1,0,0:0:0:0:
142,192,124931,1,0,0:0:0:0:
199,192,125030,1,0,0:0:0:0:
28,192,125128,1,0,0:0:0:0:
256,192,125129,1,0,0:0:0:0:
85,192,125227,1,0,0:0:0:0:
142,192,125326,1,0,0:0:0:0:
199,192,125424,1,0,0:0:0:0:
256,192,125523,1,0,0:0:0:0:
483,192,125523,1,0,0:0:0:0:
426,192,125621,1,0,0:0:0:0:
369,192,125720,1,0,0:0:0:0:
312,192,125819,1,0,0:0:0:0:
256,192,125917,1,0,0:0:0:0:
28,192,125918,1,0,0:0:0:0:
85,192,126017,1,0,0:0:0:0:
142,192,126115,1,0,0:0:0:0:
199,192,126214,1,0,0:0:0:0:
256,192,126313,1,0,0:0:0:0:
199,192,126411,1,0,0:0:0:0:
142,192,126510,1,0,0:0:0:0:
85,192,126608,1,0,0:0:0:0:
28,192,126707,1,0,0:0:0:0:
256,192,126708,1,0,0:0:0:0:
312,192,126806,1,0,0:0:0:0:
369,192,126905,1,0,0:0:0:0:
426,192,127004,1,0,0:0:0:0:
483,192,127102,1,0,0:0:0:0:
256,192,127102,1,0,0:0:0:0:
199,192,127201,1,0,0:0:0:0:
142,192,127299,1,0,0:0:0:0:
85,192,127398,1,0,0:0:0:0:
28,192,127497,1,0,0:0:0:0:
426,192,127891,1,0,0:0:0:0:
85,192,127891,1,0,0:0:0:0:
199,192,127891,128,0,128089:0:0:0:0:
256,192,127891,128,0,128089:0:0:0:0:
312,192,127891,128,0,128089:0:0:0:0:
25,192,128286,1,0,0:0:0:0:
486,192,128286,1,0,0:0:0:0:
384,192,128286,1,0,0:0:0:0:
128,192,128286,1,0,0:0:0:0:
85,192,128286,128,0,128483:0:0:0:0:
426,192,128286,128,0,128483:0:0:0:0:
76,192,128681,1,0,0:0:0:0:
435,192,128681,1,0,0:0:0:0:
179,192,128681,1,0,0:0:0:0:
332,192,128681,1,0,0:0:0:0:
142,192,128681,128,0,128878:0:0:0:0:
369,192,128681,128,0,128878:0:0:0:0:
128,192,129076,1,0,0:0:0:0:
384,192,129076,1,0,0:0:0:0:
281,192,129076,1,0,0:0:0:0:
199,192,129076,128,0,129273:0:0:0:0:
312,192,129076,128,0,129273:0:0:0:0:
179,192,129470,1,0,0:0:0:0:
332,192,129470,1,0,0:0:0:0:
256,192,129470,128,0,129668:0:0:0:0:
230,192,129865,1,0,0:0:0:0:
199,192,129865,128,0,130062:0:0:0:0:
312,192,129865,128,0,130062:0:0:0:0:
179,192,130260,1,0,0:0:0:0:
332,192,130260,1,0,0:0:0:0:
142,192,130260,128,0,130457:0:0:0:0:
369,192,130260,128,0,130457:0:0:0:0:
128,192,130655,1,0,0:0:0:0:
384,192,130655,1,0,0:0:0:0:
230,192,130655,1,0,0:0:0:0:
85,192,130655,128,0,130852:0:0:0:0:
426,192,130655,128,0,130852:0:0:0:0:
76,192,131049,1,0,0:0:0:0:
435,192,131049,1,0,0:0:0:0:
179,192,131049,1,0,0:0:0:0:
332,192,131049,1,0,0:0:0:0:
28,192,131049,128,0,131247:0:0:0:0:
483,192,131049,128,0,131247:0:0:0:0:
25,192,131444,1,0,0:0:0:0:
486,192,131444,1,0,0:0:0:0:
128,192,131444,1,0,0:0:0:0:
384,192,131444,1,0,0:0:0:0:
85,192,131444,128,0,131641:0:0:0:0:
426,192,131444,128,0,131641:0:0:0:0:
179,192,131839,1,0,0:0:0:0:
332,192,131839,1,0,0:0:0:0:
281,192,131839,1,0,0:0:0:0:
142,192,131839,128,0,132036:0:0:0:0:
369,192,131839,128,0,132036:0:0:0:0:
486,192,132233,1,0,0:0:0:0:
25,192,132233,1,0,0:0:0:0:
199,192,132233,128,0,132431:0:0:0:0:
312,192,132233,128,0,132431:0:0:0:0:
435,192,132234,1,0,0:0:0:0:
76,192,132234,1,0,0:0:0:0:
256,192,133023,1,0,0:0:0:0:
28,192,133023,1,0,0:0:0:0:
483,192,133023,1,0,0:0:0:0:
256,192,133122,1,0,0:0:0:0:
28,192,133122,1,0,0:0:0:0:
483,192,133122,1,0,0:0:0:0:
256,192,133220,1,0,0:0:0:0:
28,192,133220,1,0,0:0:0:0:
483,192,133220,1,0,0:0:0:0:
256,192,133319,1,0,0:0:0:0:
28,192,133319,1,0,0:0:0:0:
483,192,133319,1,0,0:0:0:0:
230,192,133418,1,0,0:0:0:0:
486,192,133418,1,0,0:0:0:0:
25,192,133418,1,0,0:0:0:0:
25,192,133812,1,0,0:0:0:0:
281,192,133812,1,0,0:0:0:0:
486,192,133812,1,0,0:0:0:0:
85,192,133911,1,0,0:0:0:0:
312,192,133911,1,0,0:0:0:0:
142,192,134010,1,0,0:0:0:0:
369,192,134010,1,0,0:0:0:0:
199,192,134108,1,0,0:0:0:0:
426,192,134108,1,0,0:0:0:0:
230,192,134207,1,0,0:0:0:0:
486,192,134207,1,0,0:0:0:0:
25,192,134207,1,0,0:0:0:0:
199,192,134306,1,0,0:0:0:0:
426,192,134306,1,0,0:0:0:0:
142,192,134405,1,0,0:0:0:0:
369,192,134405,1,0,0:0:0:0:
85,192,134503,1,0,0:0:0:0:
312,192,134503,1,0,0:0:0:0:
281,192,134602,1,0,0:0:0:0:
25,192,134602,1,0,0:0:0:0:
486,192,134602,1,0,0:0:0:0:
199,192,134701,1,0,0:0:0:0:
426,192,134701,1,0,0:0:0:0:
142,192,134799,1,0,0:0:0:0:
369,192,134799,1,0,0:0:0:0:
85,192,134898,1,0,0:0:0:0:
312,192,134898,1,0,0:0:0:0:
486,192,134997,1,0,0:0:0:0:
230,192,134997,1,0,0:0:0:0:
25,192,134997,1,0,0:0:0:0:
85,192,135095,1,0,0:0:0:0:
312,192,135095,1,0,0:0:0:0:
142,192,135194,1,0,0:0:0:0:
369,192,135194,1,0,0:0:0:0:
199,192,135293,1,0,0:0:0:0:
426,192,135293,1,0,0:0:0:0:
281,192,135391,1,0,0:0:0:0:
25,192,135391,1,0,0:0:0:0:
483,192,135391,1,0,0:0:0:0:
199,192,135490,1,0,0:0:0:0:
312,192,135490,1,0,0:0:0:0:
142,192,135589,1,0,0:0:0:0:
369,192,135589,1,0,0:0:0:0:
85,192,135687,1,0,0:0:0:0:
426,192,135687,1,0,0:0:0:0:
25,192,135786,1,0,0:0:0:0:
486,192,135786,1,0,0:0:0:0:
230,192,135786,1,0,0:0:0:0:
199,192,135786,128,0,135983:0:0:0:0:
312,192,135786,128,0,135983:0:0:0:0:
179,192,136181,1,0,0:0:0:0:
332,192,136181,1,0,0:0:0:0:
256,192,136181,128,0,136378:0:0:0:0:
332,192,136576,1,0,0:0:0:0:
179,192,136576,1,0,0:0:0:0:
142,192,136576,128,0,136773:0:0:0:0:
369,192,136576,128,0,136773:0:0:0:0:
25,192,136970,1,0,0:0:0:0:
486,192,136970,1,0,0:0:0:0:
199,192,136970,128,0,137168:0:0:0:0:
256,192,136970,128,0,137168:0:0:0:0:
312,192,136970,128,0,137168:0:0:0:0:
76,192,137365,1,0,0:0:0:0:
435,192,137365,1,0,0:0:0:0:
28,192,137365,128,0,137562:0:0:0:0:
483,192,137365,128,0,137562:0:0:0:0:
128,192,137760,1,0,0:0:0:0:
384,192,137760,1,0,0:0:0:0:
199,192,137760,128,0,137957:0:0:0:0:
312,192,137760,128,0,137957:0:0:0:0:
332,192,138155,1,0,0:0:0:0:
179,192,138155,1,0,0:0:0:0:
142,192,138155,128,0,138352:0:0:0:0:
369,192,138155,128,0,138352:0:0:0:0:
281,192,138549,1,0,0:0:0:0:
199,192,138549,128,0,138747:0:0:0:0:
312,192,138549,128,0,138747:0:0:0:0:
230,192,138944,1,0,0:0:0:0:
332,192,138944,1,0,0:0:0:0:
179,192,138944,1,0,0:0:0:0:
142,192,138944,128,0,139141:0:0:0:0:
369,192,138944,128,0,139141:0:0:0:0:
128,192,139339,1,0,0:0:0:0:
384,192,139339,1,0,0:0:0:0:
199,192,139339,128,0,139536:0:0:0:0:
312,192,139339,128,0,139536:0:0:0:0:
85,192,139733,1,0,0:0:0:0:
426,192,139733,1,0,0:0:0:0:
142,192,139733,128,0,139931:0:0:0:0:
369,192,139733,128,0,139931:0:0:0:0:
199,192,140128,1,0,0:0:0:0:
312,192,140128,1,0,0:0:0:0:
256,192,140128,128,0,140326:0:0:0:0:
25,192,140523,1,0,0:0:0:0:
486,192,140523,1,0,0:0:0:0:
76,192,140523,1,0,0:0:0:0:
142,192,140523,128,0,140720:0:0:0:0:
426,192,140523,1,0,0:0:0:0:
369,192,140523,128,0,140720:0:0:0:0:
76,192,140918,1,0,0:0:0:0:
435,192,140918,1,0,0:0:0:0:
384,192,140918,1,0,0:0:0:0:
142,192,140918,1,0,0:0:0:0:
256,192,140918,128,0,141115:0:0:0:0:
384,192,141312,1,0,0:0:0:0:
128,192,141312,1,0,0:0:0:0:
179,192,141312,1,0,0:0:0:0:
312,192,141312,1,0,0:0:0:0:
28,192,141312,128,0,141510:0:0:0:0:
483,192,141312,128,0,141510:0:0:0:0:
179,192,141707,1,0,0:0:0:0:
332,192,141707,1,0,0:0:0:0:
281,192,141707,1,0,0:0:0:0:
85,192,141707,128,0,141905:0:0:0:0:
426,192,141707,128,0,141905:0:0:0:0:
256,192,142102,1,0,0:0:0:0:
142,192,142102,128,0,142299:0:0:0:0:
369,192,142102,128,0,142299:0:0:0:0:
179,192,142497,1,0,0:0:0:0:
332,192,142497,1,0,0:0:0:0:
256,192,142497,128,0,142694:0:0:0:0:
128,192,142891,1,0,0:0:0:0:
384,192,142891,1,0,0:0:0:0:
332,192,142891,1,0,0:0:0:0:
199,192,142891,1,0,0:0:0:0:
28,192,142891,128,0,143089:0:0:0:0:
483,192,142891,128,0,143089:0:0:0:0:
76,192,143286,1,0,0:0:0:0:
435,192,143286,1,0,0:0:0:0:
128,192,143286,1,0,0:0:0:0:
369,192,143286,1,0,0:0:0:0:
199,192,143286,128,0,143483:0:0:0:0:
312,192,143286,128,0,143483:0:0:0:0:
25,192,143681,1,0,0:0:0:0:
486,192,143681,1,0,0:0:0:0:
435,192,143681,1,0,0:0:0:0:
85,192,143681,1,0,0:0:0:0:
256,192,143681,128,0,143878:0:0:0:0:
76,192,144076,1,0,0:0:0:0:
435,192,144076,1,0,0:0:0:0:
128,192,144076,1,0,0:0:0:0:
369,192,144076,1,0,0:0:0:0:
199,192,144076,128,0,144273:0:0:0:0:
312,192,144076,128,0,144273:0:0:0:0:
179,192,144470,1,0,0:0:0:0:
332,192,144470,1,0,0:0:0:0:
256,192,144470,128,0,144668:0:0:0:0:
281,192,145260,1,0,0:0:0:0:
142,192,145260,1,0,0:0:0:0:
369,192,145260,1,0,0:0:0:0:
199,192,145457,1,0,0:0:0:0:
312,192,145457,1,0,0:0:0:0:
369,192,145655,1,0,0:0:0:0:
256,192,145655,1,0,0:0:0:0:
142,192,145655,1,0,0:0:0:0:
426,192,146049,1,0,0:0:0:0:
179,192,146049,1,0,0:0:0:0:
85,192,146049,1,0,0:0:0:0:
332,192,146049,1,0,0:0:0:0:
142,192,146049,1,0,0:0:0:0:
369,192,146049,1,0,0:0:0:0:
230,192,146444,128,0,150391:0:0:0:0:
369,192,146444,128,0,150391:0:0:0:0:
483,192,146444,128,0,150391:0:0:0:0:
25,192,146444,128,0,150391:0:0:0:0:
128,192,146444,128,0,150391:0:0:0:0:
