osu file format v13

[General]
AudioFilename: Extreme Fantasy Survival.mp3
AudioLeadIn: 0
PreviewTime: 50720
Countdown: 0
SampleSet: Normal
StackLeniency: 0.7
Mode: 3
LetterboxInBreaks: 0
SpecialStyle: 1
WidescreenStoryboard: 1

[Editor]
DistanceSpacing: 1.2
BeatDivisor: 8
GridSize: 4
TimelineZoom: 1

[Metadata]
Title:Extreme Fantasy Survival
TitleUnicode:Extreme Fantasy Survival
Artist:Memme
ArtistUnicode:Memme
Creator:jamesalegre15
Version:8K Stairs + Jacks = ET Tutorial Level 1
Source:BMS
Tags:arcwin eternalie 1K 2K 3K 9K 10K memme dubstep
BeatmapID:516122
BeatmapSetID:220543

[Difficulty]
HPDrainRate:8
CircleSize:8
OverallDifficulty:10
ApproachRate:5
SliderMultiplier:1.4
SliderTickRate:1

[Events]
//Background and Video events
0,0,"5154e94de084a.jpg",0,0
//Break Periods
//Storyboard Layer 0 (Background)
//Storyboard Layer 1 (Fail)
//Storyboard Layer 2 (Pass)
//Storyboard Layer 3 (Foreground)
//Storyboard Sound Samples
//Background Colour Transformations
3,100,163,162,255

[TimingPoints]
4734,394.736842105263,4,1,0,50,1,0
146543,-400,4,1,0,50,0,0

[HitObjects]
32,192,3155,128,0,4339:0:0:0:0:
480,192,3155,128,0,4339:0:0:0:0:
96,192,3648,1,0,0:0:0:0:
416,192,3648,1,0,0:0:0:0:
160,192,3747,1,0,0:0:0:0:
352,192,3747,1,0,0:0:0:0:
224,192,3846,1,0,0:0:0:0:
288,192,3846,1,0,0:0:0:0:
160,192,3944,1,0,0:0:0:0:
352,192,3944,1,0,0:0:0:0:
224,192,4043,1,0,0:0:0:0:
288,192,4043,1,0,0:0:0:0:
96,192,4043,1,0,0:0:0:0:
416,192,4043,1,0,0:0:0:0:
352,192,4142,1,0,0:0:0:0:
160,192,4142,1,0,0:0:0:0:
224,192,4240,1,0,0:0:0:0:
288,192,4240,1,0,0:0:0:0:
352,192,4339,1,0,0:0:0:0:
416,192,4339,1,0,0:0:0:0:
96,192,4339,1,0,0:0:0:0:
160,192,4339,1,0,0:0:0:0:
224,192,4438,1,0,0:0:0:0:
288,192,4438,1,0,0:0:0:0:
160,192,4536,1,0,0:0:0:0:
352,192,4536,1,0,0:0:0:0:
96,192,4635,1,0,0:0:0:0:
416,192,4635,1,0,0:0:0:0:
32,192,4734,1,0,0:0:0:0:
288,192,4734,1,0,0:0:0:0:
224,192,4734,128,0,5129:0:0:0:0:
416,192,4734,128,0,5129:0:0:0:0:
480,192,4734,1,0,0:0:0:0:
352,192,5129,1,0,0:0:0:0:
288,192,5129,128,0,5326:0:0:0:0:
32,192,5129,1,0,0:0:0:0:
96,192,5129,128,0,5326:0:0:0:0:
160,192,5326,1,0,0:0:0:0:
352,192,5326,128,0,5523:0:0:0:0:
224,192,5326,128,0,5523:0:0:0:0:
416,192,5523,1,0,0:0:0:0:
288,192,5523,128,0,5918:0:0:0:0:
32,192,5523,128,0,5918:0:0:0:0:
416,192,5918,1,0,0:0:0:0:
352,192,5918,128,0,6411:0:0:0:0:
224,192,5918,128,0,6411:0:0:0:0:
96,192,5918,128,0,6411:0:0:0:0:
480,192,5918,128,0,6411:0:0:0:0:
160,192,5918,1,0,0:0:0:0:
32,192,6411,1,0,0:0:0:0:
160,192,6411,1,0,0:0:0:0:
288,192,6411,1,0,0:0:0:0:
416,192,6411,1,0,0:0:0:0:
288,192,6510,1,0,0:0:0:0:
480,192,6510,1,0,0:0:0:0:
224,192,6609,1,0,0:0:0:0:
416,192,6609,1,0,0:0:0:0:
160,192,6708,1,0,0:0:0:0:
352,192,6708,1,0,0:0:0:0:
96,192,6806,1,0,0:0:0:0:
288,192,6806,1,0,0:0:0:0:
416,192,6905,1,0,0:0:0:0:
352,192,6905,1,0,0:0:0:0:
32,192,6905,1,0,0:0:0:0:
224,192,6905,1,0,0:0:0:0:
96,192,7004,1,0,0:0:0:0:
160,192,7004,1,0,0:0:0:0:
160,192,7102,1,0,0:0:0:0:
96,192,7102,1,0,0:0:0:0:
224,192,7201,1,0,0:0:0:0:
32,192,7201,1,0,0:0:0:0:
416,192,7300,1,0,0:0:0:0:
352,192,7300,1,0,0:0:0:0:
288,192,7300,1,0,0:0:0:0:
480,192,7300,1,0,0:0:0:0:
96,192,7300,1,0,0:0:0:0:
416,192,7398,1,0,0:0:0:0:
160,192,7398,1,0,0:0:0:0:
352,192,7497,1,0,0:0:0:0:
224,192,7497,1,0,0:0:0:0:
288,192,7596,1,0,0:0:0:0:
352,192,7694,1,0,0:0:0:0:
160,192,7694,1,0,0:0:0:0:
224,192,7694,1,0,0:0:0:0:
288,192,7793,1,0,0:0:0:0:
416,192,7793,1,0,0:0:0:0:
160,192,7793,1,0,0:0:0:0:
352,192,7892,1,0,0:0:0:0:
480,192,7892,1,0,0:0:0:0:
96,192,7892,1,0,0:0:0:0:
288,192,7990,1,0,0:0:0:0:
416,192,7990,1,0,0:0:0:0:
32,192,7990,1,0,0:0:0:0:
352,192,8089,1,0,0:0:0:0:
288,192,8089,1,0,0:0:0:0:
224,192,8089,1,0,0:0:0:0:
96,192,8089,1,0,0:0:0:0:
160,192,8188,1,0,0:0:0:0:
416,192,8188,1,0,0:0:0:0:
96,192,8286,1,0,0:0:0:0:
352,192,8286,1,0,0:0:0:0:
224,192,8286,1,0,0:0:0:0:
224,192,8385,1,0,0:0:0:0:
288,192,8385,1,0,0:0:0:0:
160,192,8484,1,0,0:0:0:0:
416,192,8484,1,0,0:0:0:0:
288,192,8484,1,0,0:0:0:0:
352,192,8484,1,0,0:0:0:0:
352,192,8583,1,0,0:0:0:0:
96,192,8583,1,0,0:0:0:0:
416,192,8583,1,0,0:0:0:0:
288,192,8681,1,0,0:0:0:0:
32,192,8681,1,0,0:0:0:0:
480,192,8681,1,0,0:0:0:0:
224,192,8780,1,0,0:0:0:0:
96,192,8780,1,0,0:0:0:0:
416,192,8780,1,0,0:0:0:0:
96,192,8879,1,0,0:0:0:0:
416,192,8879,1,0,0:0:0:0:
160,192,8879,1,0,0:0:0:0:
352,192,8879,1,0,0:0:0:0:
224,192,8977,1,0,0:0:0:0:
288,192,8977,1,0,0:0:0:0:
288,192,9076,1,0,0:0:0:0:
224,192,9076,1,0,0:0:0:0:
352,192,9175,1,0,0:0:0:0:
160,192,9175,1,0,0:0:0:0:
96,192,9273,1,0,0:0:0:0:
352,192,9273,1,0,0:0:0:0:
288,192,9273,1,0,0:0:0:0:
416,192,9273,1,0,0:0:0:0:
224,192,9273,1,0,0:0:0:0:
160,192,9273,1,0,0:0:0:0:
224,192,9372,1,0,0:0:0:0:
32,192,9372,1,0,0:0:0:0:
480,192,9372,1,0,0:0:0:0:
96,192,9372,1,0,0:0:0:0:
416,192,9372,1,0,0:0:0:0:
288,192,9372,1,0,0:0:0:0:
416,192,9471,1,0,0:0:0:0:
96,192,9471,1,0,0:0:0:0:
160,192,9471,1,0,0:0:0:0:
352,192,9471,1,0,0:0:0:0:
224,192,9471,1,0,0:0:0:0:
288,192,9471,1,0,0:0:0:0:
352,192,9569,1,0,0:0:0:0:
160,192,9569,1,0,0:0:0:0:
224,192,9668,1,0,0:0:0:0:
288,192,9668,1,0,0:0:0:0:
32,192,9668,1,0,0:0:0:0:
480,192,9668,1,0,0:0:0:0:
224,192,9767,1,0,0:0:0:0:
288,192,9767,1,0,0:0:0:0:
32,192,9767,1,0,0:0:0:0:
480,192,9767,1,0,0:0:0:0:
160,192,9865,1,0,0:0:0:0:
352,192,9865,1,0,0:0:0:0:
416,192,9964,1,0,0:0:0:0:
96,192,9964,1,0,0:0:0:0:
160,192,9964,1,0,0:0:0:0:
352,192,9964,1,0,0:0:0:0:
224,192,9964,1,0,0:0:0:0:
288,192,9964,1,0,0:0:0:0:
32,192,10063,1,0,0:0:0:0:
96,192,10063,1,0,0:0:0:0:
480,192,10063,1,0,0:0:0:0:
416,192,10063,1,0,0:0:0:0:
224,192,10063,1,0,0:0:0:0:
288,192,10063,1,0,0:0:0:0:
416,192,10161,1,0,0:0:0:0:
96,192,10161,1,0,0:0:0:0:
160,192,10161,1,0,0:0:0:0:
352,192,10161,1,0,0:0:0:0:
224,192,10161,1,0,0:0:0:0:
288,192,10161,1,0,0:0:0:0:
352,192,10260,1,0,0:0:0:0:
160,192,10260,1,0,0:0:0:0:
224,192,10359,1,0,0:0:0:0:
288,192,10359,1,0,0:0:0:0:
32,192,10359,1,0,0:0:0:0:
480,192,10359,1,0,0:0:0:0:
224,192,10458,1,0,0:0:0:0:
480,192,10458,1,0,0:0:0:0:
32,192,10458,1,0,0:0:0:0:
288,192,10458,1,0,0:0:0:0:
160,192,10556,1,0,0:0:0:0:
352,192,10556,1,0,0:0:0:0:
416,192,10655,1,0,0:0:0:0:
96,192,10655,1,0,0:0:0:0:
224,192,10655,1,0,0:0:0:0:
288,192,10655,1,0,0:0:0:0:
160,192,10655,1,0,0:0:0:0:
352,192,10655,1,0,0:0:0:0:
32,192,10754,1,0,0:0:0:0:
480,192,10754,1,0,0:0:0:0:
224,192,10754,1,0,0:0:0:0:
288,192,10754,1,0,0:0:0:0:
96,192,10754,1,0,0:0:0:0:
416,192,10754,1,0,0:0:0:0:
416,192,10852,1,0,0:0:0:0:
224,192,10852,1,0,0:0:0:0:
96,192,10852,1,0,0:0:0:0:
288,192,10852,1,0,0:0:0:0:
160,192,10852,1,0,0:0:0:0:
352,192,10852,1,0,0:0:0:0:
160,192,10951,1,0,0:0:0:0:
352,192,10951,1,0,0:0:0:0:
224,192,11050,1,0,0:0:0:0:
288,192,11050,1,0,0:0:0:0:
32,192,11050,1,0,0:0:0:0:
480,192,11050,1,0,0:0:0:0:
288,192,11148,1,0,0:0:0:0:
224,192,11148,1,0,0:0:0:0:
32,192,11148,1,0,0:0:0:0:
480,192,11148,1,0,0:0:0:0:
352,192,11247,1,0,0:0:0:0:
160,192,11247,1,0,0:0:0:0:
416,192,11346,1,0,0:0:0:0:
96,192,11346,1,0,0:0:0:0:
160,192,11346,1,0,0:0:0:0:
352,192,11346,1,0,0:0:0:0:
224,192,11395,1,0,0:0:0:0:
288,192,11395,1,0,0:0:0:0:
480,192,11444,1,0,0:0:0:0:
32,192,11444,1,0,0:0:0:0:
96,192,11444,1,0,0:0:0:0:
416,192,11444,1,0,0:0:0:0:
288,192,11494,1,0,0:0:0:0:
224,192,11494,1,0,0:0:0:0:
96,192,11543,1,0,0:0:0:0:
160,192,11543,1,0,0:0:0:0:
416,192,11543,1,0,0:0:0:0:
352,192,11543,1,0,0:0:0:0:
160,192,11642,1,0,0:0:0:0:
352,192,11642,1,0,0:0:0:0:
224,192,11740,1,0,0:0:0:0:
288,192,11740,1,0,0:0:0:0:
224,192,11839,1,0,0:0:0:0:
288,192,11839,1,0,0:0:0:0:
160,192,11938,1,0,0:0:0:0:
32,192,12036,1,0,0:0:0:0:
96,192,12036,1,0,0:0:0:0:
32,192,12135,1,0,0:0:0:0:
96,192,12234,1,0,0:0:0:0:
160,192,12333,1,0,0:0:0:0:
32,192,12431,1,0,0:0:0:0:
224,192,12431,1,0,0:0:0:0:
288,192,12530,1,0,0:0:0:0:
160,192,12629,1,0,0:0:0:0:
352,192,12629,1,0,0:0:0:0:
288,192,12629,1,0,0:0:0:0:
416,192,12727,1,0,0:0:0:0:
352,192,12727,1,0,0:0:0:0:
32,192,12826,1,0,0:0:0:0:
480,192,12826,1,0,0:0:0:0:
416,192,12826,1,0,0:0:0:0:
352,192,12826,1,0,0:0:0:0:
416,192,12925,1,0,0:0:0:0:
352,192,12925,1,0,0:0:0:0:
288,192,13023,1,0,0:0:0:0:
352,192,13023,1,0,0:0:0:0:
288,192,13122,1,0,0:0:0:0:
224,192,13221,1,0,0:0:0:0:
416,192,13221,1,0,0:0:0:0:
160,192,13319,1,0,0:0:0:0:
224,192,13319,1,0,0:0:0:0:
160,192,13418,1,0,0:0:0:0:
96,192,13418,1,0,0:0:0:0:
32,192,13517,1,0,0:0:0:0:
160,192,13517,1,0,0:0:0:0:
96,192,13517,1,0,0:0:0:0:
416,192,13615,1,0,0:0:0:0:
96,192,13615,1,0,0:0:0:0:
160,192,13615,1,0,0:0:0:0:
160,192,13714,1,0,0:0:0:0:
224,192,13714,1,0,0:0:0:0:
224,192,13813,1,0,0:0:0:0:
288,192,13911,1,0,0:0:0:0:
352,192,14010,1,0,0:0:0:0:
416,192,14109,1,0,0:0:0:0:
160,192,14208,1,0,0:0:0:0:
480,192,14208,1,0,0:0:0:0:
32,192,14306,1,0,0:0:0:0:
160,192,14306,1,0,0:0:0:0:
352,192,14405,1,0,0:0:0:0:
96,192,14405,1,0,0:0:0:0:
160,192,14504,1,0,0:0:0:0:
352,192,14504,1,0,0:0:0:0:
480,192,14602,1,0,0:0:0:0:
224,192,14602,1,0,0:0:0:0:
288,192,14701,1,0,0:0:0:0:
480,192,14701,1,0,0:0:0:0:
288,192,14800,1,0,0:0:0:0:
352,192,14800,1,0,0:0:0:0:
416,192,14898,1,0,0:0:0:0:
160,192,14898,1,0,0:0:0:0:
416,192,14997,1,0,0:0:0:0:
480,192,14997,1,0,0:0:0:0:
160,192,14997,1,0,0:0:0:0:
416,192,15096,1,0,0:0:0:0:
32,192,15096,1,0,0:0:0:0:
160,192,15096,1,0,0:0:0:0:
288,192,15096,1,0,0:0:0:0:
352,192,15194,1,0,0:0:0:0:
224,192,15194,1,0,0:0:0:0:
96,192,15194,1,0,0:0:0:0:
480,192,15194,1,0,0:0:0:0:
160,192,15293,1,0,0:0:0:0:
288,192,15293,1,0,0:0:0:0:
416,192,15293,1,0,0:0:0:0:
32,192,15293,1,0,0:0:0:0:
352,192,15392,1,0,0:0:0:0:
224,192,15392,1,0,0:0:0:0:
96,192,15392,1,0,0:0:0:0:
480,192,15392,1,0,0:0:0:0:
288,192,15490,1,0,0:0:0:0:
160,192,15490,1,0,0:0:0:0:
416,192,15490,1,0,0:0:0:0:
32,192,15490,1,0,0:0:0:0:
224,192,15589,1,0,0:0:0:0:
352,192,15589,1,0,0:0:0:0:
96,192,15589,1,0,0:0:0:0:
480,192,15589,1,0,0:0:0:0:
416,192,15688,1,0,0:0:0:0:
32,192,15688,1,0,0:0:0:0:
160,192,15688,1,0,0:0:0:0:
288,192,15688,1,0,0:0:0:0:
480,192,15786,1,0,0:0:0:0:
96,192,15786,1,0,0:0:0:0:
224,192,15786,1,0,0:0:0:0:
352,192,15786,1,0,0:0:0:0:
32,192,15885,1,0,0:0:0:0:
160,192,15984,1,0,0:0:0:0:
480,192,15984,1,0,0:0:0:0:
96,192,15984,1,0,0:0:0:0:
160,192,16083,1,0,0:0:0:0:
352,192,16181,1,0,0:0:0:0:
224,192,16181,1,0,0:0:0:0:
288,192,16280,1,0,0:0:0:0:
96,192,16379,1,0,0:0:0:0:
480,192,16379,1,0,0:0:0:0:
352,192,16379,1,0,0:0:0:0:
416,192,16477,1,0,0:0:0:0:
288,192,16576,1,0,0:0:0:0:
480,192,16576,1,0,0:0:0:0:
32,192,16675,1,0,0:0:0:0:
352,192,16773,1,0,0:0:0:0:
480,192,16773,1,0,0:0:0:0:
96,192,16773,1,0,0:0:0:0:
160,192,16872,1,0,0:0:0:0:
96,192,16971,1,0,0:0:0:0:
224,192,16971,1,0,0:0:0:0:
288,192,17069,1,0,0:0:0:0:
32,192,17168,1,0,0:0:0:0:
352,192,17168,1,0,0:0:0:0:
416,192,17267,1,0,0:0:0:0:
224,192,17365,1,0,0:0:0:0:
480,192,17365,1,0,0:0:0:0:
352,192,17464,1,0,0:0:0:0:
96,192,17563,1,0,0:0:0:0:
416,192,17661,1,0,0:0:0:0:
160,192,17760,1,0,0:0:0:0:
480,192,17859,128,0,18944:0:0:0:0:
96,192,17958,1,0,0:0:0:0:
32,192,18155,1,0,0:0:0:0:
32,192,18352,1,0,0:0:0:0:
288,192,18549,128,0,18944:0:0:0:0:
352,192,18944,1,0,0:0:0:0:
224,192,18944,1,0,0:0:0:0:
96,192,18944,1,0,0:0:0:0:
416,192,18944,1,0,0:0:0:0:
288,192,19043,1,0,0:0:0:0:
160,192,19043,1,0,0:0:0:0:
416,192,19043,1,0,0:0:0:0:
224,192,19142,1,0,0:0:0:0:
352,192,19142,1,0,0:0:0:0:
160,192,19240,1,0,0:0:0:0:
288,192,19240,1,0,0:0:0:0:
96,192,19339,1,0,0:0:0:0:
352,192,19339,1,0,0:0:0:0:
160,192,19339,1,0,0:0:0:0:
288,192,19339,1,0,0:0:0:0:
224,192,19339,1,0,0:0:0:0:
160,192,19438,1,0,0:0:0:0:
288,192,19438,1,0,0:0:0:0:
224,192,19536,1,0,0:0:0:0:
288,192,19635,1,0,0:0:0:0:
160,192,19635,1,0,0:0:0:0:
352,192,19734,1,0,0:0:0:0:
96,192,19734,1,0,0:0:0:0:
416,192,19833,1,0,0:0:0:0:
352,192,19833,1,0,0:0:0:0:
96,192,19833,1,0,0:0:0:0:
32,192,19833,1,0,0:0:0:0:
224,192,19833,1,0,0:0:0:0:
352,192,19931,1,0,0:0:0:0:
96,192,19931,1,0,0:0:0:0:
288,192,20030,1,0,0:0:0:0:
160,192,20030,1,0,0:0:0:0:
352,192,20129,1,0,0:0:0:0:
224,192,20129,1,0,0:0:0:0:
96,192,20129,1,0,0:0:0:0:
32,192,20227,1,0,0:0:0:0:
160,192,20227,1,0,0:0:0:0:
96,192,20326,1,0,0:0:0:0:
224,192,20326,1,0,0:0:0:0:
288,192,20425,1,0,0:0:0:0:
352,192,20523,1,0,0:0:0:0:
480,192,20622,1,0,0:0:0:0:
416,192,20622,1,0,0:0:0:0:
352,192,20721,1,0,0:0:0:0:
288,192,20819,1,0,0:0:0:0:
224,192,20918,1,0,0:0:0:0:
352,192,20918,1,0,0:0:0:0:
480,192,21017,1,0,0:0:0:0:
160,192,21017,1,0,0:0:0:0:
224,192,21115,1,0,0:0:0:0:
288,192,21214,1,0,0:0:0:0:
352,192,21313,1,0,0:0:0:0:
224,192,21313,1,0,0:0:0:0:
416,192,21411,1,0,0:0:0:0:
160,192,21411,1,0,0:0:0:0:
32,192,21411,1,0,0:0:0:0:
96,192,21510,1,0,0:0:0:0:
32,192,21609,1,0,0:0:0:0:
160,192,21609,1,0,0:0:0:0:
224,192,21708,1,0,0:0:0:0:
96,192,21708,1,0,0:0:0:0:
288,192,21806,1,0,0:0:0:0:
160,192,21806,1,0,0:0:0:0:
352,192,21905,1,0,0:0:0:0:
96,192,21905,1,0,0:0:0:0:
480,192,22004,1,0,0:0:0:0:
32,192,22004,1,0,0:0:0:0:
416,192,22004,1,0,0:0:0:0:
32,192,22102,1,0,0:0:0:0:
96,192,22102,1,0,0:0:0:0:
224,192,22201,1,0,0:0:0:0:
160,192,22201,1,0,0:0:0:0:
288,192,22300,1,0,0:0:0:0:
352,192,22398,1,0,0:0:0:0:
288,192,22398,1,0,0:0:0:0:
416,192,22497,1,0,0:0:0:0:
352,192,22497,1,0,0:0:0:0:
352,192,22596,1,0,0:0:0:0:
288,192,22596,1,0,0:0:0:0:
288,192,22694,1,0,0:0:0:0:
224,192,22793,1,0,0:0:0:0:
480,192,22892,1,0,0:0:0:0:
416,192,22990,1,0,0:0:0:0:
352,192,23089,1,0,0:0:0:0:
288,192,23188,1,0,0:0:0:0:
224,192,23286,1,0,0:0:0:0:
160,192,23385,1,0,0:0:0:0:
96,192,23484,1,0,0:0:0:0:
160,192,23484,1,0,0:0:0:0:
32,192,23583,1,0,0:0:0:0:
96,192,23583,1,0,0:0:0:0:
32,192,23681,1,0,0:0:0:0:
96,192,23681,1,0,0:0:0:0:
96,192,23780,1,0,0:0:0:0:
160,192,23780,1,0,0:0:0:0:
160,192,23879,1,0,0:0:0:0:
224,192,23977,1,0,0:0:0:0:
288,192,24076,1,0,0:0:0:0:
352,192,24175,1,0,0:0:0:0:
288,192,24175,1,0,0:0:0:0:
416,192,24273,1,0,0:0:0:0:
352,192,24273,1,0,0:0:0:0:
480,192,24372,1,0,0:0:0:0:
416,192,24372,1,0,0:0:0:0:
352,192,24372,1,0,0:0:0:0:
416,192,24471,1,0,0:0:0:0:
352,192,24471,1,0,0:0:0:0:
352,192,24569,1,0,0:0:0:0:
288,192,24569,1,0,0:0:0:0:
288,192,24668,1,0,0:0:0:0:
224,192,24767,1,0,0:0:0:0:
160,192,24865,1,0,0:0:0:0:
96,192,24964,1,0,0:0:0:0:
32,192,25063,1,0,0:0:0:0:
416,192,25161,1,0,0:0:0:0:
480,192,25260,1,0,0:0:0:0:
416,192,25260,1,0,0:0:0:0:
416,192,25359,1,0,0:0:0:0:
352,192,25458,1,0,0:0:0:0:
416,192,25458,1,0,0:0:0:0:
416,192,25556,1,0,0:0:0:0:
480,192,25655,1,0,0:0:0:0:
416,192,25655,1,0,0:0:0:0:
416,192,25754,1,0,0:0:0:0:
352,192,25852,1,0,0:0:0:0:
416,192,25852,1,0,0:0:0:0:
416,192,25951,1,0,0:0:0:0:
480,192,26050,1,0,0:0:0:0:
416,192,26050,1,0,0:0:0:0:
416,192,26148,1,0,0:0:0:0:
352,192,26247,1,0,0:0:0:0:
416,192,26247,1,0,0:0:0:0:
416,192,26346,1,0,0:0:0:0:
480,192,26444,1,0,0:0:0:0:
416,192,26444,1,0,0:0:0:0:
416,192,26543,1,0,0:0:0:0:
352,192,26642,1,0,0:0:0:0:
416,192,26642,1,0,0:0:0:0:
416,192,26740,1,0,0:0:0:0:
32,192,26839,1,0,0:0:0:0:
480,192,26839,1,0,0:0:0:0:
96,192,26938,1,0,0:0:0:0:
160,192,27036,1,0,0:0:0:0:
96,192,27036,1,0,0:0:0:0:
96,192,27135,1,0,0:0:0:0:
32,192,27234,1,0,0:0:0:0:
96,192,27234,1,0,0:0:0:0:
96,192,27333,1,0,0:0:0:0:
160,192,27431,1,0,0:0:0:0:
96,192,27431,1,0,0:0:0:0:
96,192,27530,1,0,0:0:0:0:
32,192,27629,1,0,0:0:0:0:
96,192,27629,1,0,0:0:0:0:
96,192,27727,1,0,0:0:0:0:
160,192,27826,1,0,0:0:0:0:
96,192,27826,1,0,0:0:0:0:
96,192,27925,1,0,0:0:0:0:
32,192,28023,1,0,0:0:0:0:
96,192,28023,1,0,0:0:0:0:
96,192,28122,1,0,0:0:0:0:
160,192,28221,1,0,0:0:0:0:
96,192,28221,1,0,0:0:0:0:
96,192,28319,1,0,0:0:0:0:
224,192,28418,1,0,0:0:0:0:
32,192,28418,1,0,0:0:0:0:
288,192,28517,1,0,0:0:0:0:
160,192,28517,1,0,0:0:0:0:
480,192,28566,128,0,30096:0:0:0:0:
352,192,28615,1,0,0:0:0:0:
288,192,28615,1,0,0:0:0:0:
224,192,28615,1,0,0:0:0:0:
288,192,28714,1,0,0:0:0:0:
160,192,28714,1,0,0:0:0:0:
416,192,28714,1,0,0:0:0:0:
224,192,28813,1,0,0:0:0:0:
288,192,28813,1,0,0:0:0:0:
352,192,28813,1,0,0:0:0:0:
288,192,28911,1,0,0:0:0:0:
416,192,28911,1,0,0:0:0:0:
352,192,29010,1,0,0:0:0:0:
32,192,29109,1,0,0:0:0:0:
96,192,29109,1,0,0:0:0:0:
160,192,29208,1,0,0:0:0:0:
32,192,29306,1,0,0:0:0:0:
224,192,29306,1,0,0:0:0:0:
224,192,29405,1,0,0:0:0:0:
288,192,29405,1,0,0:0:0:0:
32,192,29504,1,0,0:0:0:0:
352,192,29504,1,0,0:0:0:0:
416,192,29602,1,0,0:0:0:0:
160,192,29602,1,0,0:0:0:0:
288,192,29602,1,0,0:0:0:0:
96,192,29602,1,0,0:0:0:0:
32,192,29701,1,0,0:0:0:0:
160,192,29701,1,0,0:0:0:0:
224,192,29800,1,0,0:0:0:0:
352,192,29800,1,0,0:0:0:0:
32,192,29898,1,0,0:0:0:0:
288,192,29898,1,0,0:0:0:0:
96,192,29997,1,0,0:0:0:0:
416,192,29997,1,0,0:0:0:0:
352,192,29997,1,0,0:0:0:0:
160,192,30096,1,0,0:0:0:0:
352,192,30096,1,0,0:0:0:0:
416,192,30096,1,0,0:0:0:0:
32,192,30194,1,0,0:0:0:0:
480,192,30194,1,0,0:0:0:0:
224,192,30194,1,0,0:0:0:0:
96,192,30194,1,0,0:0:0:0:
416,192,30194,1,0,0:0:0:0:
288,192,30293,1,0,0:0:0:0:
32,192,30392,1,0,0:0:0:0:
480,192,30392,1,0,0:0:0:0:
352,192,30392,1,0,0:0:0:0:
96,192,30392,1,0,0:0:0:0:
416,192,30392,1,0,0:0:0:0:
160,192,30392,1,0,0:0:0:0:
160,192,30490,1,0,0:0:0:0:
352,192,30490,1,0,0:0:0:0:
288,192,30490,1,0,0:0:0:0:
224,192,30490,1,0,0:0:0:0:
416,192,30490,1,0,0:0:0:0:
96,192,30490,1,0,0:0:0:0:
32,192,30589,1,0,0:0:0:0:
480,192,30589,1,0,0:0:0:0:
96,192,30589,1,0,0:0:0:0:
416,192,30589,1,0,0:0:0:0:
224,192,30688,1,0,0:0:0:0:
288,192,30688,1,0,0:0:0:0:
160,192,30688,1,0,0:0:0:0:
352,192,30688,1,0,0:0:0:0:
32,192,30786,1,0,0:0:0:0:
480,192,30786,1,0,0:0:0:0:
96,192,30786,1,0,0:0:0:0:
416,192,30786,1,0,0:0:0:0:
160,192,30885,1,0,0:0:0:0:
352,192,30885,1,0,0:0:0:0:
224,192,30885,1,0,0:0:0:0:
288,192,30885,1,0,0:0:0:0:
32,192,30984,1,0,0:0:0:0:
480,192,30984,1,0,0:0:0:0:
96,192,30984,1,0,0:0:0:0:
416,192,30984,1,0,0:0:0:0:
224,192,31083,1,0,0:0:0:0:
288,192,31083,1,0,0:0:0:0:
160,192,31083,1,0,0:0:0:0:
352,192,31083,1,0,0:0:0:0:
32,192,31181,1,0,0:0:0:0:
480,192,31181,1,0,0:0:0:0:
96,192,31181,1,0,0:0:0:0:
416,192,31181,1,0,0:0:0:0:
416,192,31576,1,0,0:0:0:0:
32,192,31576,1,0,0:0:0:0:
96,192,31576,1,0,0:0:0:0:
160,192,31576,1,0,0:0:0:0:
224,192,31576,1,0,0:0:0:0:
288,192,31576,1,0,0:0:0:0:
480,192,31675,1,0,0:0:0:0:
352,192,31675,1,0,0:0:0:0:
416,192,31971,1,0,0:0:0:0:
224,192,31971,1,0,0:0:0:0:
160,192,31971,1,0,0:0:0:0:
288,192,31971,1,0,0:0:0:0:
96,192,31971,1,0,0:0:0:0:
352,192,32069,1,0,0:0:0:0:
480,192,32069,1,0,0:0:0:0:
96,192,32365,1,0,0:0:0:0:
416,192,32365,1,0,0:0:0:0:
160,192,32365,1,0,0:0:0:0:
32,192,32365,1,0,0:0:0:0:
224,192,32365,1,0,0:0:0:0:
288,192,32365,1,0,0:0:0:0:
480,192,32464,1,0,0:0:0:0:
352,192,32464,1,0,0:0:0:0:
224,192,32760,1,0,0:0:0:0:
416,192,32760,1,0,0:0:0:0:
160,192,32760,1,0,0:0:0:0:
96,192,32760,1,0,0:0:0:0:
288,192,32760,1,0,0:0:0:0:
352,192,32859,1,0,0:0:0:0:
352,192,33155,1,0,0:0:0:0:
32,192,33155,1,0,0:0:0:0:
160,192,33155,1,0,0:0:0:0:
288,192,33155,1,0,0:0:0:0:
416,192,33254,1,0,0:0:0:0:
32,192,33254,1,0,0:0:0:0:
160,192,33254,1,0,0:0:0:0:
288,192,33254,1,0,0:0:0:0:
288,192,33352,1,0,0:0:0:0:
32,192,33352,1,0,0:0:0:0:
160,192,33352,1,0,0:0:0:0:
96,192,33550,1,0,0:0:0:0:
480,192,33550,1,0,0:0:0:0:
224,192,33550,1,0,0:0:0:0:
352,192,33550,1,0,0:0:0:0:
96,192,33648,1,0,0:0:0:0:
416,192,33648,1,0,0:0:0:0:
224,192,33648,1,0,0:0:0:0:
352,192,33648,1,0,0:0:0:0:
352,192,33747,1,0,0:0:0:0:
96,192,33747,1,0,0:0:0:0:
224,192,33747,1,0,0:0:0:0:
160,192,33944,1,0,0:0:0:0:
352,192,33944,1,0,0:0:0:0:
288,192,33944,1,0,0:0:0:0:
32,192,33944,1,0,0:0:0:0:
160,192,34043,1,0,0:0:0:0:
416,192,34043,1,0,0:0:0:0:
288,192,34043,1,0,0:0:0:0:
32,192,34043,1,0,0:0:0:0:
160,192,34142,1,0,0:0:0:0:
288,192,34142,1,0,0:0:0:0:
32,192,34142,1,0,0:0:0:0:
224,192,34339,1,0,0:0:0:0:
480,192,34339,1,0,0:0:0:0:
96,192,34339,1,0,0:0:0:0:
352,192,34339,1,0,0:0:0:0:
224,192,34438,1,0,0:0:0:0:
416,192,34438,1,0,0:0:0:0:
96,192,34438,1,0,0:0:0:0:
352,192,34438,1,0,0:0:0:0:
224,192,34536,1,0,0:0:0:0:
96,192,34536,1,0,0:0:0:0:
352,192,34536,1,0,0:0:0:0:
160,192,34734,1,0,0:0:0:0:
416,192,34734,1,0,0:0:0:0:
32,192,34734,1,0,0:0:0:0:
96,192,34734,1,0,0:0:0:0:
224,192,34734,1,0,0:0:0:0:
288,192,34734,1,0,0:0:0:0:
352,192,34833,1,0,0:0:0:0:
480,192,34833,1,0,0:0:0:0:
160,192,35129,1,0,0:0:0:0:
416,192,35129,1,0,0:0:0:0:
96,192,35129,1,0,0:0:0:0:
224,192,35129,1,0,0:0:0:0:
288,192,35129,1,0,0:0:0:0:
480,192,35227,1,0,0:0:0:0:
352,192,35227,1,0,0:0:0:0:
96,192,35523,1,0,0:0:0:0:
416,192,35523,1,0,0:0:0:0:
32,192,35523,1,0,0:0:0:0:
160,192,35523,1,0,0:0:0:0:
224,192,35523,1,0,0:0:0:0:
288,192,35523,1,0,0:0:0:0:
352,192,35622,1,0,0:0:0:0:
480,192,35622,1,0,0:0:0:0:
160,192,35918,1,0,0:0:0:0:
416,192,35918,1,0,0:0:0:0:
96,192,35918,1,0,0:0:0:0:
224,192,35918,1,0,0:0:0:0:
288,192,35918,1,0,0:0:0:0:
480,192,36017,1,0,0:0:0:0:
352,192,36017,1,0,0:0:0:0:
160,192,36313,1,0,0:0:0:0:
32,192,36313,1,0,0:0:0:0:
480,192,36313,1,0,0:0:0:0:
288,192,36313,1,0,0:0:0:0:
224,192,36313,1,0,0:0:0:0:
96,192,36313,1,0,0:0:0:0:
352,192,36411,1,0,0:0:0:0:
416,192,36510,1,0,0:0:0:0:
480,192,36609,1,0,0:0:0:0:
416,192,36609,1,0,0:0:0:0:
480,192,36708,1,0,0:0:0:0:
416,192,36708,1,0,0:0:0:0:
416,192,36806,1,0,0:0:0:0:
352,192,36905,1,0,0:0:0:0:
32,192,37004,1,0,0:0:0:0:
288,192,37004,1,0,0:0:0:0:
160,192,37102,1,0,0:0:0:0:
480,192,37102,1,0,0:0:0:0:
224,192,37102,1,0,0:0:0:0:
96,192,37201,1,0,0:0:0:0:
416,192,37201,1,0,0:0:0:0:
160,192,37201,1,0,0:0:0:0:
160,192,37300,1,0,0:0:0:0:
480,192,37300,1,0,0:0:0:0:
96,192,37300,1,0,0:0:0:0:
32,192,37398,1,0,0:0:0:0:
160,192,37398,1,0,0:0:0:0:
416,192,37398,1,0,0:0:0:0:
96,192,37398,1,0,0:0:0:0:
352,192,37497,1,0,0:0:0:0:
96,192,37497,1,0,0:0:0:0:
160,192,37497,1,0,0:0:0:0:
224,192,37596,1,0,0:0:0:0:
288,192,37596,1,0,0:0:0:0:
96,192,37596,1,0,0:0:0:0:
160,192,37596,1,0,0:0:0:0:
352,192,37694,1,0,0:0:0:0:
480,192,37694,1,0,0:0:0:0:
160,192,37694,1,0,0:0:0:0:
160,192,37793,1,0,0:0:0:0:
288,192,37793,1,0,0:0:0:0:
224,192,37793,1,0,0:0:0:0:
96,192,37892,1,0,0:0:0:0:
352,192,37892,1,0,0:0:0:0:
288,192,37892,1,0,0:0:0:0:
96,192,37990,1,0,0:0:0:0:
416,192,37990,1,0,0:0:0:0:
352,192,37990,1,0,0:0:0:0:
32,192,38089,1,0,0:0:0:0:
416,192,38089,1,0,0:0:0:0:
480,192,38188,1,0,0:0:0:0:
96,192,38286,1,0,0:0:0:0:
480,192,38286,1,0,0:0:0:0:
160,192,38286,1,0,0:0:0:0:
224,192,38286,1,0,0:0:0:0:
416,192,38286,1,0,0:0:0:0:
352,192,38286,1,0,0:0:0:0:
96,192,38385,1,0,0:0:0:0:
416,192,38385,1,0,0:0:0:0:
160,192,38484,1,0,0:0:0:0:
96,192,38681,1,0,0:0:0:0:
352,192,38681,1,0,0:0:0:0:
32,192,38681,1,0,0:0:0:0:
160,192,38681,1,0,0:0:0:0:
288,192,38681,1,0,0:0:0:0:
416,192,38681,1,0,0:0:0:0:
96,192,38780,1,0,0:0:0:0:
416,192,38780,1,0,0:0:0:0:
32,192,38879,1,0,0:0:0:0:
160,192,39076,1,0,0:0:0:0:
480,192,39076,1,0,0:0:0:0:
96,192,39076,1,0,0:0:0:0:
224,192,39076,1,0,0:0:0:0:
416,192,39076,1,0,0:0:0:0:
352,192,39076,1,0,0:0:0:0:
160,192,39175,1,0,0:0:0:0:
416,192,39175,1,0,0:0:0:0:
96,192,39273,1,0,0:0:0:0:
416,192,39471,1,0,0:0:0:0:
32,192,39471,1,0,0:0:0:0:
96,192,39471,1,0,0:0:0:0:
160,192,39471,1,0,0:0:0:0:
288,192,39471,1,0,0:0:0:0:
352,192,39471,1,0,0:0:0:0:
96,192,39569,1,0,0:0:0:0:
352,192,39569,1,0,0:0:0:0:
32,192,39668,1,0,0:0:0:0:
160,192,39865,1,0,0:0:0:0:
416,192,39865,1,0,0:0:0:0:
224,192,39865,1,0,0:0:0:0:
96,192,39865,1,0,0:0:0:0:
352,192,39865,1,0,0:0:0:0:
480,192,39865,1,0,0:0:0:0:
224,192,39964,1,0,0:0:0:0:
480,192,39964,1,0,0:0:0:0:
160,192,40063,1,0,0:0:0:0:
416,192,40260,1,0,0:0:0:0:
32,192,40260,1,0,0:0:0:0:
96,192,40260,1,0,0:0:0:0:
160,192,40260,1,0,0:0:0:0:
352,192,40260,1,0,0:0:0:0:
288,192,40260,1,0,0:0:0:0:
96,192,40359,1,0,0:0:0:0:
352,192,40359,1,0,0:0:0:0:
32,192,40458,1,0,0:0:0:0:
160,192,40655,1,0,0:0:0:0:
416,192,40655,1,0,0:0:0:0:
224,192,40655,1,0,0:0:0:0:
96,192,40655,1,0,0:0:0:0:
352,192,40655,1,0,0:0:0:0:
288,192,40655,1,0,0:0:0:0:
224,192,40754,1,0,0:0:0:0:
480,192,40754,1,0,0:0:0:0:
160,192,40852,1,0,0:0:0:0:
96,192,41050,1,0,0:0:0:0:
480,192,41050,1,0,0:0:0:0:
160,192,41050,1,0,0:0:0:0:
224,192,41050,1,0,0:0:0:0:
416,192,41050,1,0,0:0:0:0:
32,192,41050,1,0,0:0:0:0:
96,192,41148,1,0,0:0:0:0:
416,192,41148,1,0,0:0:0:0:
32,192,41247,1,0,0:0:0:0:
352,192,41444,1,0,0:0:0:0:
32,192,41444,1,0,0:0:0:0:
96,192,41444,1,0,0:0:0:0:
160,192,41444,1,0,0:0:0:0:
416,192,41444,1,0,0:0:0:0:
480,192,41444,1,0,0:0:0:0:
416,192,41543,1,0,0:0:0:0:
32,192,41543,1,0,0:0:0:0:
96,192,41642,1,0,0:0:0:0:
224,192,41839,1,0,0:0:0:0:
480,192,41839,1,0,0:0:0:0:
288,192,41839,1,0,0:0:0:0:
352,192,41839,1,0,0:0:0:0:
416,192,41839,1,0,0:0:0:0:
160,192,41839,1,0,0:0:0:0:
160,192,41938,1,0,0:0:0:0:
416,192,41938,1,0,0:0:0:0:
96,192,42036,1,0,0:0:0:0:
160,192,42234,1,0,0:0:0:0:
352,192,42234,1,0,0:0:0:0:
96,192,42234,1,0,0:0:0:0:
224,192,42234,1,0,0:0:0:0:
288,192,42234,1,0,0:0:0:0:
32,192,42234,1,0,0:0:0:0:
224,192,42333,1,0,0:0:0:0:
416,192,42333,1,0,0:0:0:0:
160,192,42431,1,0,0:0:0:0:
32,192,42629,1,0,0:0:0:0:
480,192,42629,1,0,0:0:0:0:
96,192,42727,1,0,0:0:0:0:
416,192,42727,1,0,0:0:0:0:
32,192,42727,1,0,0:0:0:0:
480,192,42727,1,0,0:0:0:0:
160,192,42826,1,0,0:0:0:0:
352,192,42826,1,0,0:0:0:0:
96,192,42826,1,0,0:0:0:0:
416,192,42826,1,0,0:0:0:0:
32,192,42826,1,0,0:0:0:0:
480,192,42826,1,0,0:0:0:0:
96,192,42925,1,0,0:0:0:0:
416,192,42925,1,0,0:0:0:0:
32,192,42925,1,0,0:0:0:0:
480,192,42925,1,0,0:0:0:0:
32,192,43023,1,0,0:0:0:0:
480,192,43023,1,0,0:0:0:0:
288,192,43122,1,0,0:0:0:0:
224,192,43122,1,0,0:0:0:0:
160,192,43221,1,0,0:0:0:0:
352,192,43221,1,0,0:0:0:0:
96,192,43319,1,0,0:0:0:0:
416,192,43319,1,0,0:0:0:0:
32,192,43418,1,0,0:0:0:0:
480,192,43418,1,0,0:0:0:0:
160,192,43517,1,0,0:0:0:0:
416,192,43517,1,0,0:0:0:0:
96,192,43517,1,0,0:0:0:0:
352,192,43517,1,0,0:0:0:0:
224,192,43615,1,0,0:0:0:0:
352,192,43615,1,0,0:0:0:0:
160,192,43615,1,0,0:0:0:0:
288,192,43615,1,0,0:0:0:0:
288,192,43714,1,0,0:0:0:0:
224,192,43714,1,0,0:0:0:0:
224,192,43813,1,0,0:0:0:0:
352,192,43813,1,0,0:0:0:0:
288,192,43813,1,0,0:0:0:0:
160,192,43813,1,0,0:0:0:0:
32,192,43911,1,0,0:0:0:0:
480,192,43911,1,0,0:0:0:0:
352,192,43911,1,0,0:0:0:0:
160,192,43911,1,0,0:0:0:0:
96,192,43911,1,0,0:0:0:0:
416,192,43911,1,0,0:0:0:0:
96,192,44010,1,0,0:0:0:0:
416,192,44010,1,0,0:0:0:0:
160,192,44109,1,0,0:0:0:0:
352,192,44109,1,0,0:0:0:0:
288,192,44208,1,0,0:0:0:0:
224,192,44208,1,0,0:0:0:0:
32,192,44602,128,0,44800:0:0:0:0:
480,192,44602,128,0,44800:0:0:0:0:
96,192,44800,1,0,0:0:0:0:
416,192,44800,1,0,0:0:0:0:
160,192,44800,1,0,0:0:0:0:
352,192,44800,1,0,0:0:0:0:
224,192,44800,128,0,44997:0:0:0:0:
288,192,44800,128,0,44997:0:0:0:0:
96,192,44997,128,0,47612:0:0:0:0:
160,192,44997,128,0,48007:0:0:0:0:
352,192,44997,128,0,48796:0:0:0:0:
416,192,44997,128,0,48796:0:0:0:0:
32,192,44997,128,0,47217:0:0:0:0:
480,192,44997,128,0,48796:0:0:0:0:
224,192,47365,1,0,0:0:0:0:
224,192,47513,1,0,0:0:0:0:
224,192,47612,1,0,0:0:0:0:
288,192,47760,1,0,0:0:0:0:
96,192,47760,1,0,0:0:0:0:
288,192,47908,1,0,0:0:0:0:
96,192,47908,1,0,0:0:0:0:
288,192,48007,1,0,0:0:0:0:
96,192,48007,1,0,0:0:0:0:
224,192,48155,1,0,0:0:0:0:
160,192,48155,1,0,0:0:0:0:
32,192,48155,1,0,0:0:0:0:
224,192,48303,1,0,0:0:0:0:
160,192,48303,1,0,0:0:0:0:
32,192,48303,1,0,0:0:0:0:
224,192,48402,1,0,0:0:0:0:
160,192,48402,1,0,0:0:0:0:
32,192,48402,1,0,0:0:0:0:
288,192,48550,1,0,0:0:0:0:
96,192,48550,1,0,0:0:0:0:
288,192,48698,1,0,0:0:0:0:
96,192,48698,1,0,0:0:0:0:
288,192,48796,1,0,0:0:0:0:
96,192,48796,1,0,0:0:0:0:
224,192,48944,1,0,0:0:0:0:
160,192,48944,1,0,0:0:0:0:
352,192,48944,1,0,0:0:0:0:
480,192,48944,1,0,0:0:0:0:
224,192,49092,1,0,0:0:0:0:
160,192,49092,1,0,0:0:0:0:
352,192,49092,1,0,0:0:0:0:
480,192,49092,1,0,0:0:0:0:
224,192,49191,1,0,0:0:0:0:
160,192,49191,1,0,0:0:0:0:
352,192,49191,1,0,0:0:0:0:
480,192,49191,1,0,0:0:0:0:
352,192,49339,1,0,0:0:0:0:
224,192,49339,1,0,0:0:0:0:
96,192,49339,1,0,0:0:0:0:
480,192,49339,1,0,0:0:0:0:
96,192,49487,1,0,0:0:0:0:
352,192,49487,1,0,0:0:0:0:
224,192,49487,1,0,0:0:0:0:
480,192,49487,1,0,0:0:0:0:
352,192,49586,1,0,0:0:0:0:
224,192,49586,1,0,0:0:0:0:
96,192,49586,1,0,0:0:0:0:
480,192,49586,1,0,0:0:0:0:
288,192,49734,1,0,0:0:0:0:
32,192,49734,1,0,0:0:0:0:
416,192,49734,1,0,0:0:0:0:
160,192,49734,1,0,0:0:0:0:
288,192,49882,1,0,0:0:0:0:
32,192,49882,1,0,0:0:0:0:
416,192,49882,1,0,0:0:0:0:
160,192,49882,1,0,0:0:0:0:
288,192,49981,1,0,0:0:0:0:
32,192,49981,1,0,0:0:0:0:
416,192,49981,1,0,0:0:0:0:
160,192,49981,1,0,0:0:0:0:
352,192,50129,128,0,50523:0:0:0:0:
288,192,50523,1,0,0:0:0:0:
224,192,50622,1,0,0:0:0:0:
160,192,50721,1,0,0:0:0:0:
224,192,50721,1,0,0:0:0:0:
96,192,50819,1,0,0:0:0:0:
160,192,50819,1,0,0:0:0:0:
160,192,50918,1,0,0:0:0:0:
416,192,50918,1,0,0:0:0:0:
480,192,50918,1,0,0:0:0:0:
224,192,50918,1,0,0:0:0:0:
224,192,51017,1,0,0:0:0:0:
288,192,51115,1,0,0:0:0:0:
352,192,51214,1,0,0:0:0:0:
288,192,51214,1,0,0:0:0:0:
224,192,51313,1,0,0:0:0:0:
288,192,51313,1,0,0:0:0:0:
352,192,51313,1,0,0:0:0:0:
224,192,51411,1,0,0:0:0:0:
288,192,51411,1,0,0:0:0:0:
288,192,51510,1,0,0:0:0:0:
352,192,51510,1,0,0:0:0:0:
352,192,51609,1,0,0:0:0:0:
96,192,51708,1,0,0:0:0:0:
416,192,51708,1,0,0:0:0:0:
480,192,51708,1,0,0:0:0:0:
160,192,51708,1,0,0:0:0:0:
352,192,51806,1,0,0:0:0:0:
288,192,51905,1,0,0:0:0:0:
352,192,51905,1,0,0:0:0:0:
224,192,52004,1,0,0:0:0:0:
288,192,52004,1,0,0:0:0:0:
160,192,52102,1,0,0:0:0:0:
224,192,52102,1,0,0:0:0:0:
96,192,52201,1,0,0:0:0:0:
160,192,52201,1,0,0:0:0:0:
160,192,52300,1,0,0:0:0:0:
224,192,52300,1,0,0:0:0:0:
288,192,52398,1,0,0:0:0:0:
224,192,52398,1,0,0:0:0:0:
288,192,52497,1,0,0:0:0:0:
416,192,52497,1,0,0:0:0:0:
480,192,52497,1,0,0:0:0:0:
32,192,52497,1,0,0:0:0:0:
480,192,52596,1,0,0:0:0:0:
96,192,52596,1,0,0:0:0:0:
416,192,52694,1,0,0:0:0:0:
160,192,52694,1,0,0:0:0:0:
480,192,52793,1,0,0:0:0:0:
224,192,52793,1,0,0:0:0:0:
288,192,52892,1,0,0:0:0:0:
224,192,52990,1,0,0:0:0:0:
352,192,52990,1,0,0:0:0:0:
288,192,53089,1,0,0:0:0:0:
416,192,53089,1,0,0:0:0:0:
224,192,53188,1,0,0:0:0:0:
480,192,53188,1,0,0:0:0:0:
288,192,53286,1,0,0:0:0:0:
480,192,53286,1,0,0:0:0:0:
32,192,53286,1,0,0:0:0:0:
224,192,53385,1,0,0:0:0:0:
96,192,53385,1,0,0:0:0:0:
416,192,53484,1,0,0:0:0:0:
160,192,53484,1,0,0:0:0:0:
480,192,53583,1,0,0:0:0:0:
224,192,53583,1,0,0:0:0:0:
32,192,53681,1,0,0:0:0:0:
288,192,53681,1,0,0:0:0:0:
160,192,53780,1,0,0:0:0:0:
352,192,53780,1,0,0:0:0:0:
352,192,53879,1,0,0:0:0:0:
416,192,53879,1,0,0:0:0:0:
416,192,53977,1,0,0:0:0:0:
480,192,53977,1,0,0:0:0:0:
96,192,54076,1,0,0:0:0:0:
352,192,54076,1,0,0:0:0:0:
480,192,54076,1,0,0:0:0:0:
32,192,54175,1,0,0:0:0:0:
480,192,54175,1,0,0:0:0:0:
416,192,54175,1,0,0:0:0:0:
160,192,54273,1,0,0:0:0:0:
416,192,54273,1,0,0:0:0:0:
352,192,54273,1,0,0:0:0:0:
96,192,54372,1,0,0:0:0:0:
352,192,54372,1,0,0:0:0:0:
32,192,54471,1,0,0:0:0:0:
288,192,54471,1,0,0:0:0:0:
416,192,54569,1,0,0:0:0:0:
224,192,54569,1,0,0:0:0:0:
480,192,54668,1,0,0:0:0:0:
160,192,54668,1,0,0:0:0:0:
352,192,54767,1,0,0:0:0:0:
96,192,54767,1,0,0:0:0:0:
160,192,54767,1,0,0:0:0:0:
32,192,54865,1,0,0:0:0:0:
96,192,54865,1,0,0:0:0:0:
96,192,54964,1,0,0:0:0:0:
416,192,54964,1,0,0:0:0:0:
480,192,54964,1,0,0:0:0:0:
160,192,54964,1,0,0:0:0:0:
288,192,55063,1,0,0:0:0:0:
416,192,55063,1,0,0:0:0:0:
160,192,55063,1,0,0:0:0:0:
352,192,55161,1,0,0:0:0:0:
224,192,55161,1,0,0:0:0:0:
32,192,55260,1,0,0:0:0:0:
480,192,55260,1,0,0:0:0:0:
288,192,55260,1,0,0:0:0:0:
352,192,55359,1,0,0:0:0:0:
224,192,55359,1,0,0:0:0:0:
160,192,55458,1,0,0:0:0:0:
288,192,55458,1,0,0:0:0:0:
160,192,55556,1,0,0:0:0:0:
96,192,55556,1,0,0:0:0:0:
96,192,55655,1,0,0:0:0:0:
352,192,55655,1,0,0:0:0:0:
32,192,55655,1,0,0:0:0:0:
416,192,55754,1,0,0:0:0:0:
480,192,55754,1,0,0:0:0:0:
160,192,55852,1,0,0:0:0:0:
416,192,55852,1,0,0:0:0:0:
288,192,55951,1,0,0:0:0:0:
352,192,55951,1,0,0:0:0:0:
96,192,56050,1,0,0:0:0:0:
480,192,56050,1,0,0:0:0:0:
288,192,56050,1,0,0:0:0:0:
352,192,56148,1,0,0:0:0:0:
224,192,56148,1,0,0:0:0:0:
160,192,56247,1,0,0:0:0:0:
32,192,56346,1,0,0:0:0:0:
96,192,56346,1,0,0:0:0:0:
288,192,56444,1,0,0:0:0:0:
416,192,56444,1,0,0:0:0:0:
480,192,56444,1,0,0:0:0:0:
32,192,56444,1,0,0:0:0:0:
352,192,56543,1,0,0:0:0:0:
160,192,56642,1,0,0:0:0:0:
224,192,56740,1,0,0:0:0:0:
416,192,56740,1,0,0:0:0:0:
96,192,56839,1,0,0:0:0:0:
224,192,56839,128,0,57036:0:0:0:0:
160,192,56938,1,0,0:0:0:0:
288,192,57036,1,0,0:0:0:0:
32,192,57135,1,0,0:0:0:0:
224,192,57135,1,0,0:0:0:0:
480,192,57234,1,0,0:0:0:0:
224,192,57234,128,0,57431:0:0:0:0:
416,192,57333,1,0,0:0:0:0:
480,192,57431,1,0,0:0:0:0:
224,192,57530,1,0,0:0:0:0:
352,192,57530,1,0,0:0:0:0:
224,192,57629,128,0,57826:0:0:0:0:
32,192,57629,1,0,0:0:0:0:
288,192,57727,1,0,0:0:0:0:
160,192,57826,1,0,0:0:0:0:
352,192,57925,1,0,0:0:0:0:
224,192,57925,1,0,0:0:0:0:
224,192,58023,128,0,58221:0:0:0:0:
96,192,58023,1,0,0:0:0:0:
32,192,58122,1,0,0:0:0:0:
160,192,58221,1,0,0:0:0:0:
288,192,58319,1,0,0:0:0:0:
224,192,58319,1,0,0:0:0:0:
480,192,58319,1,0,0:0:0:0:
96,192,58418,1,0,0:0:0:0:
480,192,58418,128,0,58615:0:0:0:0:
288,192,58517,1,0,0:0:0:0:
160,192,58615,1,0,0:0:0:0:
352,192,58714,1,0,0:0:0:0:
32,192,58714,1,0,0:0:0:0:
480,192,58714,1,0,0:0:0:0:
96,192,58813,1,0,0:0:0:0:
32,192,58813,128,0,59010:0:0:0:0:
160,192,58911,1,0,0:0:0:0:
352,192,59010,1,0,0:0:0:0:
416,192,59109,1,0,0:0:0:0:
32,192,59109,1,0,0:0:0:0:
32,192,59208,128,0,59405:0:0:0:0:
96,192,59208,1,0,0:0:0:0:
288,192,59306,1,0,0:0:0:0:
160,192,59405,1,0,0:0:0:0:
480,192,59504,1,0,0:0:0:0:
32,192,59504,1,0,0:0:0:0:
352,192,59602,1,0,0:0:0:0:
32,192,59602,128,0,59800:0:0:0:0:
288,192,59701,1,0,0:0:0:0:
416,192,59800,1,0,0:0:0:0:
160,192,59898,1,0,0:0:0:0:
32,192,59898,1,0,0:0:0:0:
480,192,59898,1,0,0:0:0:0:
96,192,59997,1,0,0:0:0:0:
480,192,59997,128,0,60194:0:0:0:0:
352,192,60096,1,0,0:0:0:0:
288,192,60194,1,0,0:0:0:0:
96,192,60293,1,0,0:0:0:0:
32,192,60293,1,0,0:0:0:0:
480,192,60293,1,0,0:0:0:0:
352,192,60392,1,0,0:0:0:0:
32,192,60392,128,0,60589:0:0:0:0:
160,192,60490,1,0,0:0:0:0:
416,192,60589,1,0,0:0:0:0:
352,192,60688,1,0,0:0:0:0:
32,192,60688,1,0,0:0:0:0:
480,192,60688,1,0,0:0:0:0:
96,192,60786,1,0,0:0:0:0:
480,192,60786,128,0,60984:0:0:0:0:
160,192,60885,1,0,0:0:0:0:
32,192,60984,1,0,0:0:0:0:
288,192,61083,1,0,0:0:0:0:
32,192,61083,1,0,0:0:0:0:
480,192,61083,1,0,0:0:0:0:
352,192,61181,1,0,0:0:0:0:
32,192,61181,128,0,61379:0:0:0:0:
160,192,61280,1,0,0:0:0:0:
352,192,61379,1,0,0:0:0:0:
288,192,61477,1,0,0:0:0:0:
480,192,61477,1,0,0:0:0:0:
32,192,61477,1,0,0:0:0:0:
32,192,61576,1,0,0:0:0:0:
480,192,61576,128,0,61773:0:0:0:0:
96,192,61675,1,0,0:0:0:0:
160,192,61773,1,0,0:0:0:0:
96,192,61872,1,0,0:0:0:0:
480,192,61872,1,0,0:0:0:0:
32,192,61971,1,0,0:0:0:0:
480,192,61971,128,0,62168:0:0:0:0:
96,192,61971,1,0,0:0:0:0:
96,192,62069,1,0,0:0:0:0:
160,192,62168,1,0,0:0:0:0:
96,192,62267,1,0,0:0:0:0:
32,192,62267,1,0,0:0:0:0:
480,192,62365,1,0,0:0:0:0:
32,192,62365,128,0,62563:0:0:0:0:
416,192,62464,1,0,0:0:0:0:
352,192,62563,1,0,0:0:0:0:
416,192,62563,1,0,0:0:0:0:
416,192,62661,1,0,0:0:0:0:
32,192,62661,1,0,0:0:0:0:
480,192,62760,1,0,0:0:0:0:
32,192,62760,128,0,62958:0:0:0:0:
416,192,62859,1,0,0:0:0:0:
352,192,62958,1,0,0:0:0:0:
416,192,62958,1,0,0:0:0:0:
416,192,63056,1,0,0:0:0:0:
32,192,63056,1,0,0:0:0:0:
480,192,63155,1,0,0:0:0:0:
160,192,63254,1,0,0:0:0:0:
96,192,63352,1,0,0:0:0:0:
224,192,63352,1,0,0:0:0:0:
160,192,63352,1,0,0:0:0:0:
288,192,63451,1,0,0:0:0:0:
352,192,63550,1,0,0:0:0:0:
160,192,63648,1,0,0:0:0:0:
416,192,63648,1,0,0:0:0:0:
352,192,63648,1,0,0:0:0:0:
416,192,63747,1,0,0:0:0:0:
352,192,63747,1,0,0:0:0:0:
352,192,63846,1,0,0:0:0:0:
288,192,63944,1,0,0:0:0:0:
224,192,64043,1,0,0:0:0:0:
32,192,64142,1,0,0:0:0:0:
160,192,64142,1,0,0:0:0:0:
96,192,64240,1,0,0:0:0:0:
352,192,64339,1,0,0:0:0:0:
288,192,64438,1,0,0:0:0:0:
224,192,64536,1,0,0:0:0:0:
160,192,64635,1,0,0:0:0:0:
96,192,64734,1,0,0:0:0:0:
288,192,64734,1,0,0:0:0:0:
224,192,64833,1,0,0:0:0:0:
160,192,64931,1,0,0:0:0:0:
480,192,64931,1,0,0:0:0:0:
96,192,65030,1,0,0:0:0:0:
352,192,65129,1,0,0:0:0:0:
32,192,65129,1,0,0:0:0:0:
480,192,65129,1,0,0:0:0:0:
288,192,65227,1,0,0:0:0:0:
416,192,65227,1,0,0:0:0:0:
96,192,65326,1,0,0:0:0:0:
416,192,65326,1,0,0:0:0:0:
352,192,65326,1,0,0:0:0:0:
352,192,65425,1,0,0:0:0:0:
288,192,65425,1,0,0:0:0:0:
160,192,65523,1,0,0:0:0:0:
480,192,65523,1,0,0:0:0:0:
224,192,65523,1,0,0:0:0:0:
160,192,65622,1,0,0:0:0:0:
288,192,65622,1,0,0:0:0:0:
416,192,65721,1,0,0:0:0:0:
96,192,65721,1,0,0:0:0:0:
160,192,65819,1,0,0:0:0:0:
32,192,65819,1,0,0:0:0:0:
480,192,65869,1,0,0:0:0:0:
352,192,65918,1,0,0:0:0:0:
32,192,65918,1,0,0:0:0:0:
416,192,65967,1,0,0:0:0:0:
288,192,66017,1,0,0:0:0:0:
352,192,66066,1,0,0:0:0:0:
160,192,66115,1,0,0:0:0:0:
416,192,66115,1,0,0:0:0:0:
288,192,66165,1,0,0:0:0:0:
352,192,66214,1,0,0:0:0:0:
224,192,66263,1,0,0:0:0:0:
32,192,66313,1,0,0:0:0:0:
160,192,66362,1,0,0:0:0:0:
96,192,66461,1,0,0:0:0:0:
480,192,66510,1,0,0:0:0:0:
416,192,66708,1,0,0:0:0:0:
480,192,66708,128,0,67497:0:0:0:0:
352,192,66905,1,0,0:0:0:0:
416,192,66905,128,0,67694:0:0:0:0:
32,192,67102,1,0,0:0:0:0:
352,192,67102,128,0,67892:0:0:0:0:
96,192,67300,1,0,0:0:0:0:
32,192,67300,128,0,68089:0:0:0:0:
160,192,67497,1,0,0:0:0:0:
96,192,67497,128,0,68286:0:0:0:0:
288,192,67694,1,0,0:0:0:0:
160,192,67694,128,0,68484:0:0:0:0:
224,192,67694,1,0,0:0:0:0:
480,192,67892,1,0,0:0:0:0:
224,192,67892,128,0,68286:0:0:0:0:
416,192,67892,1,0,0:0:0:0:
416,192,68089,1,0,0:0:0:0:
480,192,68089,128,0,68879:0:0:0:0:
352,192,68286,1,0,0:0:0:0:
416,192,68286,128,0,69076:0:0:0:0:
288,192,68484,1,0,0:0:0:0:
352,192,68484,128,0,69273:0:0:0:0:
224,192,68484,1,0,0:0:0:0:
32,192,68681,1,0,0:0:0:0:
96,192,68879,1,0,0:0:0:0:
32,192,68879,128,0,69471:0:0:0:0:
160,192,69076,1,0,0:0:0:0:
96,192,69076,128,0,69471:0:0:0:0:
160,192,69273,128,0,69471:0:0:0:0:
288,192,69273,128,0,69471:0:0:0:0:
224,192,69273,1,0,0:0:0:0:
352,192,69471,1,0,0:0:0:0:
480,192,69471,1,0,0:0:0:0:
224,192,69471,1,0,0:0:0:0:
416,192,69471,1,0,0:0:0:0:
96,192,69865,1,0,0:0:0:0:
416,192,69865,1,0,0:0:0:0:
160,192,69865,1,0,0:0:0:0:
224,192,69865,1,0,0:0:0:0:
288,192,69865,1,0,0:0:0:0:
416,192,69964,1,0,0:0:0:0:
288,192,69964,1,0,0:0:0:0:
352,192,70063,1,0,0:0:0:0:
480,192,70063,1,0,0:0:0:0:
288,192,70260,1,0,0:0:0:0:
32,192,70260,1,0,0:0:0:0:
96,192,70260,1,0,0:0:0:0:
160,192,70260,1,0,0:0:0:0:
416,192,70260,1,0,0:0:0:0:
288,192,70359,1,0,0:0:0:0:
416,192,70359,1,0,0:0:0:0:
352,192,70458,1,0,0:0:0:0:
480,192,70458,1,0,0:0:0:0:
160,192,70655,1,0,0:0:0:0:
480,192,70655,1,0,0:0:0:0:
96,192,70655,1,0,0:0:0:0:
224,192,70655,1,0,0:0:0:0:
288,192,70655,1,0,0:0:0:0:
288,192,70754,1,0,0:0:0:0:
480,192,70754,1,0,0:0:0:0:
416,192,70852,1,0,0:0:0:0:
352,192,70852,1,0,0:0:0:0:
96,192,71050,1,0,0:0:0:0:
352,192,71050,1,0,0:0:0:0:
32,192,71050,1,0,0:0:0:0:
160,192,71050,1,0,0:0:0:0:
480,192,71050,1,0,0:0:0:0:
352,192,71148,1,0,0:0:0:0:
480,192,71148,1,0,0:0:0:0:
416,192,71247,1,0,0:0:0:0:
288,192,71247,1,0,0:0:0:0:
288,192,71444,1,0,0:0:0:0:
32,192,71444,1,0,0:0:0:0:
96,192,71444,1,0,0:0:0:0:
160,192,71444,1,0,0:0:0:0:
416,192,71444,1,0,0:0:0:0:
288,192,71543,1,0,0:0:0:0:
416,192,71543,1,0,0:0:0:0:
352,192,71642,1,0,0:0:0:0:
224,192,71642,1,0,0:0:0:0:
96,192,71839,1,0,0:0:0:0:
352,192,71839,1,0,0:0:0:0:
160,192,71839,1,0,0:0:0:0:
224,192,71839,1,0,0:0:0:0:
288,192,71839,1,0,0:0:0:0:
352,192,71938,1,0,0:0:0:0:
288,192,71938,1,0,0:0:0:0:
416,192,72036,1,0,0:0:0:0:
480,192,72036,1,0,0:0:0:0:
416,192,72234,1,0,0:0:0:0:
32,192,72234,1,0,0:0:0:0:
160,192,72234,1,0,0:0:0:0:
224,192,72234,1,0,0:0:0:0:
288,192,72234,1,0,0:0:0:0:
416,192,72333,1,0,0:0:0:0:
288,192,72333,1,0,0:0:0:0:
480,192,72431,1,0,0:0:0:0:
352,192,72431,1,0,0:0:0:0:
160,192,72629,1,0,0:0:0:0:
480,192,72629,1,0,0:0:0:0:
96,192,72629,1,0,0:0:0:0:
224,192,72629,1,0,0:0:0:0:
288,192,72629,1,0,0:0:0:0:
480,192,72727,1,0,0:0:0:0:
288,192,72727,1,0,0:0:0:0:
352,192,72826,1,0,0:0:0:0:
416,192,72826,1,0,0:0:0:0:
96,192,73023,1,0,0:0:0:0:
416,192,73023,1,0,0:0:0:0:
160,192,73023,1,0,0:0:0:0:
32,192,73023,1,0,0:0:0:0:
288,192,73023,1,0,0:0:0:0:
416,192,73122,1,0,0:0:0:0:
288,192,73122,1,0,0:0:0:0:
352,192,73221,1,0,0:0:0:0:
224,192,73221,1,0,0:0:0:0:
288,192,73418,1,0,0:0:0:0:
32,192,73418,1,0,0:0:0:0:
96,192,73418,1,0,0:0:0:0:
160,192,73418,1,0,0:0:0:0:
416,192,73418,1,0,0:0:0:0:
288,192,73517,1,0,0:0:0:0:
416,192,73517,1,0,0:0:0:0:
224,192,73615,1,0,0:0:0:0:
352,192,73615,1,0,0:0:0:0:
480,192,73615,1,0,0:0:0:0:
160,192,73813,1,0,0:0:0:0:
480,192,73813,1,0,0:0:0:0:
96,192,73813,1,0,0:0:0:0:
224,192,73813,1,0,0:0:0:0:
352,192,73813,1,0,0:0:0:0:
480,192,73911,1,0,0:0:0:0:
352,192,73911,1,0,0:0:0:0:
416,192,74010,1,0,0:0:0:0:
288,192,74010,1,0,0:0:0:0:
96,192,74208,1,0,0:0:0:0:
352,192,74208,1,0,0:0:0:0:
32,192,74208,1,0,0:0:0:0:
160,192,74208,1,0,0:0:0:0:
224,192,74208,1,0,0:0:0:0:
352,192,74306,1,0,0:0:0:0:
224,192,74306,1,0,0:0:0:0:
416,192,74405,1,0,0:0:0:0:
288,192,74405,1,0,0:0:0:0:
32,192,74602,1,0,0:0:0:0:
480,192,74602,1,0,0:0:0:0:
96,192,74602,1,0,0:0:0:0:
160,192,74602,1,0,0:0:0:0:
352,192,74602,1,0,0:0:0:0:
480,192,74701,1,0,0:0:0:0:
352,192,74701,1,0,0:0:0:0:
416,192,74800,1,0,0:0:0:0:
288,192,74800,1,0,0:0:0:0:
96,192,74997,1,0,0:0:0:0:
480,192,74997,1,0,0:0:0:0:
160,192,74997,1,0,0:0:0:0:
224,192,74997,1,0,0:0:0:0:
288,192,74997,1,0,0:0:0:0:
416,192,74997,1,0,0:0:0:0:
288,192,75096,1,0,0:0:0:0:
416,192,75096,1,0,0:0:0:0:
352,192,75194,1,0,0:0:0:0:
480,192,75392,1,0,0:0:0:0:
32,192,75392,128,0,75786:0:0:0:0:
96,192,75392,128,0,75786:0:0:0:0:
160,192,75589,128,0,75984:0:0:0:0:
224,192,75589,128,0,75984:0:0:0:0:
352,192,75786,128,0,76181:0:0:0:0:
288,192,75786,128,0,76181:0:0:0:0:
480,192,75984,128,0,76379:0:0:0:0:
416,192,75984,128,0,76379:0:0:0:0:
224,192,76181,128,0,76379:0:0:0:0:
160,192,76181,128,0,76379:0:0:0:0:
96,192,76181,128,0,76379:0:0:0:0:
32,192,76181,128,0,76576:0:0:0:0:
96,192,76576,1,0,0:0:0:0:
288,192,76576,1,0,0:0:0:0:
416,192,76576,1,0,0:0:0:0:
160,192,76576,1,0,0:0:0:0:
224,192,76576,1,0,0:0:0:0:
352,192,76576,1,0,0:0:0:0:
96,192,77365,1,0,0:0:0:0:
480,192,77365,1,0,0:0:0:0:
352,192,77365,128,0,77810:0:0:0:0:
32,192,77365,1,0,0:0:0:0:
160,192,77365,128,0,77810:0:0:0:0:
416,192,77365,1,0,0:0:0:0:
32,192,78155,1,0,0:0:0:0:
480,192,78155,1,0,0:0:0:0:
96,192,78155,1,0,0:0:0:0:
160,192,78155,1,0,0:0:0:0:
288,192,78155,1,0,0:0:0:0:
416,192,78303,1,0,0:0:0:0:
352,192,78303,1,0,0:0:0:0:
480,192,78402,1,0,0:0:0:0:
288,192,78402,1,0,0:0:0:0:
416,192,78550,1,0,0:0:0:0:
352,192,78550,1,0,0:0:0:0:
480,192,78698,1,0,0:0:0:0:
288,192,78698,1,0,0:0:0:0:
416,192,78796,1,0,0:0:0:0:
352,192,78796,1,0,0:0:0:0:
96,192,78944,1,0,0:0:0:0:
160,192,78944,1,0,0:0:0:0:
480,192,78944,1,0,0:0:0:0:
32,192,78944,1,0,0:0:0:0:
288,192,78944,1,0,0:0:0:0:
416,192,79092,1,0,0:0:0:0:
352,192,79092,1,0,0:0:0:0:
480,192,79191,1,0,0:0:0:0:
288,192,79191,1,0,0:0:0:0:
416,192,79339,1,0,0:0:0:0:
352,192,79339,1,0,0:0:0:0:
32,192,79734,1,0,0:0:0:0:
96,192,79734,1,0,0:0:0:0:
160,192,79734,1,0,0:0:0:0:
224,192,79734,1,0,0:0:0:0:
288,192,79734,128,0,80178:0:0:0:0:
96,192,80523,1,0,0:0:0:0:
160,192,80523,1,0,0:0:0:0:
224,192,80523,128,0,80967:0:0:0:0:
288,192,80523,1,0,0:0:0:0:
352,192,80523,1,0,0:0:0:0:
32,192,81313,1,0,0:0:0:0:
480,192,81313,1,0,0:0:0:0:
160,192,81313,1,0,0:0:0:0:
352,192,81313,1,0,0:0:0:0:
96,192,81461,1,0,0:0:0:0:
480,192,81461,1,0,0:0:0:0:
224,192,81461,1,0,0:0:0:0:
352,192,81461,1,0,0:0:0:0:
32,192,81560,1,0,0:0:0:0:
480,192,81560,1,0,0:0:0:0:
160,192,81560,1,0,0:0:0:0:
352,192,81560,1,0,0:0:0:0:
96,192,81708,1,0,0:0:0:0:
480,192,81708,1,0,0:0:0:0:
224,192,81708,1,0,0:0:0:0:
352,192,81708,1,0,0:0:0:0:
32,192,81856,1,0,0:0:0:0:
480,192,81856,1,0,0:0:0:0:
160,192,81856,1,0,0:0:0:0:
352,192,81856,1,0,0:0:0:0:
96,192,81954,1,0,0:0:0:0:
480,192,81954,1,0,0:0:0:0:
224,192,81954,1,0,0:0:0:0:
352,192,81954,1,0,0:0:0:0:
32,192,82892,1,0,0:0:0:0:
96,192,82892,1,0,0:0:0:0:
480,192,82892,1,0,0:0:0:0:
416,192,82892,1,0,0:0:0:0:
224,192,82892,128,0,83681:0:0:0:0:
288,192,82892,128,0,83681:0:0:0:0:
96,192,83681,1,0,0:0:0:0:
160,192,83681,1,0,0:0:0:0:
352,192,83681,1,0,0:0:0:0:
416,192,83681,1,0,0:0:0:0:
32,192,83681,128,0,84224:0:0:0:0:
480,192,83681,128,0,84224:0:0:0:0:
224,192,84471,1,0,0:0:0:0:
480,192,84471,1,0,0:0:0:0:
352,192,84471,1,0,0:0:0:0:
96,192,84471,1,0,0:0:0:0:
224,192,84619,1,0,0:0:0:0:
416,192,84619,1,0,0:0:0:0:
288,192,84619,1,0,0:0:0:0:
96,192,84619,1,0,0:0:0:0:
224,192,84717,1,0,0:0:0:0:
480,192,84717,1,0,0:0:0:0:
352,192,84717,1,0,0:0:0:0:
96,192,84717,1,0,0:0:0:0:
160,192,84865,1,0,0:0:0:0:
416,192,84865,1,0,0:0:0:0:
288,192,84865,1,0,0:0:0:0:
96,192,84865,1,0,0:0:0:0:
160,192,85013,1,0,0:0:0:0:
480,192,85013,1,0,0:0:0:0:
352,192,85013,1,0,0:0:0:0:
96,192,85013,1,0,0:0:0:0:
160,192,85112,1,0,0:0:0:0:
416,192,85112,1,0,0:0:0:0:
288,192,85112,1,0,0:0:0:0:
96,192,85112,1,0,0:0:0:0:
96,192,85260,1,0,0:0:0:0:
480,192,85260,1,0,0:0:0:0:
352,192,85260,1,0,0:0:0:0:
32,192,85260,1,0,0:0:0:0:
416,192,85408,1,0,0:0:0:0:
96,192,85408,1,0,0:0:0:0:
288,192,85408,1,0,0:0:0:0:
32,192,85408,1,0,0:0:0:0:
96,192,85507,1,0,0:0:0:0:
480,192,85507,1,0,0:0:0:0:
352,192,85507,1,0,0:0:0:0:
32,192,85507,1,0,0:0:0:0:
96,192,85655,1,0,0:0:0:0:
160,192,85655,1,0,0:0:0:0:
416,192,85655,1,0,0:0:0:0:
288,192,85655,1,0,0:0:0:0:
224,192,85655,1,0,0:0:0:0:
32,192,86050,1,0,0:0:0:0:
288,192,86050,128,0,86592:0:0:0:0:
224,192,86050,128,0,86592:0:0:0:0:
160,192,86050,1,0,0:0:0:0:
352,192,86050,1,0,0:0:0:0:
480,192,86050,1,0,0:0:0:0:
96,192,86839,1,0,0:0:0:0:
160,192,86839,1,0,0:0:0:0:
224,192,86839,128,0,87629:0:0:0:0:
288,192,86839,128,0,87283:0:0:0:0:
352,192,86839,1,0,0:0:0:0:
416,192,86839,1,0,0:0:0:0:
96,192,87283,128,0,87629:0:0:0:0:
160,192,87629,1,0,0:0:0:0:
352,192,87727,1,0,0:0:0:0:
416,192,87826,1,0,0:0:0:0:
288,192,87925,1,0,0:0:0:0:
352,192,88023,1,0,0:0:0:0:
160,192,88122,1,0,0:0:0:0:
288,192,88221,1,0,0:0:0:0:
96,192,88319,1,0,0:0:0:0:
160,192,88418,1,0,0:0:0:0:
352,192,88517,1,0,0:0:0:0:
288,192,88615,1,0,0:0:0:0:
160,192,88714,1,0,0:0:0:0:
416,192,88813,1,0,0:0:0:0:
352,192,88911,1,0,0:0:0:0:
96,192,89010,1,0,0:0:0:0:
160,192,89109,1,0,0:0:0:0:
480,192,89208,1,0,0:0:0:0:
416,192,89306,1,0,0:0:0:0:
352,192,89405,1,0,0:0:0:0:
160,192,89504,1,0,0:0:0:0:
288,192,89602,1,0,0:0:0:0:
96,192,89701,1,0,0:0:0:0:
160,192,89800,1,0,0:0:0:0:
352,192,89898,1,0,0:0:0:0:
32,192,89997,1,0,0:0:0:0:
160,192,90096,1,0,0:0:0:0:
96,192,90194,1,0,0:0:0:0:
288,192,90293,1,0,0:0:0:0:
352,192,90392,1,0,0:0:0:0:
288,192,90490,1,0,0:0:0:0:
160,192,90589,1,0,0:0:0:0:
96,192,90688,1,0,0:0:0:0:
160,192,90688,1,0,0:0:0:0:
160,192,90786,1,0,0:0:0:0:
480,192,90786,1,0,0:0:0:0:
288,192,90885,1,0,0:0:0:0:
480,192,90885,1,0,0:0:0:0:
416,192,90935,1,0,0:0:0:0:
160,192,90984,1,0,0:0:0:0:
480,192,91033,1,0,0:0:0:0:
416,192,91033,1,0,0:0:0:0:
96,192,91083,1,0,0:0:0:0:
160,192,91083,1,0,0:0:0:0:
480,192,91132,1,0,0:0:0:0:
160,192,91181,1,0,0:0:0:0:
416,192,91181,1,0,0:0:0:0:
32,192,91280,1,0,0:0:0:0:
416,192,91280,1,0,0:0:0:0:
480,192,91329,1,0,0:0:0:0:
96,192,91379,1,0,0:0:0:0:
416,192,91428,1,0,0:0:0:0:
480,192,91428,1,0,0:0:0:0:
160,192,91477,1,0,0:0:0:0:
416,192,91527,1,0,0:0:0:0:
96,192,91576,1,0,0:0:0:0:
480,192,91576,1,0,0:0:0:0:
288,192,91675,1,0,0:0:0:0:
480,192,91675,1,0,0:0:0:0:
416,192,91724,1,0,0:0:0:0:
160,192,91773,1,0,0:0:0:0:
480,192,91823,1,0,0:0:0:0:
416,192,91823,1,0,0:0:0:0:
32,192,91872,1,0,0:0:0:0:
480,192,91921,1,0,0:0:0:0:
96,192,91971,1,0,0:0:0:0:
416,192,91971,1,0,0:0:0:0:
160,192,92069,1,0,0:0:0:0:
416,192,92069,1,0,0:0:0:0:
288,192,92168,1,0,0:0:0:0:
224,192,92168,1,0,0:0:0:0:
352,192,92267,1,0,0:0:0:0:
32,192,92365,1,0,0:0:0:0:
416,192,92365,1,0,0:0:0:0:
480,192,92365,1,0,0:0:0:0:
160,192,93155,1,0,0:0:0:0:
352,192,93155,1,0,0:0:0:0:
96,192,93155,128,0,93698:0:0:0:0:
416,192,93155,128,0,93698:0:0:0:0:
224,192,93155,128,0,93698:0:0:0:0:
288,192,93155,128,0,93698:0:0:0:0:
160,192,93944,1,0,0:0:0:0:
288,192,93944,1,0,0:0:0:0:
416,192,93944,1,0,0:0:0:0:
224,192,94043,1,0,0:0:0:0:
96,192,94043,1,0,0:0:0:0:
352,192,94043,1,0,0:0:0:0:
480,192,94043,1,0,0:0:0:0:
32,192,94142,1,0,0:0:0:0:
160,192,94142,1,0,0:0:0:0:
288,192,94142,1,0,0:0:0:0:
416,192,94142,1,0,0:0:0:0:
352,192,94240,1,0,0:0:0:0:
96,192,94240,1,0,0:0:0:0:
288,192,94339,1,0,0:0:0:0:
160,192,94339,1,0,0:0:0:0:
416,192,94438,1,0,0:0:0:0:
224,192,94438,1,0,0:0:0:0:
352,192,94536,1,0,0:0:0:0:
160,192,94635,1,0,0:0:0:0:
288,192,94635,1,0,0:0:0:0:
224,192,94734,1,0,0:0:0:0:
32,192,94734,1,0,0:0:0:0:
96,192,94833,1,0,0:0:0:0:
288,192,94833,1,0,0:0:0:0:
160,192,94931,1,0,0:0:0:0:
480,192,94931,1,0,0:0:0:0:
416,192,95030,1,0,0:0:0:0:
224,192,95030,1,0,0:0:0:0:
352,192,95129,1,0,0:0:0:0:
32,192,95227,1,0,0:0:0:0:
480,192,95227,1,0,0:0:0:0:
288,192,95227,1,0,0:0:0:0:
160,192,95326,1,0,0:0:0:0:
416,192,95326,1,0,0:0:0:0:
480,192,95326,1,0,0:0:0:0:
480,192,95425,1,0,0:0:0:0:
352,192,95425,1,0,0:0:0:0:
352,192,95523,1,0,0:0:0:0:
288,192,95523,1,0,0:0:0:0:
160,192,95622,1,0,0:0:0:0:
224,192,95622,1,0,0:0:0:0:
352,192,95622,1,0,0:0:0:0:
160,192,95721,1,0,0:0:0:0:
96,192,95819,1,0,0:0:0:0:
160,192,95819,1,0,0:0:0:0:
32,192,95918,1,0,0:0:0:0:
416,192,96017,1,0,0:0:0:0:
480,192,96017,1,0,0:0:0:0:
352,192,96115,1,0,0:0:0:0:
416,192,96115,1,0,0:0:0:0:
224,192,96115,1,0,0:0:0:0:
96,192,96115,1,0,0:0:0:0:
352,192,96214,1,0,0:0:0:0:
224,192,96214,1,0,0:0:0:0:
96,192,96214,1,0,0:0:0:0:
160,192,96313,1,0,0:0:0:0:
32,192,96313,1,0,0:0:0:0:
288,192,96313,1,0,0:0:0:0:
96,192,96411,1,0,0:0:0:0:
224,192,96411,1,0,0:0:0:0:
352,192,96411,1,0,0:0:0:0:
160,192,96510,1,0,0:0:0:0:
32,192,96510,1,0,0:0:0:0:
224,192,96510,1,0,0:0:0:0:
288,192,96510,1,0,0:0:0:0:
352,192,96510,1,0,0:0:0:0:
96,192,96510,1,0,0:0:0:0:
224,192,96609,1,0,0:0:0:0:
96,192,96609,1,0,0:0:0:0:
352,192,96609,1,0,0:0:0:0:
160,192,96708,1,0,0:0:0:0:
32,192,96708,1,0,0:0:0:0:
288,192,96708,1,0,0:0:0:0:
96,192,96806,1,0,0:0:0:0:
224,192,96806,1,0,0:0:0:0:
352,192,96806,1,0,0:0:0:0:
160,192,96905,1,0,0:0:0:0:
288,192,96905,1,0,0:0:0:0:
224,192,96905,1,0,0:0:0:0:
32,192,96905,1,0,0:0:0:0:
352,192,96905,1,0,0:0:0:0:
96,192,96905,1,0,0:0:0:0:
352,192,97004,1,0,0:0:0:0:
224,192,97004,1,0,0:0:0:0:
96,192,97004,1,0,0:0:0:0:
288,192,97102,1,0,0:0:0:0:
480,192,97102,1,0,0:0:0:0:
160,192,97102,1,0,0:0:0:0:
160,192,97201,1,0,0:0:0:0:
416,192,97250,1,0,0:0:0:0:
96,192,97300,1,0,0:0:0:0:
480,192,97349,1,0,0:0:0:0:
160,192,97398,1,0,0:0:0:0:
96,192,97497,1,0,0:0:0:0:
416,192,97497,1,0,0:0:0:0:
160,192,97497,1,0,0:0:0:0:
288,192,97596,1,0,0:0:0:0:
480,192,97645,1,0,0:0:0:0:
160,192,97694,1,0,0:0:0:0:
416,192,97744,1,0,0:0:0:0:
96,192,97793,1,0,0:0:0:0:
160,192,97793,1,0,0:0:0:0:
32,192,97892,1,0,0:0:0:0:
480,192,97892,1,0,0:0:0:0:
96,192,97892,1,0,0:0:0:0:
96,192,97990,1,0,0:0:0:0:
160,192,97990,1,0,0:0:0:0:
416,192,98040,1,0,0:0:0:0:
160,192,98089,1,0,0:0:0:0:
480,192,98138,1,0,0:0:0:0:
32,192,98188,1,0,0:0:0:0:
160,192,98286,1,0,0:0:0:0:
416,192,98286,1,0,0:0:0:0:
96,192,98385,1,0,0:0:0:0:
160,192,98385,1,0,0:0:0:0:
160,192,98484,1,0,0:0:0:0:
288,192,98583,1,0,0:0:0:0:
480,192,98681,1,0,0:0:0:0:
416,192,98829,1,0,0:0:0:0:
480,192,98928,1,0,0:0:0:0:
416,192,99076,1,0,0:0:0:0:
32,192,99076,128,0,99471:0:0:0:0:
480,192,99076,128,0,99471:0:0:0:0:
96,192,99471,1,0,0:0:0:0:
224,192,99471,1,0,0:0:0:0:
352,192,99471,1,0,0:0:0:0:
160,192,99471,128,0,100063:0:0:0:0:
288,192,99471,128,0,100063:0:0:0:0:
416,192,99471,128,0,100063:0:0:0:0:
288,192,100260,1,0,0:0:0:0:
160,192,100260,1,0,0:0:0:0:
416,192,100260,1,0,0:0:0:0:
352,192,100359,1,0,0:0:0:0:
224,192,100359,1,0,0:0:0:0:
96,192,100359,1,0,0:0:0:0:
160,192,100458,1,0,0:0:0:0:
416,192,100458,1,0,0:0:0:0:
288,192,100458,1,0,0:0:0:0:
32,192,100458,1,0,0:0:0:0:
480,192,100556,1,0,0:0:0:0:
96,192,100556,1,0,0:0:0:0:
352,192,100556,1,0,0:0:0:0:
224,192,100556,1,0,0:0:0:0:
288,192,100655,1,0,0:0:0:0:
416,192,100655,1,0,0:0:0:0:
160,192,100655,1,0,0:0:0:0:
32,192,100655,1,0,0:0:0:0:
96,192,100754,1,0,0:0:0:0:
480,192,100754,1,0,0:0:0:0:
352,192,100754,1,0,0:0:0:0:
224,192,100754,1,0,0:0:0:0:
416,192,100852,1,0,0:0:0:0:
288,192,100852,1,0,0:0:0:0:
160,192,100852,1,0,0:0:0:0:
32,192,100852,1,0,0:0:0:0:
352,192,100951,1,0,0:0:0:0:
224,192,100951,1,0,0:0:0:0:
96,192,100951,1,0,0:0:0:0:
480,192,100951,1,0,0:0:0:0:
416,192,101050,1,0,0:0:0:0:
160,192,101050,1,0,0:0:0:0:
288,192,101050,1,0,0:0:0:0:
32,192,101050,1,0,0:0:0:0:
96,192,101148,1,0,0:0:0:0:
224,192,101148,1,0,0:0:0:0:
352,192,101148,1,0,0:0:0:0:
288,192,101247,1,0,0:0:0:0:
160,192,101247,1,0,0:0:0:0:
480,192,101346,1,0,0:0:0:0:
224,192,101346,1,0,0:0:0:0:
416,192,101444,1,0,0:0:0:0:
352,192,101543,1,0,0:0:0:0:
160,192,101642,1,0,0:0:0:0:
352,192,101740,1,0,0:0:0:0:
160,192,101740,1,0,0:0:0:0:
96,192,101839,1,0,0:0:0:0:
416,192,101839,1,0,0:0:0:0:
224,192,101839,1,0,0:0:0:0:
96,192,101938,1,0,0:0:0:0:
480,192,101938,1,0,0:0:0:0:
224,192,101938,1,0,0:0:0:0:
32,192,102036,1,0,0:0:0:0:
160,192,102036,1,0,0:0:0:0:
96,192,102234,1,0,0:0:0:0:
416,192,102234,1,0,0:0:0:0:
288,192,102234,1,0,0:0:0:0:
96,192,102333,1,0,0:0:0:0:
352,192,102333,1,0,0:0:0:0:
288,192,102333,1,0,0:0:0:0:
32,192,102431,1,0,0:0:0:0:
224,192,102431,1,0,0:0:0:0:
224,192,102629,1,0,0:0:0:0:
416,192,102629,1,0,0:0:0:0:
96,192,102629,1,0,0:0:0:0:
224,192,102727,1,0,0:0:0:0:
480,192,102727,1,0,0:0:0:0:
96,192,102727,1,0,0:0:0:0:
160,192,102826,1,0,0:0:0:0:
224,192,103023,1,0,0:0:0:0:
416,192,103023,1,0,0:0:0:0:
96,192,103023,1,0,0:0:0:0:
224,192,103122,1,0,0:0:0:0:
352,192,103122,1,0,0:0:0:0:
96,192,103122,1,0,0:0:0:0:
160,192,103221,1,0,0:0:0:0:
352,192,103418,1,0,0:0:0:0:
96,192,103418,1,0,0:0:0:0:
288,192,103418,1,0,0:0:0:0:
416,192,103517,1,0,0:0:0:0:
96,192,103517,1,0,0:0:0:0:
288,192,103517,1,0,0:0:0:0:
160,192,103615,1,0,0:0:0:0:
96,192,103813,1,0,0:0:0:0:
480,192,103813,1,0,0:0:0:0:
352,192,103813,1,0,0:0:0:0:
416,192,103911,1,0,0:0:0:0:
96,192,103911,1,0,0:0:0:0:
352,192,103911,1,0,0:0:0:0:
160,192,104010,1,0,0:0:0:0:
160,192,104208,1,0,0:0:0:0:
352,192,104208,1,0,0:0:0:0:
480,192,104208,1,0,0:0:0:0:
160,192,104306,1,0,0:0:0:0:
416,192,104306,1,0,0:0:0:0:
480,192,104306,1,0,0:0:0:0:
224,192,104405,1,0,0:0:0:0:
160,192,104602,1,0,0:0:0:0:
480,192,104602,1,0,0:0:0:0:
288,192,104602,1,0,0:0:0:0:
160,192,104701,1,0,0:0:0:0:
416,192,104701,1,0,0:0:0:0:
288,192,104701,1,0,0:0:0:0:
224,192,104800,1,0,0:0:0:0:
352,192,104997,1,0,0:0:0:0:
416,192,105096,1,0,0:0:0:0:
32,192,105194,1,0,0:0:0:0:
160,192,105194,1,0,0:0:0:0:
96,192,105293,1,0,0:0:0:0:
160,192,105293,1,0,0:0:0:0:
352,192,105392,1,0,0:0:0:0:
480,192,105392,1,0,0:0:0:0:
416,192,105490,1,0,0:0:0:0:
480,192,105490,1,0,0:0:0:0:
96,192,105589,1,0,0:0:0:0:
224,192,105589,1,0,0:0:0:0:
160,192,105688,1,0,0:0:0:0:
224,192,105688,1,0,0:0:0:0:
416,192,105786,1,0,0:0:0:0:
352,192,105786,1,0,0:0:0:0:
480,192,105885,1,0,0:0:0:0:
352,192,105885,1,0,0:0:0:0:
32,192,105984,1,0,0:0:0:0:
160,192,105984,1,0,0:0:0:0:
96,192,106083,1,0,0:0:0:0:
160,192,106083,1,0,0:0:0:0:
352,192,106181,1,0,0:0:0:0:
288,192,106181,1,0,0:0:0:0:
416,192,106280,1,0,0:0:0:0:
288,192,106280,1,0,0:0:0:0:
32,192,106379,1,0,0:0:0:0:
224,192,106379,1,0,0:0:0:0:
96,192,106477,1,0,0:0:0:0:
224,192,106477,1,0,0:0:0:0:
160,192,106576,1,0,0:0:0:0:
224,192,106576,1,0,0:0:0:0:
288,192,106675,1,0,0:0:0:0:
32,192,106773,1,0,0:0:0:0:
352,192,106773,1,0,0:0:0:0:
96,192,106872,1,0,0:0:0:0:
352,192,106872,1,0,0:0:0:0:
288,192,106971,1,0,0:0:0:0:
160,192,106971,1,0,0:0:0:0:
352,192,107069,1,0,0:0:0:0:
160,192,107069,1,0,0:0:0:0:
96,192,107168,1,0,0:0:0:0:
288,192,107168,1,0,0:0:0:0:
160,192,107267,1,0,0:0:0:0:
288,192,107267,1,0,0:0:0:0:
352,192,107365,1,0,0:0:0:0:
224,192,107365,1,0,0:0:0:0:
416,192,107464,1,0,0:0:0:0:
224,192,107464,1,0,0:0:0:0:
32,192,107563,1,0,0:0:0:0:
288,192,107563,1,0,0:0:0:0:
96,192,107661,1,0,0:0:0:0:
288,192,107661,1,0,0:0:0:0:
416,192,107760,1,0,0:0:0:0:
160,192,107760,1,0,0:0:0:0:
480,192,107859,1,0,0:0:0:0:
160,192,107859,1,0,0:0:0:0:
416,192,108155,1,0,0:0:0:0:
32,192,108155,1,0,0:0:0:0:
352,192,108155,1,0,0:0:0:0:
352,192,108254,1,0,0:0:0:0:
160,192,108352,1,0,0:0:0:0:
96,192,108352,1,0,0:0:0:0:
96,192,108451,1,0,0:0:0:0:
416,192,108550,1,0,0:0:0:0:
32,192,108550,1,0,0:0:0:0:
288,192,108550,1,0,0:0:0:0:
352,192,108648,1,0,0:0:0:0:
288,192,108648,1,0,0:0:0:0:
224,192,108747,1,0,0:0:0:0:
160,192,108747,1,0,0:0:0:0:
288,192,108846,1,0,0:0:0:0:
160,192,108846,1,0,0:0:0:0:
32,192,108944,1,0,0:0:0:0:
480,192,108944,1,0,0:0:0:0:
352,192,108944,1,0,0:0:0:0:
416,192,109043,1,0,0:0:0:0:
352,192,109043,1,0,0:0:0:0:
160,192,109142,1,0,0:0:0:0:
96,192,109240,1,0,0:0:0:0:
32,192,109339,1,0,0:0:0:0:
480,192,109339,1,0,0:0:0:0:
288,192,109339,1,0,0:0:0:0:
416,192,109438,1,0,0:0:0:0:
288,192,109438,1,0,0:0:0:0:
288,192,109536,1,0,0:0:0:0:
224,192,109536,1,0,0:0:0:0:
160,192,109635,1,0,0:0:0:0:
224,192,109635,1,0,0:0:0:0:
352,192,109734,1,0,0:0:0:0:
32,192,109734,1,0,0:0:0:0:
416,192,109734,1,0,0:0:0:0:
416,192,109833,1,0,0:0:0:0:
96,192,109833,1,0,0:0:0:0:
96,192,109931,1,0,0:0:0:0:
160,192,110030,1,0,0:0:0:0:
352,192,110129,1,0,0:0:0:0:
32,192,110129,1,0,0:0:0:0:
416,192,110129,1,0,0:0:0:0:
416,192,110227,1,0,0:0:0:0:
288,192,110326,1,0,0:0:0:0:
160,192,110326,1,0,0:0:0:0:
160,192,110425,1,0,0:0:0:0:
416,192,110523,1,0,0:0:0:0:
32,192,110523,1,0,0:0:0:0:
480,192,110622,1,0,0:0:0:0:
416,192,110622,1,0,0:0:0:0:
288,192,110721,1,0,0:0:0:0:
224,192,110721,1,0,0:0:0:0:
160,192,110819,1,0,0:0:0:0:
224,192,110819,1,0,0:0:0:0:
416,192,110918,1,0,0:0:0:0:
32,192,110918,1,0,0:0:0:0:
480,192,111017,1,0,0:0:0:0:
416,192,111017,1,0,0:0:0:0:
96,192,111115,1,0,0:0:0:0:
160,192,111214,1,0,0:0:0:0:
416,192,111313,1,0,0:0:0:0:
32,192,111313,1,0,0:0:0:0:
224,192,111313,1,0,0:0:0:0:
352,192,111411,1,0,0:0:0:0:
96,192,111510,1,0,0:0:0:0:
288,192,111510,1,0,0:0:0:0:
160,192,111609,1,0,0:0:0:0:
416,192,111708,1,0,0:0:0:0:
32,192,111708,1,0,0:0:0:0:
224,192,111708,1,0,0:0:0:0:
352,192,111806,1,0,0:0:0:0:
96,192,111905,1,0,0:0:0:0:
288,192,111905,1,0,0:0:0:0:
160,192,112004,1,0,0:0:0:0:
32,192,112102,1,0,0:0:0:0:
480,192,112102,1,0,0:0:0:0:
224,192,112102,1,0,0:0:0:0:
416,192,112201,1,0,0:0:0:0:
352,192,112300,1,0,0:0:0:0:
96,192,112300,1,0,0:0:0:0:
160,192,112398,1,0,0:0:0:0:
32,192,112497,1,0,0:0:0:0:
480,192,112497,1,0,0:0:0:0:
224,192,112497,1,0,0:0:0:0:
416,192,112596,1,0,0:0:0:0:
96,192,112694,1,0,0:0:0:0:
352,192,112694,1,0,0:0:0:0:
160,192,112793,1,0,0:0:0:0:
352,192,112892,1,0,0:0:0:0:
32,192,112892,1,0,0:0:0:0:
224,192,112892,1,0,0:0:0:0:
416,192,112990,1,0,0:0:0:0:
288,192,113089,1,0,0:0:0:0:
480,192,113089,1,0,0:0:0:0:
224,192,113188,1,0,0:0:0:0:
352,192,113286,1,0,0:0:0:0:
32,192,113286,1,0,0:0:0:0:
160,192,113286,1,0,0:0:0:0:
96,192,113385,1,0,0:0:0:0:
416,192,113385,1,0,0:0:0:0:
160,192,113484,1,0,0:0:0:0:
480,192,113484,1,0,0:0:0:0:
224,192,113583,1,0,0:0:0:0:
32,192,113681,1,0,0:0:0:0:
480,192,113681,1,0,0:0:0:0:
288,192,113681,1,0,0:0:0:0:
416,192,113780,1,0,0:0:0:0:
352,192,113780,1,0,0:0:0:0:
160,192,113879,1,0,0:0:0:0:
416,192,113879,1,0,0:0:0:0:
480,192,113879,1,0,0:0:0:0:
224,192,113977,1,0,0:0:0:0:
480,192,113977,1,0,0:0:0:0:
32,192,114076,1,0,0:0:0:0:
480,192,114076,1,0,0:0:0:0:
416,192,114076,1,0,0:0:0:0:
288,192,114076,1,0,0:0:0:0:
416,192,114175,1,0,0:0:0:0:
352,192,114175,1,0,0:0:0:0:
288,192,114273,1,0,0:0:0:0:
224,192,114372,1,0,0:0:0:0:
32,192,114471,1,0,0:0:0:0:
480,192,114471,1,0,0:0:0:0:
160,192,114471,1,0,0:0:0:0:
288,192,114668,1,0,0:0:0:0:
224,192,114668,1,0,0:0:0:0:
160,192,114668,1,0,0:0:0:0:
352,192,114668,1,0,0:0:0:0:
288,192,114767,1,0,0:0:0:0:
224,192,114767,1,0,0:0:0:0:
160,192,114767,1,0,0:0:0:0:
352,192,114767,1,0,0:0:0:0:
160,192,114865,1,0,0:0:0:0:
224,192,114865,128,0,115063:0:0:0:0:
288,192,114865,128,0,115063:0:0:0:0:
352,192,114865,1,0,0:0:0:0:
160,192,115063,128,0,115260:0:0:0:0:
352,192,115063,128,0,115260:0:0:0:0:
96,192,115260,128,0,117234:0:0:0:0:
224,192,115260,128,0,117333:0:0:0:0:
288,192,115260,128,0,117333:0:0:0:0:
416,192,115260,128,0,117431:0:0:0:0:
32,192,115260,128,0,117234:0:0:0:0:
480,192,115260,128,0,117431:0:0:0:0:
480,192,117629,1,0,0:0:0:0:
416,192,117678,1,0,0:0:0:0:
352,192,117678,1,0,0:0:0:0:
288,192,117727,1,0,0:0:0:0:
224,192,117727,1,0,0:0:0:0:
160,192,117777,1,0,0:0:0:0:
96,192,117777,1,0,0:0:0:0:
32,192,117826,1,0,0:0:0:0:
96,192,117875,1,0,0:0:0:0:
160,192,117875,1,0,0:0:0:0:
288,192,117925,1,0,0:0:0:0:
224,192,117925,1,0,0:0:0:0:
352,192,117974,1,0,0:0:0:0:
416,192,117974,1,0,0:0:0:0:
480,192,118023,1,0,0:0:0:0:
416,192,118073,1,0,0:0:0:0:
352,192,118073,1,0,0:0:0:0:
288,192,118122,1,0,0:0:0:0:
224,192,118122,1,0,0:0:0:0:
160,192,118171,1,0,0:0:0:0:
96,192,118171,1,0,0:0:0:0:
32,192,118221,1,0,0:0:0:0:
96,192,118270,1,0,0:0:0:0:
160,192,118270,1,0,0:0:0:0:
288,192,118319,1,0,0:0:0:0:
224,192,118319,1,0,0:0:0:0:
352,192,118369,1,0,0:0:0:0:
416,192,118369,1,0,0:0:0:0:
480,192,118418,1,0,0:0:0:0:
416,192,118467,1,0,0:0:0:0:
352,192,118467,1,0,0:0:0:0:
288,192,118517,1,0,0:0:0:0:
224,192,118517,1,0,0:0:0:0:
160,192,118566,1,0,0:0:0:0:
96,192,118566,1,0,0:0:0:0:
32,192,118615,1,0,0:0:0:0:
96,192,118665,1,0,0:0:0:0:
160,192,118665,1,0,0:0:0:0:
288,192,118714,1,0,0:0:0:0:
224,192,118714,1,0,0:0:0:0:
352,192,118763,1,0,0:0:0:0:
416,192,118763,1,0,0:0:0:0:
480,192,118813,1,0,0:0:0:0:
416,192,118862,1,0,0:0:0:0:
352,192,118862,1,0,0:0:0:0:
288,192,118911,1,0,0:0:0:0:
224,192,118911,1,0,0:0:0:0:
160,192,118961,1,0,0:0:0:0:
96,192,118961,1,0,0:0:0:0:
32,192,119010,1,0,0:0:0:0:
96,192,119060,1,0,0:0:0:0:
160,192,119060,1,0,0:0:0:0:
288,192,119109,1,0,0:0:0:0:
224,192,119109,1,0,0:0:0:0:
352,192,119158,1,0,0:0:0:0:
416,192,119158,1,0,0:0:0:0:
480,192,119208,1,0,0:0:0:0:
416,192,119257,1,0,0:0:0:0:
352,192,119257,1,0,0:0:0:0:
288,192,119306,1,0,0:0:0:0:
224,192,119306,1,0,0:0:0:0:
160,192,119356,1,0,0:0:0:0:
96,192,119356,1,0,0:0:0:0:
32,192,119405,1,0,0:0:0:0:
96,192,119454,1,0,0:0:0:0:
160,192,119454,1,0,0:0:0:0:
288,192,119504,1,0,0:0:0:0:
224,192,119504,1,0,0:0:0:0:
352,192,119553,1,0,0:0:0:0:
416,192,119553,1,0,0:0:0:0:
480,192,119602,1,0,0:0:0:0:
416,192,119652,1,0,0:0:0:0:
352,192,119652,1,0,0:0:0:0:
288,192,119701,1,0,0:0:0:0:
224,192,119701,1,0,0:0:0:0:
160,192,119750,1,0,0:0:0:0:
96,192,119750,1,0,0:0:0:0:
32,192,119800,1,0,0:0:0:0:
96,192,119849,1,0,0:0:0:0:
160,192,119849,1,0,0:0:0:0:
288,192,119898,1,0,0:0:0:0:
224,192,119898,1,0,0:0:0:0:
352,192,119948,1,0,0:0:0:0:
416,192,119948,1,0,0:0:0:0:
480,192,119997,1,0,0:0:0:0:
416,192,120046,1,0,0:0:0:0:
352,192,120046,1,0,0:0:0:0:
288,192,120096,1,0,0:0:0:0:
224,192,120096,1,0,0:0:0:0:
160,192,120145,1,0,0:0:0:0:
96,192,120145,1,0,0:0:0:0:
32,192,120194,1,0,0:0:0:0:
96,192,120244,1,0,0:0:0:0:
160,192,120244,1,0,0:0:0:0:
288,192,120293,1,0,0:0:0:0:
224,192,120293,1,0,0:0:0:0:
352,192,120342,1,0,0:0:0:0:
416,192,120342,1,0,0:0:0:0:
480,192,120392,1,0,0:0:0:0:
416,192,120490,1,0,0:0:0:0:
352,192,120589,1,0,0:0:0:0:
288,192,120589,128,0,120984:0:0:0:0:
224,192,120589,128,0,120984:0:0:0:0:
160,192,120984,1,0,0:0:0:0:
480,192,120984,1,0,0:0:0:0:
352,192,120984,1,0,0:0:0:0:
352,192,121083,1,0,0:0:0:0:
160,192,121083,1,0,0:0:0:0:
96,192,121181,1,0,0:0:0:0:
416,192,121181,1,0,0:0:0:0:
416,192,121280,1,0,0:0:0:0:
32,192,121280,1,0,0:0:0:0:
480,192,121280,1,0,0:0:0:0:
352,192,121379,1,0,0:0:0:0:
160,192,121477,1,0,0:0:0:0:
288,192,121576,1,0,0:0:0:0:
32,192,121675,1,0,0:0:0:0:
160,192,121773,1,0,0:0:0:0:
416,192,121773,1,0,0:0:0:0:
352,192,121872,1,0,0:0:0:0:
480,192,121971,1,0,0:0:0:0:
160,192,122069,1,0,0:0:0:0:
224,192,122168,1,0,0:0:0:0:
416,192,122168,1,0,0:0:0:0:
96,192,122267,1,0,0:0:0:0:
288,192,122267,1,0,0:0:0:0:
224,192,122267,1,0,0:0:0:0:
352,192,122365,1,0,0:0:0:0:
160,192,122365,1,0,0:0:0:0:
480,192,122464,1,0,0:0:0:0:
96,192,122464,1,0,0:0:0:0:
288,192,122563,1,0,0:0:0:0:
32,192,122563,1,0,0:0:0:0:
416,192,122563,1,0,0:0:0:0:
96,192,122563,1,0,0:0:0:0:
352,192,122661,1,0,0:0:0:0:
96,192,122661,1,0,0:0:0:0:
416,192,122661,1,0,0:0:0:0:
160,192,122760,1,0,0:0:0:0:
416,192,122760,1,0,0:0:0:0:
352,192,122859,1,0,0:0:0:0:
224,192,122859,1,0,0:0:0:0:
480,192,122859,1,0,0:0:0:0:
160,192,122958,1,0,0:0:0:0:
32,192,122958,1,0,0:0:0:0:
416,192,122958,1,0,0:0:0:0:
480,192,123056,1,0,0:0:0:0:
416,192,123056,1,0,0:0:0:0:
96,192,123056,1,0,0:0:0:0:
416,192,123155,1,0,0:0:0:0:
32,192,123155,1,0,0:0:0:0:
96,192,123155,1,0,0:0:0:0:
32,192,123254,1,0,0:0:0:0:
352,192,123254,1,0,0:0:0:0:
96,192,123254,1,0,0:0:0:0:
160,192,123352,1,0,0:0:0:0:
416,192,123352,1,0,0:0:0:0:
288,192,123451,1,0,0:0:0:0:
480,192,123451,1,0,0:0:0:0:
416,192,123451,1,0,0:0:0:0:
224,192,123451,1,0,0:0:0:0:
416,192,123550,1,0,0:0:0:0:
288,192,123550,1,0,0:0:0:0:
352,192,123648,1,0,0:0:0:0:
96,192,123747,1,0,0:0:0:0:
480,192,123747,1,0,0:0:0:0:
352,192,123846,1,0,0:0:0:0:
160,192,123944,1,0,0:0:0:0:
224,192,124043,1,0,0:0:0:0:
96,192,124142,1,0,0:0:0:0:
480,192,124142,1,0,0:0:0:0:
416,192,124240,1,0,0:0:0:0:
352,192,124339,1,0,0:0:0:0:
480,192,124438,1,0,0:0:0:0:
96,192,124536,1,0,0:0:0:0:
288,192,124536,1,0,0:0:0:0:
352,192,124635,1,0,0:0:0:0:
160,192,124734,1,0,0:0:0:0:
32,192,124833,1,0,0:0:0:0:
288,192,124931,1,0,0:0:0:0:
416,192,124931,1,0,0:0:0:0:
160,192,125030,1,0,0:0:0:0:
96,192,125129,1,0,0:0:0:0:
288,192,125227,1,0,0:0:0:0:
224,192,125326,1,0,0:0:0:0:
416,192,125326,1,0,0:0:0:0:
32,192,125425,1,0,0:0:0:0:
160,192,125523,1,0,0:0:0:0:
480,192,125622,1,0,0:0:0:0:
352,192,125721,1,0,0:0:0:0:
32,192,125721,1,0,0:0:0:0:
96,192,125819,1,0,0:0:0:0:
160,192,125918,1,0,0:0:0:0:
480,192,126017,1,0,0:0:0:0:
224,192,126017,1,0,0:0:0:0:
96,192,126115,1,0,0:0:0:0:
288,192,126115,1,0,0:0:0:0:
416,192,126214,1,0,0:0:0:0:
96,192,126214,1,0,0:0:0:0:
32,192,126313,1,0,0:0:0:0:
160,192,126411,1,0,0:0:0:0:
96,192,126510,1,0,0:0:0:0:
288,192,126510,1,0,0:0:0:0:
416,192,126609,1,0,0:0:0:0:
352,192,126708,1,0,0:0:0:0:
480,192,126806,1,0,0:0:0:0:
160,192,126905,1,0,0:0:0:0:
416,192,126905,1,0,0:0:0:0:
352,192,127004,1,0,0:0:0:0:
160,192,127004,1,0,0:0:0:0:
96,192,127102,1,0,0:0:0:0:
288,192,127201,1,0,0:0:0:0:
96,192,127201,1,0,0:0:0:0:
224,192,127201,1,0,0:0:0:0:
32,192,127300,1,0,0:0:0:0:
224,192,127300,128,0,127497:0:0:0:0:
160,192,127398,1,0,0:0:0:0:
288,192,127497,1,0,0:0:0:0:
352,192,127596,1,0,0:0:0:0:
224,192,127596,1,0,0:0:0:0:
416,192,127596,1,0,0:0:0:0:
160,192,127694,1,0,0:0:0:0:
416,192,127694,128,0,127892:0:0:0:0:
96,192,127793,1,0,0:0:0:0:
288,192,127892,1,0,0:0:0:0:
160,192,127990,1,0,0:0:0:0:
416,192,127990,1,0,0:0:0:0:
480,192,127990,1,0,0:0:0:0:
32,192,128089,1,0,0:0:0:0:
480,192,128089,128,0,128286:0:0:0:0:
96,192,128188,1,0,0:0:0:0:
288,192,128286,1,0,0:0:0:0:
160,192,128385,1,0,0:0:0:0:
480,192,128385,1,0,0:0:0:0:
352,192,128385,1,0,0:0:0:0:
32,192,128484,1,0,0:0:0:0:
352,192,128484,128,0,128681:0:0:0:0:
160,192,128583,1,0,0:0:0:0:
96,192,128681,1,0,0:0:0:0:
288,192,128780,1,0,0:0:0:0:
352,192,128780,1,0,0:0:0:0:
224,192,128780,1,0,0:0:0:0:
160,192,128879,1,0,0:0:0:0:
224,192,128879,128,0,129076:0:0:0:0:
32,192,128977,1,0,0:0:0:0:
160,192,128977,1,0,0:0:0:0:
160,192,129076,1,0,0:0:0:0:
288,192,129175,1,0,0:0:0:0:
224,192,129175,1,0,0:0:0:0:
96,192,129175,1,0,0:0:0:0:
416,192,129273,1,0,0:0:0:0:
96,192,129273,128,0,129471:0:0:0:0:
288,192,129372,1,0,0:0:0:0:
480,192,129471,1,0,0:0:0:0:
416,192,129569,1,0,0:0:0:0:
96,192,129569,1,0,0:0:0:0:
224,192,129569,1,0,0:0:0:0:
352,192,129668,1,0,0:0:0:0:
224,192,129668,128,0,129865:0:0:0:0:
160,192,129668,1,0,0:0:0:0:
160,192,129767,1,0,0:0:0:0:
288,192,129865,1,0,0:0:0:0:
416,192,129964,1,0,0:0:0:0:
224,192,129964,1,0,0:0:0:0:
288,192,129964,1,0,0:0:0:0:
288,192,130063,1,0,0:0:0:0:
224,192,130063,128,0,130260:0:0:0:0:
160,192,130161,1,0,0:0:0:0:
480,192,130260,1,0,0:0:0:0:
160,192,130260,1,0,0:0:0:0:
288,192,130260,1,0,0:0:0:0:
416,192,130359,1,0,0:0:0:0:
224,192,130359,1,0,0:0:0:0:
288,192,130359,1,0,0:0:0:0:
224,192,130458,128,0,130655:0:0:0:0:
288,192,130458,1,0,0:0:0:0:
160,192,130556,1,0,0:0:0:0:
160,192,130655,1,0,0:0:0:0:
288,192,130655,1,0,0:0:0:0:
352,192,130754,1,0,0:0:0:0:
224,192,130754,1,0,0:0:0:0:
480,192,130754,1,0,0:0:0:0:
416,192,130852,1,0,0:0:0:0:
480,192,130852,128,0,131050:0:0:0:0:
160,192,130951,1,0,0:0:0:0:
288,192,131050,1,0,0:0:0:0:
224,192,131148,1,0,0:0:0:0:
96,192,131148,1,0,0:0:0:0:
480,192,131148,1,0,0:0:0:0:
288,192,131247,1,0,0:0:0:0:
480,192,131247,128,0,131444:0:0:0:0:
352,192,131346,1,0,0:0:0:0:
288,192,131444,1,0,0:0:0:0:
416,192,131543,1,0,0:0:0:0:
480,192,131543,1,0,0:0:0:0:
160,192,131543,1,0,0:0:0:0:
352,192,131642,1,0,0:0:0:0:
160,192,131642,128,0,131839:0:0:0:0:
480,192,131740,1,0,0:0:0:0:
352,192,131839,1,0,0:0:0:0:
416,192,131938,1,0,0:0:0:0:
160,192,131938,1,0,0:0:0:0:
352,192,132036,1,0,0:0:0:0:
160,192,132036,128,0,132234:0:0:0:0:
480,192,132135,1,0,0:0:0:0:
416,192,132234,1,0,0:0:0:0:
352,192,132333,1,0,0:0:0:0:
160,192,132333,1,0,0:0:0:0:
96,192,132333,1,0,0:0:0:0:
288,192,132431,1,0,0:0:0:0:
96,192,132431,128,0,132629:0:0:0:0:
352,192,132530,1,0,0:0:0:0:
224,192,132629,1,0,0:0:0:0:
224,192,132826,1,0,0:0:0:0:
352,192,132826,1,0,0:0:0:0:
96,192,132826,1,0,0:0:0:0:
224,192,133023,1,0,0:0:0:0:
352,192,133023,1,0,0:0:0:0:
96,192,133023,1,0,0:0:0:0:
416,192,133023,128,0,133615:0:0:0:0:
224,192,133122,1,0,0:0:0:0:
352,192,133122,1,0,0:0:0:0:
96,192,133122,1,0,0:0:0:0:
224,192,133221,1,0,0:0:0:0:
352,192,133221,1,0,0:0:0:0:
96,192,133221,1,0,0:0:0:0:
224,192,133319,1,0,0:0:0:0:
352,192,133319,1,0,0:0:0:0:
96,192,133319,1,0,0:0:0:0:
160,192,133418,1,0,0:0:0:0:
224,192,133418,1,0,0:0:0:0:
352,192,133418,1,0,0:0:0:0:
96,192,133418,1,0,0:0:0:0:
288,192,133418,1,0,0:0:0:0:
32,192,133517,1,0,0:0:0:0:
288,192,133615,1,0,0:0:0:0:
32,192,133615,128,0,133813:0:0:0:0:
288,192,133714,1,0,0:0:0:0:
352,192,133714,1,0,0:0:0:0:
480,192,133813,1,0,0:0:0:0:
352,192,133911,1,0,0:0:0:0:
480,192,133911,1,0,0:0:0:0:
32,192,133911,1,0,0:0:0:0:
288,192,134010,1,0,0:0:0:0:
480,192,134010,128,0,134208:0:0:0:0:
160,192,134010,1,0,0:0:0:0:
160,192,134109,1,0,0:0:0:0:
288,192,134109,1,0,0:0:0:0:
32,192,134208,1,0,0:0:0:0:
96,192,134306,1,0,0:0:0:0:
480,192,134306,1,0,0:0:0:0:
288,192,134405,1,0,0:0:0:0:
480,192,134405,128,0,134602:0:0:0:0:
160,192,134405,1,0,0:0:0:0:
160,192,134504,1,0,0:0:0:0:
288,192,134504,1,0,0:0:0:0:
352,192,134602,1,0,0:0:0:0:
288,192,134602,1,0,0:0:0:0:
288,192,134701,1,0,0:0:0:0:
480,192,134701,1,0,0:0:0:0:
416,192,134701,1,0,0:0:0:0:
96,192,134800,1,0,0:0:0:0:
416,192,134800,128,0,134997:0:0:0:0:
96,192,134898,1,0,0:0:0:0:
160,192,134898,1,0,0:0:0:0:
32,192,134997,1,0,0:0:0:0:
96,192,134997,1,0,0:0:0:0:
96,192,135096,1,0,0:0:0:0:
416,192,135096,1,0,0:0:0:0:
288,192,135194,1,0,0:0:0:0:
416,192,135194,128,0,135392:0:0:0:0:
160,192,135293,1,0,0:0:0:0:
288,192,135293,1,0,0:0:0:0:
96,192,135392,1,0,0:0:0:0:
160,192,135392,1,0,0:0:0:0:
160,192,135490,1,0,0:0:0:0:
416,192,135490,1,0,0:0:0:0:
288,192,135490,1,0,0:0:0:0:
32,192,135589,1,0,0:0:0:0:
288,192,135589,128,0,135786:0:0:0:0:
96,192,135688,1,0,0:0:0:0:
32,192,135688,1,0,0:0:0:0:
416,192,135786,1,0,0:0:0:0:
480,192,135885,1,0,0:0:0:0:
288,192,135885,1,0,0:0:0:0:
224,192,135885,1,0,0:0:0:0:
352,192,135984,1,0,0:0:0:0:
224,192,135984,128,0,136181:0:0:0:0:
352,192,136083,1,0,0:0:0:0:
416,192,136083,1,0,0:0:0:0:
288,192,136083,1,0,0:0:0:0:
288,192,136181,1,0,0:0:0:0:
352,192,136181,1,0,0:0:0:0:
352,192,136280,1,0,0:0:0:0:
224,192,136280,1,0,0:0:0:0:
416,192,136379,1,0,0:0:0:0:
224,192,136379,128,0,136576:0:0:0:0:
160,192,136379,1,0,0:0:0:0:
160,192,136477,1,0,0:0:0:0:
416,192,136477,1,0,0:0:0:0:
288,192,136576,1,0,0:0:0:0:
480,192,136675,1,0,0:0:0:0:
352,192,136675,1,0,0:0:0:0:
224,192,136675,1,0,0:0:0:0:
416,192,136773,1,0,0:0:0:0:
224,192,136773,128,0,136971:0:0:0:0:
160,192,136773,1,0,0:0:0:0:
160,192,136872,1,0,0:0:0:0:
416,192,136872,1,0,0:0:0:0:
288,192,136971,1,0,0:0:0:0:
352,192,137069,1,0,0:0:0:0:
480,192,137069,1,0,0:0:0:0:
224,192,137069,1,0,0:0:0:0:
160,192,137168,1,0,0:0:0:0:
480,192,137168,128,0,137365:0:0:0:0:
96,192,137267,1,0,0:0:0:0:
160,192,137267,1,0,0:0:0:0:
288,192,137365,1,0,0:0:0:0:
160,192,137365,1,0,0:0:0:0:
32,192,137464,1,0,0:0:0:0:
96,192,137464,1,0,0:0:0:0:
480,192,137464,1,0,0:0:0:0:
96,192,137563,1,0,0:0:0:0:
480,192,137563,128,0,137760:0:0:0:0:
96,192,137661,1,0,0:0:0:0:
352,192,137661,1,0,0:0:0:0:
160,192,137760,1,0,0:0:0:0:
288,192,137859,1,0,0:0:0:0:
480,192,137859,1,0,0:0:0:0:
416,192,137859,1,0,0:0:0:0:
96,192,137958,1,0,0:0:0:0:
416,192,137958,128,0,138155:0:0:0:0:
96,192,138056,1,0,0:0:0:0:
32,192,138056,1,0,0:0:0:0:
160,192,138155,1,0,0:0:0:0:
96,192,138155,1,0,0:0:0:0:
96,192,138254,1,0,0:0:0:0:
416,192,138254,1,0,0:0:0:0:
288,192,138352,1,0,0:0:0:0:
416,192,138352,128,0,138550:0:0:0:0:
288,192,138451,1,0,0:0:0:0:
32,192,138451,1,0,0:0:0:0:
160,192,138550,1,0,0:0:0:0:
96,192,138648,1,0,0:0:0:0:
416,192,138648,1,0,0:0:0:0:
352,192,138648,1,0,0:0:0:0:
32,192,138747,1,0,0:0:0:0:
352,192,138747,128,0,138944:0:0:0:0:
96,192,138747,1,0,0:0:0:0:
160,192,138846,1,0,0:0:0:0:
32,192,138846,1,0,0:0:0:0:
96,192,138846,1,0,0:0:0:0:
96,192,138944,1,0,0:0:0:0:
160,192,139043,1,0,0:0:0:0:
352,192,139043,1,0,0:0:0:0:
224,192,139043,1,0,0:0:0:0:
288,192,139142,1,0,0:0:0:0:
224,192,139142,128,0,139339:0:0:0:0:
288,192,139240,1,0,0:0:0:0:
480,192,139240,1,0,0:0:0:0:
416,192,139339,1,0,0:0:0:0:
288,192,139339,1,0,0:0:0:0:
288,192,139438,1,0,0:0:0:0:
224,192,139438,1,0,0:0:0:0:
352,192,139536,1,0,0:0:0:0:
224,192,139536,128,0,139734:0:0:0:0:
352,192,139635,1,0,0:0:0:0:
480,192,139635,1,0,0:0:0:0:
160,192,139734,1,0,0:0:0:0:
288,192,139833,1,0,0:0:0:0:
416,192,139833,1,0,0:0:0:0:
224,192,139833,1,0,0:0:0:0:
416,192,139931,1,0,0:0:0:0:
224,192,139931,128,0,140129:0:0:0:0:
352,192,140030,1,0,0:0:0:0:
416,192,140030,1,0,0:0:0:0:
160,192,140129,1,0,0:0:0:0:
288,192,140227,1,0,0:0:0:0:
96,192,140227,1,0,0:0:0:0:
224,192,140227,1,0,0:0:0:0:
480,192,140227,1,0,0:0:0:0:
96,192,140326,1,0,0:0:0:0:
480,192,140326,128,0,140523:0:0:0:0:
96,192,140425,1,0,0:0:0:0:
32,192,140425,1,0,0:0:0:0:
160,192,140523,1,0,0:0:0:0:
352,192,140622,1,0,0:0:0:0:
480,192,140622,1,0,0:0:0:0:
96,192,140721,1,0,0:0:0:0:
480,192,140721,128,0,140918:0:0:0:0:
288,192,140721,1,0,0:0:0:0:
96,192,140819,1,0,0:0:0:0:
288,192,140819,1,0,0:0:0:0:
160,192,140918,1,0,0:0:0:0:
288,192,140918,1,0,0:0:0:0:
32,192,141017,1,0,0:0:0:0:
480,192,141017,1,0,0:0:0:0:
416,192,141017,1,0,0:0:0:0:
96,192,141115,1,0,0:0:0:0:
416,192,141115,128,0,141313:0:0:0:0:
288,192,141115,1,0,0:0:0:0:
96,192,141214,1,0,0:0:0:0:
288,192,141214,1,0,0:0:0:0:
160,192,141313,1,0,0:0:0:0:
288,192,141313,1,0,0:0:0:0:
96,192,141411,1,0,0:0:0:0:
416,192,141411,1,0,0:0:0:0:
160,192,141510,1,0,0:0:0:0:
416,192,141510,128,0,141708:0:0:0:0:
160,192,141609,1,0,0:0:0:0:
32,192,141609,1,0,0:0:0:0:
288,192,141708,1,0,0:0:0:0:
96,192,141806,1,0,0:0:0:0:
416,192,141806,1,0,0:0:0:0:
160,192,141806,1,0,0:0:0:0:
352,192,141905,1,0,0:0:0:0:
160,192,141905,128,0,142102:0:0:0:0:
96,192,141905,1,0,0:0:0:0:
352,192,142004,1,0,0:0:0:0:
480,192,142004,1,0,0:0:0:0:
96,192,142004,1,0,0:0:0:0:
416,192,142102,1,0,0:0:0:0:
96,192,142102,1,0,0:0:0:0:
224,192,142201,1,0,0:0:0:0:
352,192,142201,1,0,0:0:0:0:
160,192,142201,1,0,0:0:0:0:
224,192,142300,128,0,142497:0:0:0:0:
416,192,142300,1,0,0:0:0:0:
288,192,142398,1,0,0:0:0:0:
416,192,142398,1,0,0:0:0:0:
352,192,142497,1,0,0:0:0:0:
224,192,142596,1,0,0:0:0:0:
480,192,142596,1,0,0:0:0:0:
224,192,142694,128,0,142892:0:0:0:0:
160,192,142694,1,0,0:0:0:0:
160,192,142793,1,0,0:0:0:0:
288,192,142793,1,0,0:0:0:0:
416,192,142892,1,0,0:0:0:0:
224,192,142990,1,0,0:0:0:0:
352,192,142990,1,0,0:0:0:0:
224,192,143089,128,0,143286:0:0:0:0:
480,192,143089,1,0,0:0:0:0:
288,192,143188,1,0,0:0:0:0:
480,192,143188,1,0,0:0:0:0:
160,192,143286,1,0,0:0:0:0:
288,192,143385,1,0,0:0:0:0:
480,192,143385,1,0,0:0:0:0:
224,192,143385,1,0,0:0:0:0:
160,192,143484,1,0,0:0:0:0:
480,192,143484,128,0,143681:0:0:0:0:
96,192,143583,1,0,0:0:0:0:
160,192,143583,1,0,0:0:0:0:
352,192,143681,1,0,0:0:0:0:
160,192,143681,1,0,0:0:0:0:
160,192,143780,1,0,0:0:0:0:
480,192,143780,1,0,0:0:0:0:
32,192,143879,1,0,0:0:0:0:
480,192,143879,128,0,144076:0:0:0:0:
96,192,143977,1,0,0:0:0:0:
32,192,143977,1,0,0:0:0:0:
288,192,144076,1,0,0:0:0:0:
160,192,144175,1,0,0:0:0:0:
480,192,144175,1,0,0:0:0:0:
416,192,144175,1,0,0:0:0:0:
96,192,144273,1,0,0:0:0:0:
416,192,144273,128,0,144471:0:0:0:0:
96,192,144372,1,0,0:0:0:0:
288,192,144372,1,0,0:0:0:0:
160,192,144471,1,0,0:0:0:0:
32,192,144569,1,0,0:0:0:0:
416,192,144569,1,0,0:0:0:0:
96,192,144668,1,0,0:0:0:0:
416,192,144668,128,0,144865:0:0:0:0:
96,192,144767,1,0,0:0:0:0:
288,192,144767,1,0,0:0:0:0:
160,192,144865,1,0,0:0:0:0:
416,192,145260,1,0,0:0:0:0:
224,192,145260,1,0,0:0:0:0:
288,192,145260,1,0,0:0:0:0:
160,192,145260,1,0,0:0:0:0:
352,192,145260,1,0,0:0:0:0:
96,192,145260,1,0,0:0:0:0:
224,192,145458,1,0,0:0:0:0:
288,192,145458,1,0,0:0:0:0:
160,192,145458,1,0,0:0:0:0:
352,192,145458,1,0,0:0:0:0:
416,192,145458,1,0,0:0:0:0:
96,192,145458,1,0,0:0:0:0:
160,192,145655,1,0,0:0:0:0:
352,192,145655,1,0,0:0:0:0:
96,192,145655,1,0,0:0:0:0:
416,192,145655,1,0,0:0:0:0:
224,192,145655,128,0,146099:0:0:0:0:
288,192,145655,128,0,146099:0:0:0:0:
96,192,146099,1,0,0:0:0:0:
352,192,146099,1,0,0:0:0:0:
416,192,146099,1,0,0:0:0:0:
160,192,146099,1,0,0:0:0:0:
96,192,146494,128,0,150046:0:0:0:0:
224,192,146494,128,0,150046:0:0:0:0:
288,192,146494,128,0,150046:0:0:0:0:
416,192,146494,128,0,150046:0:0:0:0:
32,192,146494,128,0,150046:0:0:0:0:
480,192,146494,128,0,150046:0:0:0:0:
