osu file format v13

[General]
AudioFilename: Extreme Fantasy Survival.mp3
AudioLeadIn: 0
PreviewTime: 50720
Countdown: 0
SampleSet: None
StackLeniency: 0.7
Mode: 3
LetterboxInBreaks: 0
SpecialStyle: 1
WidescreenStoryboard: 1

[Editor]
DistanceSpacing: 1.2
BeatDivisor: 4
GridSize: 4
TimelineZoom: 1

[Metadata]
Title:Extreme Fantasy Survival
TitleUnicode:Extreme Fantasy Survival
Artist:Memme
ArtistUnicode:Memme
Creator:jamesalegre15
Version:7K EZ
Source:BMS
Tags:arcwin eternalie 1K 2K 3K 9K 10K memme dubstep
BeatmapID:519384
BeatmapSetID:220543

[Difficulty]
HPDrainRate:4
CircleSize:7
OverallDifficulty:8
ApproachRate:5
SliderMultiplier:1.4
SliderTickRate:1

[Events]
//Background and Video events
0,0,"50961e5dc64da.jpg",0,0
//Break Periods
//Storyboard Layer 0 (Background)
//Storyboard Layer 1 (Fail)
//Storyboard Layer 2 (Pass)
//Storyboard Layer 3 (Foreground)
//Storyboard Sound Samples
//Background Colour Transformations
3,100,163,162,255

[TimingPoints]
4734,394.736842105263,4,1,0,50,1,0
146543,-400,4,1,0,50,0,0

[HitObjects]
85,192,4733,5,0,0:0:0:0:
483,192,4733,128,0,5918:0:0:0:0:
199,192,5918,1,0,0:0:0:0:
28,192,6510,1,0,0:0:0:0:
85,192,6905,1,0,0:0:0:0:
199,192,7299,1,0,0:0:0:0:
142,192,7694,1,0,0:0:0:0:
199,192,8089,1,0,0:0:0:0:
312,192,8484,1,0,0:0:0:0:
256,192,8878,1,0,0:0:0:0:
369,192,9273,1,0,0:0:0:0:
483,192,9668,1,0,0:0:0:0:
426,192,10062,1,0,0:0:0:0:
312,192,10457,1,0,0:0:0:0:
369,192,10852,1,0,0:0:0:0:
256,192,11247,1,0,0:0:0:0:
199,192,11641,1,0,0:0:0:0:
256,192,12036,1,0,0:0:0:0:
142,192,12431,1,0,0:0:0:0:
28,192,12826,1,0,0:0:0:0:
85,192,13220,1,0,0:0:0:0:
142,192,13615,1,0,0:0:0:0:
199,192,14010,1,0,0:0:0:0:
256,192,14405,1,0,0:0:0:0:
256,192,14799,1,0,0:0:0:0:
312,192,15194,1,0,0:0:0:0:
369,192,15589,1,0,0:0:0:0:
426,192,15984,1,0,0:0:0:0:
483,192,16378,1,0,0:0:0:0:
426,192,16773,1,0,0:0:0:0:
369,192,17168,1,0,0:0:0:0:
426,192,17365,1,0,0:0:0:0:
85,192,17365,1,0,0:0:0:0:
28,192,18155,1,0,0:0:0:0:
483,192,18155,1,0,0:0:0:0:
369,192,18352,1,0,0:0:0:0:
142,192,18352,1,0,0:0:0:0:
256,192,18549,1,0,0:0:0:0:
85,192,19141,1,0,0:0:0:0:
199,192,19339,1,0,0:0:0:0:
312,192,19931,1,0,0:0:0:0:
426,192,20128,1,0,0:0:0:0:
199,192,20720,1,0,0:0:0:0:
312,192,20918,1,0,0:0:0:0:
142,192,21214,1,0,0:0:0:0:
369,192,21312,1,0,0:0:0:0:
483,192,21510,1,0,0:0:0:0:
256,192,21707,1,0,0:0:0:0:
142,192,21905,1,0,0:0:0:0:
426,192,22102,1,0,0:0:0:0:
199,192,22497,1,0,0:0:0:0:
312,192,23089,1,0,0:0:0:0:
85,192,23286,1,0,0:0:0:0:
312,192,23878,1,0,0:0:0:0:
142,192,24076,1,0,0:0:0:0:
426,192,24372,1,0,0:0:0:0:
369,192,24470,1,0,0:0:0:0:
312,192,24668,1,0,0:0:0:0:
256,192,24865,1,0,0:0:0:0:
426,192,25062,1,0,0:0:0:0:
312,192,25260,1,0,0:0:0:0:
199,192,25457,1,0,0:0:0:0:
199,192,25852,1,0,0:0:0:0:
312,192,26247,1,0,0:0:0:0:
256,192,26641,1,0,0:0:0:0:
142,192,27036,1,0,0:0:0:0:
426,192,27234,1,0,0:0:0:0:
256,192,27530,1,0,0:0:0:0:
199,192,27628,1,0,0:0:0:0:
142,192,27826,1,0,0:0:0:0:
369,192,28023,1,0,0:0:0:0:
312,192,28220,1,0,0:0:0:0:
28,192,28418,1,0,0:0:0:0:
85,192,28812,1,0,0:0:0:0:
199,192,29207,1,0,0:0:0:0:
312,192,29602,1,0,0:0:0:0:
426,192,29997,1,0,0:0:0:0:
312,192,30391,1,0,0:0:0:0:
199,192,30786,1,0,0:0:0:0:
85,192,31181,1,0,0:0:0:0:
199,192,31576,1,0,0:0:0:0:
312,192,31576,1,0,0:0:0:0:
256,192,31970,1,0,0:0:0:0:
199,192,32365,1,0,0:0:0:0:
256,192,32760,1,0,0:0:0:0:
312,192,33155,1,0,0:0:0:0:
256,192,33549,1,0,0:0:0:0:
312,192,33944,1,0,0:0:0:0:
256,192,34339,1,0,0:0:0:0:
199,192,34734,1,0,0:0:0:0:
256,192,35128,1,0,0:0:0:0:
312,192,35523,1,0,0:0:0:0:
256,192,35918,1,0,0:0:0:0:
85,192,36312,1,0,0:0:0:0:
199,192,36707,1,0,0:0:0:0:
312,192,37102,1,0,0:0:0:0:
369,192,37497,1,0,0:0:0:0:
483,192,37694,1,0,0:0:0:0:
369,192,37891,1,0,0:0:0:0:
256,192,37891,1,0,0:0:0:0:
199,192,38286,1,0,0:0:0:0:
85,192,38681,1,0,0:0:0:0:
199,192,39076,1,0,0:0:0:0:
312,192,39470,1,0,0:0:0:0:
426,192,39865,1,0,0:0:0:0:
312,192,40260,1,0,0:0:0:0:
199,192,40655,1,0,0:0:0:0:
85,192,41049,1,0,0:0:0:0:
199,192,41444,1,0,0:0:0:0:
483,192,41839,1,0,0:0:0:0:
199,192,42234,1,0,0:0:0:0:
142,192,42628,1,0,0:0:0:0:
199,192,43023,1,0,0:0:0:0:
85,192,43418,1,0,0:0:0:0:
312,192,43812,1,0,0:0:0:0:
85,192,44207,1,0,0:0:0:0:
199,192,44602,1,0,0:0:0:0:
312,192,44602,128,0,44997:0:0:0:0:
426,192,44997,128,0,50227:0:0:0:0:
85,192,44997,1,0,0:0:0:0:
483,192,44997,128,0,50227:0:0:0:0:
312,192,50227,5,0,0:0:0:0:
199,192,50523,5,0,0:0:0:0:
85,192,50918,1,0,0:0:0:0:
199,192,51312,1,0,0:0:0:0:
369,192,51707,1,0,0:0:0:0:
483,192,52102,1,0,0:0:0:0:
369,192,52497,1,0,0:0:0:0:
256,192,52891,1,0,0:0:0:0:
199,192,53286,1,0,0:0:0:0:
312,192,53681,1,0,0:0:0:0:
199,192,54076,1,0,0:0:0:0:
142,192,54470,1,0,0:0:0:0:
199,192,54865,1,0,0:0:0:0:
426,192,55260,1,0,0:0:0:0:
369,192,55655,1,0,0:0:0:0:
426,192,56049,1,0,0:0:0:0:
142,192,56444,1,0,0:0:0:0:
85,192,56839,1,0,0:0:0:0:
142,192,57234,1,0,0:0:0:0:
483,192,57628,1,0,0:0:0:0:
426,192,58023,1,0,0:0:0:0:
483,192,58418,1,0,0:0:0:0:
28,192,58812,1,0,0:0:0:0:
256,192,59207,1,0,0:0:0:0:
426,192,59602,1,0,0:0:0:0:
28,192,59997,1,0,0:0:0:0:
483,192,60391,1,0,0:0:0:0:
256,192,60786,1,0,0:0:0:0:
142,192,61181,1,0,0:0:0:0:
426,192,61576,1,0,0:0:0:0:
28,192,61970,1,0,0:0:0:0:
256,192,62365,1,0,0:0:0:0:
369,192,62760,1,0,0:0:0:0:
256,192,63155,1,0,0:0:0:0:
85,192,63549,1,0,0:0:0:0:
199,192,63944,1,0,0:0:0:0:
426,192,64339,1,0,0:0:0:0:
312,192,64734,1,0,0:0:0:0:
199,192,65128,1,0,0:0:0:0:
85,192,65523,1,0,0:0:0:0:
199,192,65918,1,0,0:0:0:0:
85,192,66707,128,0,69470:0:0:0:0:
426,192,66707,128,0,69470:0:0:0:0:
256,192,69470,1,0,0:0:0:0:
28,192,69865,1,0,0:0:0:0:
483,192,69865,1,0,0:0:0:0:
312,192,70260,1,0,0:0:0:0:
199,192,70260,1,0,0:0:0:0:
142,192,70655,1,0,0:0:0:0:
369,192,70655,1,0,0:0:0:0:
426,192,71049,1,0,0:0:0:0:
85,192,71049,1,0,0:0:0:0:
28,192,71444,1,0,0:0:0:0:
483,192,71444,1,0,0:0:0:0:
199,192,71839,1,0,0:0:0:0:
312,192,72234,1,0,0:0:0:0:
426,192,72628,1,0,0:0:0:0:
312,192,73023,1,0,0:0:0:0:
199,192,73418,1,0,0:0:0:0:
85,192,73812,1,0,0:0:0:0:
199,192,74207,1,0,0:0:0:0:
312,192,74602,1,0,0:0:0:0:
426,192,74997,1,0,0:0:0:0:
369,192,75194,1,0,0:0:0:0:
312,192,75391,1,0,0:0:0:0:
426,192,75391,1,0,0:0:0:0:
142,192,76181,1,0,0:0:0:0:
199,192,76576,1,0,0:0:0:0:
85,192,76576,1,0,0:0:0:0:
312,192,76576,1,0,0:0:0:0:
426,192,76576,1,0,0:0:0:0:
85,192,77365,1,0,0:0:0:0:
312,192,77365,1,0,0:0:0:0:
199,192,77365,1,0,0:0:0:0:
426,192,77365,1,0,0:0:0:0:
85,192,78155,1,0,0:0:0:0:
85,192,78944,1,0,0:0:0:0:
426,192,78944,1,0,0:0:0:0:
199,192,79734,1,0,0:0:0:0:
312,192,80523,1,0,0:0:0:0:
28,192,81312,1,0,0:0:0:0:
199,192,82102,1,0,0:0:0:0:
426,192,82497,1,0,0:0:0:0:
85,192,82891,1,0,0:0:0:0:
199,192,83681,1,0,0:0:0:0:
256,192,84470,128,0,86049:0:0:0:0:
312,192,84470,1,0,0:0:0:0:
199,192,85260,1,0,0:0:0:0:
312,192,86049,1,0,0:0:0:0:
199,192,86839,1,0,0:0:0:0:
256,192,87628,128,0,89207:0:0:0:0:
199,192,87628,1,0,0:0:0:0:
312,192,87628,1,0,0:0:0:0:
312,192,89207,1,0,0:0:0:0:
199,192,89207,1,0,0:0:0:0:
312,192,89997,1,0,0:0:0:0:
199,192,89997,1,0,0:0:0:0:
85,192,90786,1,0,0:0:0:0:
426,192,90786,1,0,0:0:0:0:
199,192,91576,1,0,0:0:0:0:
312,192,92365,1,0,0:0:0:0:
256,192,93155,1,0,0:0:0:0:
199,192,93944,1,0,0:0:0:0:
85,192,94734,1,0,0:0:0:0:
256,192,95128,1,0,0:0:0:0:
312,192,95523,1,0,0:0:0:0:
142,192,96312,1,0,0:0:0:0:
312,192,96312,1,0,0:0:0:0:
199,192,97102,1,0,0:0:0:0:
199,192,97891,1,0,0:0:0:0:
483,192,97891,1,0,0:0:0:0:
312,192,98681,1,0,0:0:0:0:
85,192,99470,1,0,0:0:0:0:
426,192,99470,1,0,0:0:0:0:
28,192,100260,1,0,0:0:0:0:
256,192,100260,128,0,101839:0:0:0:0:
483,192,101839,1,0,0:0:0:0:
312,192,102234,1,0,0:0:0:0:
199,192,102628,1,0,0:0:0:0:
85,192,103023,1,0,0:0:0:0:
199,192,103418,1,0,0:0:0:0:
312,192,103812,1,0,0:0:0:0:
426,192,104207,1,0,0:0:0:0:
312,192,104602,1,0,0:0:0:0:
199,192,104997,1,0,0:0:0:0:
85,192,105391,1,0,0:0:0:0:
199,192,105786,1,0,0:0:0:0:
312,192,106181,1,0,0:0:0:0:
426,192,106576,1,0,0:0:0:0:
312,192,106970,1,0,0:0:0:0:
199,192,107365,1,0,0:0:0:0:
85,192,107760,1,0,0:0:0:0:
199,192,108155,1,0,0:0:0:0:
312,192,108549,1,0,0:0:0:0:
426,192,108944,1,0,0:0:0:0:
312,192,109339,1,0,0:0:0:0:
199,192,109734,1,0,0:0:0:0:
85,192,110128,1,0,0:0:0:0:
199,192,110523,1,0,0:0:0:0:
312,192,110918,1,0,0:0:0:0:
426,192,111312,1,0,0:0:0:0:
312,192,111707,1,0,0:0:0:0:
199,192,112102,1,0,0:0:0:0:
85,192,112497,1,0,0:0:0:0:
199,192,112891,1,0,0:0:0:0:
312,192,113286,1,0,0:0:0:0:
426,192,113681,1,0,0:0:0:0:
312,192,114076,1,0,0:0:0:0:
199,192,114470,1,0,0:0:0:0:
85,192,114865,1,0,0:0:0:0:
199,192,115260,1,0,0:0:0:0:
256,192,115260,128,0,120786:0:0:0:0:
312,192,115655,1,0,0:0:0:0:
426,192,116049,1,0,0:0:0:0:
312,192,116444,1,0,0:0:0:0:
85,192,116839,1,0,0:0:0:0:
199,192,117234,1,0,0:0:0:0:
312,192,117628,1,0,0:0:0:0:
426,192,118023,1,0,0:0:0:0:
426,192,118418,1,0,0:0:0:0:
312,192,118812,1,0,0:0:0:0:
199,192,119207,1,0,0:0:0:0:
85,192,119602,1,0,0:0:0:0:
199,192,119997,1,0,0:0:0:0:
312,192,120391,1,0,0:0:0:0:
85,192,120786,1,0,0:0:0:0:
426,192,120786,1,0,0:0:0:0:
312,192,121181,1,0,0:0:0:0:
199,192,121181,1,0,0:0:0:0:
85,192,121576,1,0,0:0:0:0:
426,192,121576,1,0,0:0:0:0:
312,192,121970,1,0,0:0:0:0:
199,192,121970,1,0,0:0:0:0:
312,192,122365,1,0,0:0:0:0:
199,192,122365,1,0,0:0:0:0:
426,192,122760,1,0,0:0:0:0:
85,192,122760,1,0,0:0:0:0:
199,192,123155,1,0,0:0:0:0:
312,192,123155,1,0,0:0:0:0:
85,192,123549,1,0,0:0:0:0:
426,192,123549,1,0,0:0:0:0:
312,192,123944,1,0,0:0:0:0:
199,192,123944,1,0,0:0:0:0:
85,192,124339,1,0,0:0:0:0:
426,192,124339,1,0,0:0:0:0:
256,192,124734,1,0,0:0:0:0:
199,192,125128,1,0,0:0:0:0:
312,192,125128,1,0,0:0:0:0:
142,192,125523,1,0,0:0:0:0:
369,192,125523,1,0,0:0:0:0:
426,192,125918,1,0,0:0:0:0:
85,192,125918,1,0,0:0:0:0:
28,192,126312,1,0,0:0:0:0:
483,192,126312,1,0,0:0:0:0:
426,192,126707,1,0,0:0:0:0:
85,192,126707,1,0,0:0:0:0:
142,192,127102,1,0,0:0:0:0:
369,192,127102,1,0,0:0:0:0:
312,192,127497,1,0,0:0:0:0:
199,192,127497,1,0,0:0:0:0:
256,192,127891,1,0,0:0:0:0:
85,192,128286,1,0,0:0:0:0:
312,192,128286,1,0,0:0:0:0:
142,192,128681,1,0,0:0:0:0:
369,192,128681,1,0,0:0:0:0:
312,192,129076,1,0,0:0:0:0:
85,192,129076,1,0,0:0:0:0:
199,192,129470,1,0,0:0:0:0:
426,192,129470,1,0,0:0:0:0:
142,192,129865,1,0,0:0:0:0:
369,192,129865,1,0,0:0:0:0:
426,192,130260,1,0,0:0:0:0:
199,192,130260,1,0,0:0:0:0:
28,192,130655,1,0,0:0:0:0:
483,192,130655,1,0,0:0:0:0:
426,192,131049,1,0,0:0:0:0:
85,192,131049,1,0,0:0:0:0:
483,192,131444,1,0,0:0:0:0:
28,192,131444,1,0,0:0:0:0:
312,192,131839,1,0,0:0:0:0:
199,192,131839,1,0,0:0:0:0:
85,192,132234,1,0,0:0:0:0:
426,192,132234,1,0,0:0:0:0:
312,192,132628,1,0,0:0:0:0:
199,192,132826,1,0,0:0:0:0:
256,192,133023,128,0,133418:0:0:0:0:
142,192,133418,1,0,0:0:0:0:
369,192,133418,1,0,0:0:0:0:
256,192,133812,1,0,0:0:0:0:
28,192,133812,1,0,0:0:0:0:
256,192,134207,1,0,0:0:0:0:
483,192,134207,1,0,0:0:0:0:
256,192,134602,1,0,0:0:0:0:
28,192,134602,1,0,0:0:0:0:
142,192,134997,1,0,0:0:0:0:
369,192,134997,1,0,0:0:0:0:
256,192,135391,1,0,0:0:0:0:
483,192,135391,1,0,0:0:0:0:
369,192,135786,1,0,0:0:0:0:
142,192,135786,1,0,0:0:0:0:
28,192,136181,1,0,0:0:0:0:
256,192,136181,1,0,0:0:0:0:
85,192,136576,1,0,0:0:0:0:
312,192,136576,1,0,0:0:0:0:
142,192,136970,1,0,0:0:0:0:
369,192,136970,1,0,0:0:0:0:
85,192,137365,1,0,0:0:0:0:
426,192,137365,1,0,0:0:0:0:
28,192,137760,1,0,0:0:0:0:
483,192,137760,1,0,0:0:0:0:
312,192,138155,1,0,0:0:0:0:
199,192,138155,1,0,0:0:0:0:
199,192,138549,1,0,0:0:0:0:
312,192,138549,1,0,0:0:0:0:
199,192,138944,1,0,0:0:0:0:
312,192,138944,1,0,0:0:0:0:
199,192,139339,1,0,0:0:0:0:
312,192,139339,1,0,0:0:0:0:
85,192,139734,1,0,0:0:0:0:
426,192,139734,1,0,0:0:0:0:
85,192,140128,1,0,0:0:0:0:
426,192,140128,1,0,0:0:0:0:
426,192,140523,1,0,0:0:0:0:
85,192,140523,1,0,0:0:0:0:
85,192,140918,1,0,0:0:0:0:
426,192,140918,1,0,0:0:0:0:
199,192,141312,1,0,0:0:0:0:
312,192,141312,1,0,0:0:0:0:
199,192,141707,1,0,0:0:0:0:
312,192,141707,1,0,0:0:0:0:
199,192,142102,1,0,0:0:0:0:
312,192,142102,1,0,0:0:0:0:
199,192,142497,1,0,0:0:0:0:
312,192,142497,1,0,0:0:0:0:
85,192,142891,1,0,0:0:0:0:
426,192,142891,1,0,0:0:0:0:
426,192,143286,1,0,0:0:0:0:
85,192,143286,1,0,0:0:0:0:
85,192,143681,1,0,0:0:0:0:
426,192,143681,1,0,0:0:0:0:
85,192,144076,1,0,0:0:0:0:
426,192,144076,1,0,0:0:0:0:
199,192,144470,1,0,0:0:0:0:
256,192,144470,1,0,0:0:0:0:
312,192,144470,1,0,0:0:0:0:
483,192,144470,1,0,0:0:0:0:
28,192,144470,1,0,0:0:0:0:
199,192,146049,1,0,0:0:0:0:
256,192,146049,1,0,0:0:0:0:
312,192,146049,1,0,0:0:0:0:
28,192,146543,128,0,150293:0:0:0:0:
85,192,146543,128,0,150293:0:0:0:0:
256,192,146543,128,0,150293:0:0:0:0:
426,192,146543,128,0,150293:0:0:0:0:
483,192,146543,128,0,150293:0:0:0:0:
