osu file format v13

[General]
AudioFilename: Extreme Fantasy Survival.mp3
AudioLeadIn: 0
PreviewTime: 50720
Countdown: 0
SampleSet: None
StackLeniency: 0.7
Mode: 3
LetterboxInBreaks: 0
SpecialStyle: 0
WidescreenStoryboard: 1

[Editor]
DistanceSpacing: 1.2
BeatDivisor: 4
GridSize: 4
TimelineZoom: 1

[Metadata]
Title:Extreme Fantasy Survival
TitleUnicode:Extreme Fantasy Survival
Artist:Memme
ArtistUnicode:Memme
Creator:jamesalegre15
Version:5K NM
Source:BMS
Tags:arcwin eternalie 1K 2K 3K 9K 10K memme dubstep
BeatmapID:521148
BeatmapSetID:220543

[Difficulty]
HPDrainRate:4
CircleSize:5
OverallDifficulty:8
ApproachRate:5
SliderMultiplier:1.4
SliderTickRate:1

[Events]
//Background and Video events
0,0,"0137.jpg",0,0
//Break Periods
//Storyboard Layer 0 (Background)
//Storyboard Layer 1 (Fail)
//Storyboard Layer 2 (Pass)
//Storyboard Layer 3 (Foreground)
//Storyboard Sound Samples
//Background Colour Transformations
3,100,163,162,255

[TimingPoints]
4734,394.736842105263,4,1,0,50,1,0
146543,-400,4,1,0,50,0,0

[HitObjects]
448,192,3253,128,0,4734:0:0:0:0:
64,192,4733,5,0,0:0:0:0:
320,192,4734,128,0,6016:0:0:0:0:
192,192,4734,1,0,0:0:0:0:
256,192,5227,128,0,5622:0:0:0:0:
153,192,5622,128,0,6016:0:0:0:0:
460,192,6016,1,0,0:0:0:0:
256,192,6016,128,0,6510:0:0:0:0:
51,192,6016,1,0,0:0:0:0:
153,192,6510,1,0,0:0:0:0:
320,192,6510,1,0,0:0:0:0:
64,192,6905,1,0,0:0:0:0:
153,192,6905,1,0,0:0:0:0:
358,192,7299,1,0,0:0:0:0:
448,192,7299,1,0,0:0:0:0:
64,192,7694,1,0,0:0:0:0:
153,192,7694,1,0,0:0:0:0:
460,192,8089,1,0,0:0:0:0:
358,192,8089,1,0,0:0:0:0:
153,192,8484,1,0,0:0:0:0:
64,192,8484,1,0,0:0:0:0:
320,192,8878,1,0,0:0:0:0:
448,192,8878,1,0,0:0:0:0:
51,192,9273,1,0,0:0:0:0:
192,192,9273,1,0,0:0:0:0:
460,192,9668,1,0,0:0:0:0:
256,192,9668,1,0,0:0:0:0:
256,192,10062,1,0,0:0:0:0:
51,192,10062,1,0,0:0:0:0:
256,192,10457,1,0,0:0:0:0:
460,192,10457,1,0,0:0:0:0:
256,192,10852,1,0,0:0:0:0:
64,192,10852,1,0,0:0:0:0:
256,192,11247,1,0,0:0:0:0:
448,192,11247,1,0,0:0:0:0:
256,192,11641,1,0,0:0:0:0:
51,192,11641,1,0,0:0:0:0:
320,192,12036,1,0,0:0:0:0:
448,192,12036,1,0,0:0:0:0:
256,192,12036,1,0,0:0:0:0:
64,192,12431,1,0,0:0:0:0:
192,192,12431,1,0,0:0:0:0:
256,192,12431,1,0,0:0:0:0:
320,192,12826,1,0,0:0:0:0:
256,192,12826,1,0,0:0:0:0:
460,192,12826,1,0,0:0:0:0:
192,192,13220,1,0,0:0:0:0:
64,192,13220,1,0,0:0:0:0:
256,192,13220,1,0,0:0:0:0:
256,192,13615,1,0,0:0:0:0:
448,192,13615,1,0,0:0:0:0:
358,192,13615,1,0,0:0:0:0:
153,192,14010,1,0,0:0:0:0:
256,192,14010,1,0,0:0:0:0:
51,192,14010,1,0,0:0:0:0:
358,192,14405,1,0,0:0:0:0:
448,192,14405,1,0,0:0:0:0:
256,192,14799,1,0,0:0:0:0:
358,192,14799,1,0,0:0:0:0:
153,192,15194,1,0,0:0:0:0:
256,192,15194,1,0,0:0:0:0:
64,192,15589,1,0,0:0:0:0:
153,192,15589,1,0,0:0:0:0:
192,192,15983,1,0,0:0:0:0:
256,192,15983,1,0,0:0:0:0:
256,192,16378,1,0,0:0:0:0:
358,192,16378,1,0,0:0:0:0:
320,192,16773,1,0,0:0:0:0:
192,192,16773,1,0,0:0:0:0:
256,192,16773,1,0,0:0:0:0:
192,192,17168,1,0,0:0:0:0:
320,192,17168,1,0,0:0:0:0:
64,192,17365,1,0,0:0:0:0:
448,192,17365,1,0,0:0:0:0:
448,192,17957,128,0,19043:0:0:0:0:
192,192,18155,1,0,0:0:0:0:
320,192,18155,1,0,0:0:0:0:
64,192,18352,1,0,0:0:0:0:
192,192,18549,1,0,0:0:0:0:
320,192,18549,128,0,19043:0:0:0:0:
64,192,19141,1,0,0:0:0:0:
64,192,19339,1,0,0:0:0:0:
448,192,19931,1,0,0:0:0:0:
448,192,20128,1,0,0:0:0:0:
320,192,20720,1,0,0:0:0:0:
320,192,20918,1,0,0:0:0:0:
64,192,21214,1,0,0:0:0:0:
192,192,21312,1,0,0:0:0:0:
448,192,21411,1,0,0:0:0:0:
192,192,21707,1,0,0:0:0:0:
192,192,21905,1,0,0:0:0:0:
320,192,22102,1,0,0:0:0:0:
192,192,22497,1,0,0:0:0:0:
320,192,23089,1,0,0:0:0:0:
320,192,23286,1,0,0:0:0:0:
320,192,23878,1,0,0:0:0:0:
320,192,24076,1,0,0:0:0:0:
320,192,24372,1,0,0:0:0:0:
448,192,24470,1,0,0:0:0:0:
64,192,24668,1,0,0:0:0:0:
64,192,24865,1,0,0:0:0:0:
320,192,25062,1,0,0:0:0:0:
320,192,25260,1,0,0:0:0:0:
448,192,25358,128,0,28418:0:0:0:0:
192,192,25457,1,0,0:0:0:0:
64,192,25852,1,0,0:0:0:0:
192,192,26247,1,0,0:0:0:0:
192,192,26444,1,0,0:0:0:0:
320,192,27036,1,0,0:0:0:0:
320,192,27234,1,0,0:0:0:0:
192,192,27530,1,0,0:0:0:0:
64,192,27628,1,0,0:0:0:0:
320,192,27826,1,0,0:0:0:0:
320,192,28023,1,0,0:0:0:0:
192,192,28220,1,0,0:0:0:0:
192,192,28418,1,0,0:0:0:0:
320,192,28418,128,0,31576:0:0:0:0:
64,192,28812,1,0,0:0:0:0:
448,192,29207,1,0,0:0:0:0:
64,192,29602,1,0,0:0:0:0:
192,192,29997,1,0,0:0:0:0:
64,192,30391,1,0,0:0:0:0:
448,192,30786,1,0,0:0:0:0:
192,192,31181,1,0,0:0:0:0:
64,192,31181,128,0,31576:0:0:0:0:
192,192,31576,1,0,0:0:0:0:
448,192,31576,1,0,0:0:0:0:
320,192,31970,1,0,0:0:0:0:
192,192,32365,1,0,0:0:0:0:
64,192,32760,1,0,0:0:0:0:
64,192,33155,128,0,33549:0:0:0:0:
448,192,33549,128,0,33944:0:0:0:0:
192,192,33944,128,0,34339:0:0:0:0:
320,192,34339,128,0,34733:0:0:0:0:
192,192,35128,1,0,0:0:0:0:
192,192,35523,1,0,0:0:0:0:
320,192,35918,1,0,0:0:0:0:
320,192,36312,1,0,0:0:0:0:
448,192,36312,128,0,37891:0:0:0:0:
192,192,36707,1,0,0:0:0:0:
64,192,37102,1,0,0:0:0:0:
64,192,37497,1,0,0:0:0:0:
64,192,37694,1,0,0:0:0:0:
192,192,37891,1,0,0:0:0:0:
320,192,37891,1,0,0:0:0:0:
192,192,38286,1,0,0:0:0:0:
64,192,38681,1,0,0:0:0:0:
192,192,39076,1,0,0:0:0:0:
448,192,39470,128,0,39865:0:0:0:0:
320,192,39865,128,0,40260:0:0:0:0:
192,192,40260,128,0,40655:0:0:0:0:
448,192,40260,128,0,40655:0:0:0:0:
320,192,40655,128,0,41049:0:0:0:0:
448,192,41049,128,0,41444:0:0:0:0:
192,192,41444,1,0,0:0:0:0:
448,192,41839,1,0,0:0:0:0:
320,192,42233,1,0,0:0:0:0:
448,192,42628,1,0,0:0:0:0:
192,192,43023,1,0,0:0:0:0:
64,192,43418,1,0,0:0:0:0:
320,192,43812,1,0,0:0:0:0:
64,192,44207,1,0,0:0:0:0:
320,192,44602,128,0,44997:0:0:0:0:
192,192,44602,1,0,0:0:0:0:
448,192,44997,128,0,50523:0:0:0:0:
64,192,44997,128,0,47365:0:0:0:0:
320,192,47365,128,0,50523:0:0:0:0:
192,192,50523,1,0,0:0:0:0:
64,192,50523,128,0,52102:0:0:0:0:
320,192,50918,1,0,0:0:0:0:
192,192,51312,1,0,0:0:0:0:
448,192,51707,1,0,0:0:0:0:
320,192,52102,1,0,0:0:0:0:
448,192,52102,128,0,53681:0:0:0:0:
192,192,52497,1,0,0:0:0:0:
320,192,52891,1,0,0:0:0:0:
64,192,53286,1,0,0:0:0:0:
192,192,53681,1,0,0:0:0:0:
320,192,53681,128,0,56839:0:0:0:0:
192,192,54076,1,0,0:0:0:0:
448,192,54470,1,0,0:0:0:0:
64,192,54865,1,0,0:0:0:0:
192,192,55260,1,0,0:0:0:0:
448,192,55655,1,0,0:0:0:0:
64,192,56049,1,0,0:0:0:0:
448,192,56444,1,0,0:0:0:0:
192,192,56839,1,0,0:0:0:0:
64,192,56839,128,0,58418:0:0:0:0:
448,192,57233,1,0,0:0:0:0:
192,192,57628,1,0,0:0:0:0:
448,192,58023,1,0,0:0:0:0:
320,192,58418,1,0,0:0:0:0:
448,192,58418,128,0,59997:0:0:0:0:
192,192,58812,1,0,0:0:0:0:
320,192,59207,1,0,0:0:0:0:
192,192,59602,1,0,0:0:0:0:
64,192,59997,1,0,0:0:0:0:
320,192,59997,128,0,61576:0:0:0:0:
192,192,60391,1,0,0:0:0:0:
448,192,60786,1,0,0:0:0:0:
192,192,61181,1,0,0:0:0:0:
64,192,61576,1,0,0:0:0:0:
448,192,61576,128,0,62365:0:0:0:0:
192,192,61970,1,0,0:0:0:0:
64,192,62365,1,0,0:0:0:0:
320,192,62365,128,0,63155:0:0:0:0:
192,192,62760,1,0,0:0:0:0:
448,192,63155,1,0,0:0:0:0:
64,192,63155,128,0,65128:0:0:0:0:
192,192,63549,1,0,0:0:0:0:
320,192,63944,1,0,0:0:0:0:
448,192,64339,1,0,0:0:0:0:
320,192,64734,1,0,0:0:0:0:
192,192,65128,1,0,0:0:0:0:
320,192,65128,128,0,66707:0:0:0:0:
448,192,65523,1,0,0:0:0:0:
192,192,65918,1,0,0:0:0:0:
64,192,66707,128,0,69470:0:0:0:0:
448,192,66707,128,0,69470:0:0:0:0:
192,192,69470,1,0,0:0:0:0:
320,192,69470,1,0,0:0:0:0:
192,192,69865,1,0,0:0:0:0:
320,192,69865,1,0,0:0:0:0:
320,192,70260,1,0,0:0:0:0:
192,192,70260,1,0,0:0:0:0:
64,192,70260,1,0,0:0:0:0:
448,192,70260,1,0,0:0:0:0:
192,192,70655,1,0,0:0:0:0:
320,192,70655,1,0,0:0:0:0:
192,192,71049,1,0,0:0:0:0:
320,192,71049,1,0,0:0:0:0:
64,192,71049,1,0,0:0:0:0:
448,192,71049,1,0,0:0:0:0:
64,192,71444,1,0,0:0:0:0:
320,192,71444,128,0,71839:0:0:0:0:
192,192,71839,1,0,0:0:0:0:
64,192,71839,128,0,72233:0:0:0:0:
192,192,72233,128,0,72628:0:0:0:0:
320,192,72234,1,0,0:0:0:0:
448,192,72628,1,0,0:0:0:0:
64,192,72628,128,0,73023:0:0:0:0:
320,192,73023,1,0,0:0:0:0:
448,192,73023,128,0,73418:0:0:0:0:
192,192,73418,1,0,0:0:0:0:
320,192,73418,128,0,73812:0:0:0:0:
64,192,73812,1,0,0:0:0:0:
448,192,73812,128,0,74207:0:0:0:0:
192,192,74207,1,0,0:0:0:0:
64,192,74207,128,0,74602:0:0:0:0:
320,192,74602,1,0,0:0:0:0:
192,192,74602,128,0,74997:0:0:0:0:
448,192,74997,1,0,0:0:0:0:
320,192,74997,128,0,75391:0:0:0:0:
448,192,75194,1,0,0:0:0:0:
448,192,75391,1,0,0:0:0:0:
192,192,75391,128,0,75786:0:0:0:0:
64,192,75786,1,0,0:0:0:0:
64,192,76576,1,0,0:0:0:0:
448,192,76576,1,0,0:0:0:0:
320,192,76576,128,0,77365:0:0:0:0:
64,192,77365,1,0,0:0:0:0:
448,192,77365,1,0,0:0:0:0:
192,192,77365,128,0,78155:0:0:0:0:
64,192,78155,1,0,0:0:0:0:
320,192,78155,128,0,79733:0:0:0:0:
64,192,78944,1,0,0:0:0:0:
448,192,78944,1,0,0:0:0:0:
64,192,79733,128,0,80523:0:0:0:0:
192,192,79734,1,0,0:0:0:0:
320,192,80523,1,0,0:0:0:0:
192,192,80523,128,0,81312:0:0:0:0:
448,192,81312,1,0,0:0:0:0:
64,192,81312,128,0,82102:0:0:0:0:
448,192,82102,1,0,0:0:0:0:
320,192,82497,1,0,0:0:0:0:
64,192,82497,128,0,82694:0:0:0:0:
192,192,82694,128,0,82891:0:0:0:0:
64,192,82891,1,0,0:0:0:0:
320,192,82891,128,0,83681:0:0:0:0:
192,192,83681,1,0,0:0:0:0:
64,192,83681,128,0,84470:0:0:0:0:
448,192,84470,128,0,86049:0:0:0:0:
320,192,84470,1,0,0:0:0:0:
192,192,85260,1,0,0:0:0:0:
320,192,86049,1,0,0:0:0:0:
64,192,86049,128,0,86839:0:0:0:0:
192,192,86839,1,0,0:0:0:0:
320,192,86839,128,0,87628:0:0:0:0:
192,192,87628,1,0,0:0:0:0:
448,192,87628,128,0,89207:0:0:0:0:
192,192,89207,1,0,0:0:0:0:
320,192,89207,1,0,0:0:0:0:
64,192,89207,128,0,90786:0:0:0:0:
192,192,89997,1,0,0:0:0:0:
320,192,89997,1,0,0:0:0:0:
192,192,90786,1,0,0:0:0:0:
320,192,90786,128,0,92365:0:0:0:0:
192,192,91576,1,0,0:0:0:0:
448,192,92365,1,0,0:0:0:0:
192,192,92365,128,0,93155:0:0:0:0:
320,192,93155,1,0,0:0:0:0:
448,192,93155,128,0,93944:0:0:0:0:
192,192,93944,1,0,0:0:0:0:
320,192,93944,128,0,94733:0:0:0:0:
448,192,94733,128,0,95523:0:0:0:0:
64,192,94734,1,0,0:0:0:0:
192,192,95128,1,0,0:0:0:0:
320,192,95523,1,0,0:0:0:0:
192,192,95523,128,0,96312:0:0:0:0:
320,192,96312,1,0,0:0:0:0:
64,192,96312,128,0,97102:0:0:0:0:
192,192,97102,1,0,0:0:0:0:
320,192,97102,128,0,98681:0:0:0:0:
192,192,97891,1,0,0:0:0:0:
448,192,97891,1,0,0:0:0:0:
64,192,98681,1,0,0:0:0:0:
192,192,98681,128,0,99470:0:0:0:0:
64,192,99470,1,0,0:0:0:0:
448,192,99470,128,0,100260:0:0:0:0:
192,192,100260,1,0,0:0:0:0:
320,192,100260,128,0,101839:0:0:0:0:
448,192,101839,1,0,0:0:0:0:
320,192,102234,1,0,0:0:0:0:
192,192,102628,1,0,0:0:0:0:
64,192,103023,1,0,0:0:0:0:
192,192,103418,1,0,0:0:0:0:
320,192,103812,1,0,0:0:0:0:
448,192,104207,1,0,0:0:0:0:
320,192,104602,1,0,0:0:0:0:
192,192,104997,1,0,0:0:0:0:
64,192,105391,1,0,0:0:0:0:
192,192,105786,1,0,0:0:0:0:
320,192,106181,1,0,0:0:0:0:
320,192,106576,128,0,106970:0:0:0:0:
192,192,106970,128,0,107365:0:0:0:0:
320,192,107365,128,0,107760:0:0:0:0:
448,192,107760,128,0,108155:0:0:0:0:
64,192,108155,128,0,108549:0:0:0:0:
192,192,108549,128,0,108944:0:0:0:0:
64,192,108944,128,0,109339:0:0:0:0:
448,192,109339,128,0,109733:0:0:0:0:
320,192,109733,128,0,110128:0:0:0:0:
64,192,110128,128,0,110523:0:0:0:0:
448,192,110523,128,0,110918:0:0:0:0:
320,192,110918,128,0,111312:0:0:0:0:
192,192,111312,128,0,111707:0:0:0:0:
320,192,111707,128,0,112102:0:0:0:0:
64,192,112102,1,0,0:0:0:0:
448,192,112102,128,0,112497:0:0:0:0:
192,192,112497,1,0,0:0:0:0:
320,192,112497,128,0,112891:0:0:0:0:
64,192,112891,1,0,0:0:0:0:
192,192,112891,128,0,113286:0:0:0:0:
320,192,113286,1,0,0:0:0:0:
64,192,113286,128,0,113681:0:0:0:0:
320,192,113681,1,0,0:0:0:0:
192,192,113681,128,0,114076:0:0:0:0:
320,192,114076,1,0,0:0:0:0:
448,192,114076,128,0,114470:0:0:0:0:
192,192,114470,1,0,0:0:0:0:
320,192,114470,128,0,114865:0:0:0:0:
64,192,114865,1,0,0:0:0:0:
192,192,114865,128,0,115260:0:0:0:0:
64,192,115260,128,0,120786:0:0:0:0:
448,192,115260,128,0,115655:0:0:0:0:
192,192,115655,128,0,116049:0:0:0:0:
320,192,116049,128,0,116444:0:0:0:0:
448,192,116444,128,0,116839:0:0:0:0:
320,192,116839,128,0,117233:0:0:0:0:
192,192,117233,128,0,117628:0:0:0:0:
320,192,117628,1,0,0:0:0:0:
448,192,117628,128,0,120786:0:0:0:0:
320,192,118023,1,0,0:0:0:0:
192,192,118418,1,0,0:0:0:0:
320,192,118812,1,0,0:0:0:0:
192,192,119207,1,0,0:0:0:0:
320,192,119602,1,0,0:0:0:0:
192,192,119997,1,0,0:0:0:0:
320,192,120391,1,0,0:0:0:0:
192,192,120786,1,0,0:0:0:0:
320,192,120786,1,0,0:0:0:0:
448,192,121181,1,0,0:0:0:0:
64,192,121181,1,0,0:0:0:0:
64,192,121576,1,0,0:0:0:0:
320,192,121576,1,0,0:0:0:0:
448,192,121576,1,0,0:0:0:0:
192,192,121970,1,0,0:0:0:0:
64,192,121970,1,0,0:0:0:0:
448,192,121970,1,0,0:0:0:0:
64,192,122365,1,0,0:0:0:0:
448,192,122365,1,0,0:0:0:0:
320,192,122760,1,0,0:0:0:0:
192,192,122760,1,0,0:0:0:0:
64,192,123155,1,0,0:0:0:0:
448,192,123155,1,0,0:0:0:0:
448,192,123549,1,0,0:0:0:0:
64,192,123549,1,0,0:0:0:0:
192,192,123944,1,0,0:0:0:0:
320,192,123944,1,0,0:0:0:0:
448,192,124339,1,0,0:0:0:0:
64,192,124339,1,0,0:0:0:0:
64,192,124733,1,0,0:0:0:0:
320,192,124734,1,0,0:0:0:0:
64,192,125128,1,0,0:0:0:0:
192,192,125128,1,0,0:0:0:0:
64,192,125523,1,0,0:0:0:0:
320,192,125523,1,0,0:0:0:0:
448,192,125918,1,0,0:0:0:0:
64,192,125918,1,0,0:0:0:0:
64,192,126312,1,0,0:0:0:0:
192,192,126312,1,0,0:0:0:0:
320,192,126312,1,0,0:0:0:0:
448,192,126707,1,0,0:0:0:0:
64,192,126707,1,0,0:0:0:0:
64,192,127102,1,0,0:0:0:0:
448,192,127102,1,0,0:0:0:0:
320,192,127497,1,0,0:0:0:0:
192,192,127497,1,0,0:0:0:0:
64,192,127497,1,0,0:0:0:0:
448,192,127497,1,0,0:0:0:0:
64,192,127891,1,0,0:0:0:0:
448,192,127891,1,0,0:0:0:0:
192,192,128286,1,0,0:0:0:0:
320,192,128286,1,0,0:0:0:0:
64,192,128681,1,0,0:0:0:0:
192,192,128681,1,0,0:0:0:0:
448,192,129076,1,0,0:0:0:0:
320,192,129076,1,0,0:0:0:0:
192,192,129470,1,0,0:0:0:0:
64,192,129470,1,0,0:0:0:0:
320,192,129865,1,0,0:0:0:0:
448,192,129865,1,0,0:0:0:0:
192,192,130260,1,0,0:0:0:0:
64,192,130260,1,0,0:0:0:0:
448,192,130655,1,0,0:0:0:0:
320,192,130655,1,0,0:0:0:0:
192,192,131049,1,0,0:0:0:0:
64,192,131049,1,0,0:0:0:0:
448,192,131444,1,0,0:0:0:0:
320,192,131444,1,0,0:0:0:0:
192,192,131839,1,0,0:0:0:0:
64,192,131839,1,0,0:0:0:0:
320,192,132233,1,0,0:0:0:0:
448,192,132234,1,0,0:0:0:0:
64,192,133023,128,0,133812:0:0:0:0:
192,192,133418,1,0,0:0:0:0:
448,192,133418,1,0,0:0:0:0:
192,192,133812,1,0,0:0:0:0:
448,192,133812,1,0,0:0:0:0:
320,192,134207,1,0,0:0:0:0:
448,192,134207,1,0,0:0:0:0:
320,192,134602,1,0,0:0:0:0:
448,192,134602,1,0,0:0:0:0:
448,192,134997,1,0,0:0:0:0:
320,192,134997,1,0,0:0:0:0:
192,192,135391,1,0,0:0:0:0:
64,192,135391,1,0,0:0:0:0:
192,192,135786,1,0,0:0:0:0:
64,192,135786,1,0,0:0:0:0:
64,192,136181,1,0,0:0:0:0:
192,192,136181,1,0,0:0:0:0:
320,192,136576,1,0,0:0:0:0:
192,192,136576,1,0,0:0:0:0:
192,192,136970,1,0,0:0:0:0:
320,192,136970,1,0,0:0:0:0:
192,192,137365,1,0,0:0:0:0:
320,192,137365,1,0,0:0:0:0:
64,192,137760,1,0,0:0:0:0:
448,192,137760,1,0,0:0:0:0:
320,192,138155,1,0,0:0:0:0:
192,192,138155,1,0,0:0:0:0:
64,192,138549,1,0,0:0:0:0:
448,192,138549,1,0,0:0:0:0:
320,192,138944,1,0,0:0:0:0:
192,192,138944,1,0,0:0:0:0:
192,192,139339,1,0,0:0:0:0:
64,192,139339,1,0,0:0:0:0:
192,192,139733,1,0,0:0:0:0:
64,192,139734,1,0,0:0:0:0:
448,192,139734,1,0,0:0:0:0:
64,192,140128,1,0,0:0:0:0:
448,192,140128,1,0,0:0:0:0:
320,192,140128,1,0,0:0:0:0:
64,192,140523,1,0,0:0:0:0:
448,192,140523,1,0,0:0:0:0:
192,192,140523,1,0,0:0:0:0:
64,192,140918,1,0,0:0:0:0:
448,192,140918,1,0,0:0:0:0:
320,192,140918,1,0,0:0:0:0:
448,192,141312,1,0,0:0:0:0:
64,192,141312,1,0,0:0:0:0:
192,192,141312,1,0,0:0:0:0:
64,192,141707,1,0,0:0:0:0:
448,192,141707,1,0,0:0:0:0:
320,192,141707,1,0,0:0:0:0:
64,192,142102,1,0,0:0:0:0:
448,192,142102,1,0,0:0:0:0:
192,192,142102,1,0,0:0:0:0:
192,192,142497,1,0,0:0:0:0:
320,192,142497,1,0,0:0:0:0:
64,192,142891,1,0,0:0:0:0:
448,192,142891,1,0,0:0:0:0:
64,192,143286,1,0,0:0:0:0:
448,192,143286,1,0,0:0:0:0:
64,192,143681,1,0,0:0:0:0:
448,192,143681,1,0,0:0:0:0:
64,192,144076,1,0,0:0:0:0:
448,192,144076,1,0,0:0:0:0:
192,192,144470,1,0,0:0:0:0:
320,192,144470,1,0,0:0:0:0:
192,192,145260,1,0,0:0:0:0:
320,192,145260,1,0,0:0:0:0:
64,192,145457,1,0,0:0:0:0:
448,192,145457,1,0,0:0:0:0:
192,192,145655,1,0,0:0:0:0:
320,192,145655,1,0,0:0:0:0:
448,192,146049,1,0,0:0:0:0:
320,192,146049,1,0,0:0:0:0:
64,192,146049,1,0,0:0:0:0:
192,192,146049,1,0,0:0:0:0:
64,192,146543,128,0,150490:0:0:0:0:
192,192,146543,128,0,150490:0:0:0:0:
320,192,146543,128,0,150490:0:0:0:0:
448,192,146543,128,0,150490:0:0:0:0:
