osu file format v13

[General]
AudioFilename: Extreme Fantasy Survival.mp3
AudioLeadIn: 0
PreviewTime: 50720
Countdown: 0
SampleSet: None
StackLeniency: 0.7
Mode: 3
LetterboxInBreaks: 0
SpecialStyle: 1
WidescreenStoryboard: 1

[Editor]
DistanceSpacing: 1.2
BeatDivisor: 4
GridSize: 4
TimelineZoom: 1

[Metadata]
Title:Extreme Fantasy Survival
TitleUnicode:Extreme Fantasy Survival
Artist:Memme
ArtistUnicode:Memme
Creator:jamesalegre15
Version:4K EZ
Source:BMS
Tags:arcwin eternalie 1K 2K 3K 9K 10K memme dubstep
BeatmapID:516112
BeatmapSetID:220543

[Difficulty]
HPDrainRate:4
CircleSize:4
OverallDifficulty:8
ApproachRate:5
SliderMultiplier:1.4
SliderTickRate:1

[Events]
//Background and Video events
0,0,"30431378.jpg",0,0
//Break Periods
//Storyboard Layer 0 (Background)
//Storyboard Layer 1 (Fail)
//Storyboard Layer 2 (Pass)
//Storyboard Layer 3 (Foreground)
//Storyboard Sound Samples
//Background Colour Transformations
3,100,163,162,255

[TimingPoints]
4734,394.736842105263,4,1,0,50,1,0
146543,-400,4,1,0,50,0,0

[HitObjects]
64,192,4733,5,0,0:0:0:0:
320,192,4733,128,0,5918:0:0:0:0:
192,192,5918,1,0,0:0:0:0:
192,192,6510,1,0,0:0:0:0:
64,192,6905,1,0,0:0:0:0:
192,192,7299,1,0,0:0:0:0:
64,192,7694,1,0,0:0:0:0:
192,192,8089,1,0,0:0:0:0:
320,192,8484,1,0,0:0:0:0:
320,192,8878,1,0,0:0:0:0:
320,192,9273,1,0,0:0:0:0:
192,192,9668,1,0,0:0:0:0:
320,192,10062,1,0,0:0:0:0:
192,192,10457,1,0,0:0:0:0:
192,192,10852,1,0,0:0:0:0:
64,192,11247,1,0,0:0:0:0:
192,192,11641,1,0,0:0:0:0:
64,192,12036,1,0,0:0:0:0:
64,192,12431,1,0,0:0:0:0:
320,192,12826,1,0,0:0:0:0:
192,192,13220,1,0,0:0:0:0:
320,192,13615,1,0,0:0:0:0:
320,192,14010,1,0,0:0:0:0:
64,192,14405,1,0,0:0:0:0:
320,192,14799,1,0,0:0:0:0:
192,192,15194,1,0,0:0:0:0:
64,192,15589,1,0,0:0:0:0:
320,192,15984,1,0,0:0:0:0:
192,192,16378,1,0,0:0:0:0:
320,192,16773,1,0,0:0:0:0:
192,192,17168,1,0,0:0:0:0:
64,192,17365,1,0,0:0:0:0:
448,192,17365,1,0,0:0:0:0:
192,192,18155,1,0,0:0:0:0:
320,192,18155,1,0,0:0:0:0:
64,192,18352,1,0,0:0:0:0:
448,192,18352,1,0,0:0:0:0:
192,192,18549,1,0,0:0:0:0:
320,192,18549,1,0,0:0:0:0:
64,192,19141,1,0,0:0:0:0:
192,192,19339,1,0,0:0:0:0:
320,192,19931,1,0,0:0:0:0:
448,192,20128,1,0,0:0:0:0:
192,192,20720,1,0,0:0:0:0:
320,192,20918,1,0,0:0:0:0:
64,192,21214,1,0,0:0:0:0:
192,192,21312,1,0,0:0:0:0:
448,192,21411,1,0,0:0:0:0:
64,192,21707,1,0,0:0:0:0:
192,192,21905,1,0,0:0:0:0:
320,192,22102,1,0,0:0:0:0:
192,192,22497,1,0,0:0:0:0:
320,192,23089,1,0,0:0:0:0:
64,192,23286,1,0,0:0:0:0:
320,192,23878,1,0,0:0:0:0:
192,192,24076,1,0,0:0:0:0:
192,192,24372,1,0,0:0:0:0:
448,192,24470,1,0,0:0:0:0:
192,192,24668,1,0,0:0:0:0:
64,192,24865,1,0,0:0:0:0:
192,192,25062,1,0,0:0:0:0:
320,192,25260,1,0,0:0:0:0:
192,192,25457,1,0,0:0:0:0:
64,192,25852,1,0,0:0:0:0:
192,192,26247,1,0,0:0:0:0:
320,192,26641,1,0,0:0:0:0:
192,192,27036,1,0,0:0:0:0:
320,192,27234,1,0,0:0:0:0:
192,192,27530,1,0,0:0:0:0:
64,192,27628,1,0,0:0:0:0:
192,192,27826,1,0,0:0:0:0:
320,192,28023,1,0,0:0:0:0:
320,192,28220,1,0,0:0:0:0:
192,192,28418,1,0,0:0:0:0:
64,192,28812,1,0,0:0:0:0:
192,192,29207,1,0,0:0:0:0:
320,192,29602,1,0,0:0:0:0:
448,192,29997,1,0,0:0:0:0:
320,192,30391,1,0,0:0:0:0:
192,192,30786,1,0,0:0:0:0:
64,192,31181,1,0,0:0:0:0:
192,192,31576,1,0,0:0:0:0:
320,192,31576,1,0,0:0:0:0:
192,192,31970,1,0,0:0:0:0:
192,192,32365,1,0,0:0:0:0:
192,192,32760,1,0,0:0:0:0:
320,192,33155,1,0,0:0:0:0:
320,192,33549,1,0,0:0:0:0:
320,192,33944,1,0,0:0:0:0:
320,192,34339,1,0,0:0:0:0:
192,192,34734,1,0,0:0:0:0:
192,192,35128,1,0,0:0:0:0:
192,192,35523,1,0,0:0:0:0:
320,192,35918,1,0,0:0:0:0:
64,192,36312,1,0,0:0:0:0:
192,192,36707,1,0,0:0:0:0:
320,192,37102,1,0,0:0:0:0:
448,192,37497,1,0,0:0:0:0:
64,192,37694,1,0,0:0:0:0:
448,192,37891,1,0,0:0:0:0:
320,192,37891,1,0,0:0:0:0:
192,192,38286,1,0,0:0:0:0:
64,192,38681,1,0,0:0:0:0:
192,192,39076,1,0,0:0:0:0:
320,192,39470,1,0,0:0:0:0:
448,192,39865,1,0,0:0:0:0:
320,192,40260,1,0,0:0:0:0:
192,192,40655,1,0,0:0:0:0:
64,192,41049,1,0,0:0:0:0:
192,192,41444,1,0,0:0:0:0:
320,192,41839,1,0,0:0:0:0:
192,192,42234,1,0,0:0:0:0:
192,192,42628,1,0,0:0:0:0:
192,192,43023,1,0,0:0:0:0:
64,192,43418,1,0,0:0:0:0:
320,192,43812,1,0,0:0:0:0:
64,192,44207,1,0,0:0:0:0:
320,192,44602,128,0,44997:0:0:0:0:
192,192,44602,1,0,0:0:0:0:
448,192,44997,128,0,50128:0:0:0:0:
192,192,50523,1,0,0:0:0:0:
64,192,50918,1,0,0:0:0:0:
192,192,51312,1,0,0:0:0:0:
448,192,51707,1,0,0:0:0:0:
64,192,52102,1,0,0:0:0:0:
192,192,52497,1,0,0:0:0:0:
320,192,52891,1,0,0:0:0:0:
448,192,53286,1,0,0:0:0:0:
320,192,53681,1,0,0:0:0:0:
192,192,54076,1,0,0:0:0:0:
64,192,54470,1,0,0:0:0:0:
192,192,54865,1,0,0:0:0:0:
320,192,55260,1,0,0:0:0:0:
192,192,55655,1,0,0:0:0:0:
64,192,56049,1,0,0:0:0:0:
192,192,56444,1,0,0:0:0:0:
320,192,56839,1,0,0:0:0:0:
192,192,57234,1,0,0:0:0:0:
64,192,57628,1,0,0:0:0:0:
192,192,58023,1,0,0:0:0:0:
320,192,58418,1,0,0:0:0:0:
192,192,58812,1,0,0:0:0:0:
320,192,59207,1,0,0:0:0:0:
192,192,59602,1,0,0:0:0:0:
64,192,59997,1,0,0:0:0:0:
192,192,60391,1,0,0:0:0:0:
64,192,60786,1,0,0:0:0:0:
192,192,61181,1,0,0:0:0:0:
320,192,61576,1,0,0:0:0:0:
320,192,61970,1,0,0:0:0:0:
320,192,62365,1,0,0:0:0:0:
192,192,62760,1,0,0:0:0:0:
64,192,63155,1,0,0:0:0:0:
192,192,63549,1,0,0:0:0:0:
320,192,63944,1,0,0:0:0:0:
448,192,64339,1,0,0:0:0:0:
320,192,64734,1,0,0:0:0:0:
192,192,65128,1,0,0:0:0:0:
64,192,65523,1,0,0:0:0:0:
192,192,65918,1,0,0:0:0:0:
64,192,66707,128,0,69470:0:0:0:0:
448,192,66707,128,0,69470:0:0:0:0:
192,192,69470,1,0,0:0:0:0:
320,192,69470,1,0,0:0:0:0:
64,192,69865,1,0,0:0:0:0:
448,192,69865,1,0,0:0:0:0:
320,192,70260,1,0,0:0:0:0:
192,192,70260,1,0,0:0:0:0:
192,192,70655,1,0,0:0:0:0:
320,192,70655,1,0,0:0:0:0:
192,192,71049,1,0,0:0:0:0:
320,192,71049,1,0,0:0:0:0:
64,192,71444,1,0,0:0:0:0:
192,192,71839,1,0,0:0:0:0:
320,192,72234,1,0,0:0:0:0:
448,192,72628,1,0,0:0:0:0:
320,192,73023,1,0,0:0:0:0:
192,192,73418,1,0,0:0:0:0:
64,192,73812,1,0,0:0:0:0:
192,192,74207,1,0,0:0:0:0:
320,192,74602,1,0,0:0:0:0:
448,192,74997,1,0,0:0:0:0:
320,192,75194,1,0,0:0:0:0:
64,192,75391,1,0,0:0:0:0:
448,192,75391,1,0,0:0:0:0:
192,192,75786,1,0,0:0:0:0:
64,192,76576,1,0,0:0:0:0:
192,192,76576,1,0,0:0:0:0:
320,192,76576,1,0,0:0:0:0:
448,192,76576,1,0,0:0:0:0:
64,192,77365,1,0,0:0:0:0:
192,192,77365,1,0,0:0:0:0:
320,192,77365,1,0,0:0:0:0:
448,192,77365,1,0,0:0:0:0:
64,192,78155,1,0,0:0:0:0:
64,192,78944,1,0,0:0:0:0:
448,192,78944,1,0,0:0:0:0:
192,192,79734,1,0,0:0:0:0:
320,192,80523,1,0,0:0:0:0:
448,192,81312,1,0,0:0:0:0:
192,192,82102,1,0,0:0:0:0:
320,192,82497,1,0,0:0:0:0:
64,192,82891,1,0,0:0:0:0:
192,192,83681,1,0,0:0:0:0:
448,192,84470,128,0,86049:0:0:0:0:
320,192,84470,1,0,0:0:0:0:
192,192,85260,1,0,0:0:0:0:
320,192,86049,1,0,0:0:0:0:
192,192,86839,1,0,0:0:0:0:
320,192,87628,1,0,0:0:0:0:
448,192,87628,128,0,89207:0:0:0:0:
192,192,89207,1,0,0:0:0:0:
320,192,89207,1,0,0:0:0:0:
192,192,89997,1,0,0:0:0:0:
320,192,89997,1,0,0:0:0:0:
64,192,90786,1,0,0:0:0:0:
192,192,91576,1,0,0:0:0:0:
320,192,92365,1,0,0:0:0:0:
320,192,93155,1,0,0:0:0:0:
192,192,93944,1,0,0:0:0:0:
64,192,94734,1,0,0:0:0:0:
192,192,95128,1,0,0:0:0:0:
320,192,95523,1,0,0:0:0:0:
320,192,96312,1,0,0:0:0:0:
192,192,97102,1,0,0:0:0:0:
192,192,97891,1,0,0:0:0:0:
320,192,98681,1,0,0:0:0:0:
64,192,99470,1,0,0:0:0:0:
192,192,100260,1,0,0:0:0:0:
320,192,100260,128,0,101839:0:0:0:0:
448,192,101839,1,0,0:0:0:0:
320,192,102234,1,0,0:0:0:0:
192,192,102628,1,0,0:0:0:0:
64,192,103023,1,0,0:0:0:0:
192,192,103418,1,0,0:0:0:0:
320,192,103812,1,0,0:0:0:0:
448,192,104207,1,0,0:0:0:0:
320,192,104602,1,0,0:0:0:0:
192,192,104997,1,0,0:0:0:0:
64,192,105391,1,0,0:0:0:0:
192,192,105786,1,0,0:0:0:0:
320,192,106181,1,0,0:0:0:0:
448,192,106576,1,0,0:0:0:0:
320,192,106970,1,0,0:0:0:0:
192,192,107365,1,0,0:0:0:0:
64,192,107760,1,0,0:0:0:0:
192,192,108155,1,0,0:0:0:0:
320,192,108549,1,0,0:0:0:0:
448,192,108944,1,0,0:0:0:0:
320,192,109339,1,0,0:0:0:0:
192,192,109734,1,0,0:0:0:0:
64,192,110128,1,0,0:0:0:0:
192,192,110523,1,0,0:0:0:0:
320,192,110918,1,0,0:0:0:0:
448,192,111312,1,0,0:0:0:0:
320,192,111707,1,0,0:0:0:0:
192,192,112102,1,0,0:0:0:0:
64,192,112497,1,0,0:0:0:0:
192,192,112891,1,0,0:0:0:0:
320,192,113286,1,0,0:0:0:0:
448,192,113681,1,0,0:0:0:0:
320,192,114076,1,0,0:0:0:0:
192,192,114470,1,0,0:0:0:0:
64,192,114865,1,0,0:0:0:0:
192,192,115260,1,0,0:0:0:0:
320,192,115655,1,0,0:0:0:0:
448,192,116049,1,0,0:0:0:0:
320,192,116444,1,0,0:0:0:0:
64,192,116839,1,0,0:0:0:0:
192,192,117234,1,0,0:0:0:0:
320,192,117628,1,0,0:0:0:0:
448,192,118023,1,0,0:0:0:0:
448,192,118418,1,0,0:0:0:0:
320,192,118812,1,0,0:0:0:0:
192,192,119207,1,0,0:0:0:0:
64,192,119602,1,0,0:0:0:0:
192,192,119997,1,0,0:0:0:0:
320,192,120391,1,0,0:0:0:0:
64,192,120786,1,0,0:0:0:0:
448,192,120786,1,0,0:0:0:0:
320,192,121181,1,0,0:0:0:0:
192,192,121181,1,0,0:0:0:0:
64,192,121576,1,0,0:0:0:0:
448,192,121576,1,0,0:0:0:0:
320,192,121970,1,0,0:0:0:0:
192,192,121970,1,0,0:0:0:0:
192,192,122365,1,0,0:0:0:0:
320,192,122365,1,0,0:0:0:0:
448,192,122760,1,0,0:0:0:0:
64,192,122760,1,0,0:0:0:0:
192,192,123155,1,0,0:0:0:0:
320,192,123155,1,0,0:0:0:0:
448,192,123549,1,0,0:0:0:0:
64,192,123549,1,0,0:0:0:0:
192,192,123944,1,0,0:0:0:0:
320,192,123944,1,0,0:0:0:0:
448,192,124339,1,0,0:0:0:0:
64,192,124339,1,0,0:0:0:0:
192,192,124734,1,0,0:0:0:0:
320,192,124734,1,0,0:0:0:0:
64,192,125128,1,0,0:0:0:0:
448,192,125128,1,0,0:0:0:0:
192,192,125523,1,0,0:0:0:0:
320,192,125523,1,0,0:0:0:0:
448,192,125918,1,0,0:0:0:0:
64,192,125918,1,0,0:0:0:0:
64,192,126312,1,0,0:0:0:0:
192,192,126312,1,0,0:0:0:0:
448,192,126707,1,0,0:0:0:0:
64,192,126707,1,0,0:0:0:0:
192,192,127102,1,0,0:0:0:0:
448,192,127102,1,0,0:0:0:0:
64,192,127497,1,0,0:0:0:0:
320,192,127497,1,0,0:0:0:0:
192,192,127891,1,0,0:0:0:0:
448,192,127891,1,0,0:0:0:0:
64,192,128286,1,0,0:0:0:0:
320,192,128286,1,0,0:0:0:0:
192,192,128681,1,0,0:0:0:0:
448,192,128681,1,0,0:0:0:0:
64,192,129076,1,0,0:0:0:0:
320,192,129076,1,0,0:0:0:0:
192,192,129470,1,0,0:0:0:0:
448,192,129470,1,0,0:0:0:0:
320,192,129865,1,0,0:0:0:0:
64,192,129865,1,0,0:0:0:0:
192,192,130260,1,0,0:0:0:0:
448,192,130260,1,0,0:0:0:0:
64,192,130655,1,0,0:0:0:0:
320,192,130655,1,0,0:0:0:0:
192,192,131049,1,0,0:0:0:0:
448,192,131049,1,0,0:0:0:0:
64,192,131444,1,0,0:0:0:0:
320,192,131444,1,0,0:0:0:0:
192,192,131839,1,0,0:0:0:0:
320,192,131839,1,0,0:0:0:0:
448,192,132234,1,0,0:0:0:0:
64,192,132234,1,0,0:0:0:0:
192,192,133418,1,0,0:0:0:0:
448,192,133418,1,0,0:0:0:0:
64,192,133812,1,0,0:0:0:0:
320,192,133812,1,0,0:0:0:0:
192,192,134207,1,0,0:0:0:0:
448,192,134207,1,0,0:0:0:0:
320,192,134602,1,0,0:0:0:0:
64,192,134602,1,0,0:0:0:0:
448,192,134997,1,0,0:0:0:0:
192,192,134997,1,0,0:0:0:0:
320,192,135391,1,0,0:0:0:0:
64,192,135391,1,0,0:0:0:0:
192,192,135786,1,0,0:0:0:0:
448,192,135786,1,0,0:0:0:0:
64,192,136181,1,0,0:0:0:0:
320,192,136181,1,0,0:0:0:0:
320,192,136576,1,0,0:0:0:0:
64,192,136576,1,0,0:0:0:0:
192,192,136970,1,0,0:0:0:0:
448,192,136970,1,0,0:0:0:0:
64,192,137365,1,0,0:0:0:0:
448,192,137365,1,0,0:0:0:0:
64,192,137760,1,0,0:0:0:0:
448,192,137760,1,0,0:0:0:0:
320,192,138155,1,0,0:0:0:0:
192,192,138155,1,0,0:0:0:0:
192,192,138549,1,0,0:0:0:0:
320,192,138549,1,0,0:0:0:0:
320,192,138944,1,0,0:0:0:0:
192,192,138944,1,0,0:0:0:0:
192,192,139339,1,0,0:0:0:0:
320,192,139339,1,0,0:0:0:0:
64,192,139734,1,0,0:0:0:0:
448,192,139734,1,0,0:0:0:0:
64,192,140128,1,0,0:0:0:0:
448,192,140128,1,0,0:0:0:0:
64,192,140523,1,0,0:0:0:0:
448,192,140523,1,0,0:0:0:0:
64,192,140918,1,0,0:0:0:0:
448,192,140918,1,0,0:0:0:0:
320,192,141312,1,0,0:0:0:0:
192,192,141312,1,0,0:0:0:0:
192,192,141707,1,0,0:0:0:0:
320,192,141707,1,0,0:0:0:0:
192,192,142102,1,0,0:0:0:0:
320,192,142102,1,0,0:0:0:0:
192,192,142497,1,0,0:0:0:0:
320,192,142497,1,0,0:0:0:0:
64,192,142891,1,0,0:0:0:0:
448,192,142891,1,0,0:0:0:0:
64,192,143286,1,0,0:0:0:0:
448,192,143286,1,0,0:0:0:0:
64,192,143681,1,0,0:0:0:0:
448,192,143681,1,0,0:0:0:0:
64,192,144076,1,0,0:0:0:0:
448,192,144076,1,0,0:0:0:0:
192,192,144470,1,0,0:0:0:0:
320,192,144470,1,0,0:0:0:0:
192,192,145260,1,0,0:0:0:0:
320,192,145260,1,0,0:0:0:0:
64,192,145457,1,0,0:0:0:0:
448,192,145457,1,0,0:0:0:0:
192,192,145655,1,0,0:0:0:0:
320,192,145655,1,0,0:0:0:0:
448,192,146049,1,0,0:0:0:0:
320,192,146049,1,0,0:0:0:0:
64,192,146049,1,0,0:0:0:0:
192,192,146049,1,0,0:0:0:0:
64,192,146543,128,0,150490:0:0:0:0:
192,192,146543,128,0,150490:0:0:0:0:
320,192,146543,128,0,150490:0:0:0:0:
448,192,146543,128,0,150490:0:0:0:0:
