osu file format v13

[General]
AudioFilename: Extreme Fantasy Survival.mp3
AudioLeadIn: 0
PreviewTime: 50720
Countdown: 0
SampleSet: Normal
StackLeniency: 0.7
Mode: 3
LetterboxInBreaks: 0
SpecialStyle: 1
WidescreenStoryboard: 1

[Editor]
Bookmarks: 12828
DistanceSpacing: 1.2
BeatDivisor: 8
GridSize: 4
TimelineZoom: 1

[Metadata]
Title:Extreme Fantasy Survival
TitleUnicode:Extreme Fantasy Survival
Artist:Memme
ArtistUnicode:Memme
Creator:jamesalegre15
Version:2K Warm-up for ULTRA-HARDCORE
Source:BMS
Tags:arcwin eternalie 1K 2K 3K 9K 10K memme dubstep
BeatmapID:517652
BeatmapSetID:220543

[Difficulty]
HPDrainRate:10
CircleSize:2
OverallDifficulty:8
ApproachRate:5
SliderMultiplier:1.4
SliderTickRate:1

[Events]
//Background and Video events
0,0,"5110ac08e8607.jpg",0,0
//Break Periods
//Storyboard Layer 0 (Background)
//Storyboard Layer 1 (Fail)
//Storyboard Layer 2 (Pass)
//Storyboard Layer 3 (Foreground)
//Storyboard Sound Samples
//Background Colour Transformations
3,100,163,162,255

[TimingPoints]
4734,394.736842105263,4,1,0,50,1,0
146543,-400,4,1,0,50,0,0

[HitObjects]
128,192,4734,5,0,0:0:0:0:
384,192,4734,128,0,5129:0:0:0:0:
128,192,5129,128,0,5376:0:0:0:0:
384,192,5376,128,0,5573:0:0:0:0:
128,192,5573,128,0,5820:0:0:0:0:
128,192,5918,1,0,0:0:0:0:
384,192,5918,1,0,0:0:0:0:
384,192,6017,128,0,6214:0:0:0:0:
128,192,6017,128,0,7399:0:0:0:0:
384,192,6313,1,0,0:0:0:0:
384,192,6412,1,0,0:0:0:0:
384,192,6510,1,0,0:0:0:0:
384,192,6609,1,0,0:0:0:0:
384,192,6708,1,0,0:0:0:0:
384,192,6807,1,0,0:0:0:0:
384,192,6905,1,0,0:0:0:0:
384,192,7004,1,0,0:0:0:0:
384,192,7103,1,0,0:0:0:0:
384,192,7201,1,0,0:0:0:0:
384,192,7300,1,0,0:0:0:0:
384,192,7399,1,0,0:0:0:0:
128,192,7497,1,0,0:0:0:0:
384,192,7497,1,0,0:0:0:0:
384,192,7596,1,0,0:0:0:0:
128,192,7596,128,0,7793:0:0:0:0:
384,192,7695,1,0,0:0:0:0:
384,192,7793,1,0,0:0:0:0:
128,192,7892,1,0,0:0:0:0:
384,192,7892,1,0,0:0:0:0:
384,192,7991,1,0,0:0:0:0:
128,192,7991,128,0,9372:0:0:0:0:
384,192,8089,1,0,0:0:0:0:
384,192,8188,1,0,0:0:0:0:
384,192,8287,1,0,0:0:0:0:
384,192,8386,1,0,0:0:0:0:
384,192,8484,1,0,0:0:0:0:
384,192,8583,1,0,0:0:0:0:
384,192,8682,1,0,0:0:0:0:
384,192,8780,1,0,0:0:0:0:
384,192,8879,1,0,0:0:0:0:
384,192,8978,1,0,0:0:0:0:
384,192,9076,1,0,0:0:0:0:
384,192,9175,128,0,9372:0:0:0:0:
128,192,9471,1,0,0:0:0:0:
384,192,9471,1,0,0:0:0:0:
384,192,9570,128,0,9767:0:0:0:0:
128,192,9570,1,0,0:0:0:0:
128,192,9668,1,0,0:0:0:0:
128,192,9767,1,0,0:0:0:0:
384,192,9866,1,0,0:0:0:0:
128,192,9866,1,0,0:0:0:0:
384,192,9964,128,0,10162:0:0:0:0:
128,192,9964,1,0,0:0:0:0:
128,192,10063,1,0,0:0:0:0:
128,192,10162,1,0,0:0:0:0:
128,192,10261,1,0,0:0:0:0:
384,192,10261,1,0,0:0:0:0:
384,192,10359,128,0,10557:0:0:0:0:
128,192,10359,1,0,0:0:0:0:
128,192,10458,1,0,0:0:0:0:
128,192,10557,1,0,0:0:0:0:
128,192,10655,1,0,0:0:0:0:
384,192,10655,1,0,0:0:0:0:
384,192,10754,1,0,0:0:0:0:
128,192,10754,1,0,0:0:0:0:
384,192,10853,1,0,0:0:0:0:
128,192,10853,1,0,0:0:0:0:
384,192,10951,1,0,0:0:0:0:
128,192,10951,1,0,0:0:0:0:
128,192,11050,1,0,0:0:0:0:
384,192,11050,1,0,0:0:0:0:
384,192,11149,1,0,0:0:0:0:
128,192,11149,128,0,11346:0:0:0:0:
384,192,11247,1,0,0:0:0:0:
384,192,11346,1,0,0:0:0:0:
128,192,11445,1,0,0:0:0:0:
384,192,11445,1,0,0:0:0:0:
384,192,11543,1,0,0:0:0:0:
128,192,11543,128,0,11741:0:0:0:0:
384,192,11642,1,0,0:0:0:0:
384,192,11741,1,0,0:0:0:0:
384,192,11839,1,0,0:0:0:0:
128,192,11839,1,0,0:0:0:0:
384,192,11938,1,0,0:0:0:0:
128,192,11938,128,0,12136:0:0:0:0:
384,192,12037,1,0,0:0:0:0:
384,192,12136,1,0,0:0:0:0:
128,192,12234,1,0,0:0:0:0:
384,192,12234,1,0,0:0:0:0:
384,192,12333,128,0,12530:0:0:0:0:
128,192,12333,1,0,0:0:0:0:
128,192,12432,1,0,0:0:0:0:
128,192,12530,1,0,0:0:0:0:
384,192,12629,1,0,0:0:0:0:
128,192,12629,1,0,0:0:0:0:
384,192,12728,128,0,12925:0:0:0:0:
128,192,12728,1,0,0:0:0:0:
128,192,12826,1,0,0:0:0:0:
128,192,12925,1,0,0:0:0:0:
128,192,13024,1,0,0:0:0:0:
384,192,13024,1,0,0:0:0:0:
384,192,13122,128,0,13320:0:0:0:0:
128,192,13122,1,0,0:0:0:0:
128,192,13221,1,0,0:0:0:0:
128,192,13320,1,0,0:0:0:0:
384,192,13418,1,0,0:0:0:0:
128,192,13418,1,0,0:0:0:0:
384,192,13517,128,0,13714:0:0:0:0:
128,192,13517,1,0,0:0:0:0:
128,192,13616,1,0,0:0:0:0:
128,192,13714,1,0,0:0:0:0:
384,192,13813,1,0,0:0:0:0:
128,192,13813,1,0,0:0:0:0:
384,192,13912,1,0,0:0:0:0:
128,192,13912,128,0,14109:0:0:0:0:
384,192,14011,1,0,0:0:0:0:
384,192,14109,1,0,0:0:0:0:
128,192,14208,1,0,0:0:0:0:
384,192,14208,1,0,0:0:0:0:
384,192,14307,128,0,14504:0:0:0:0:
128,192,14307,1,0,0:0:0:0:
128,192,14405,1,0,0:0:0:0:
128,192,14504,1,0,0:0:0:0:
384,192,14603,1,0,0:0:0:0:
128,192,14603,1,0,0:0:0:0:
128,192,14701,128,0,14899:0:0:0:0:
384,192,14701,1,0,0:0:0:0:
384,192,14800,1,0,0:0:0:0:
384,192,14899,1,0,0:0:0:0:
128,192,14997,1,0,0:0:0:0:
384,192,14997,1,0,0:0:0:0:
384,192,15096,128,0,15293:0:0:0:0:
128,192,15096,1,0,0:0:0:0:
128,192,15195,1,0,0:0:0:0:
128,192,15293,1,0,0:0:0:0:
128,192,15392,1,0,0:0:0:0:
384,192,15392,1,0,0:0:0:0:
384,192,15491,1,0,0:0:0:0:
128,192,15491,128,0,15688:0:0:0:0:
384,192,15589,1,0,0:0:0:0:
384,192,15688,1,0,0:0:0:0:
384,192,15787,1,0,0:0:0:0:
128,192,15787,1,0,0:0:0:0:
384,192,15886,128,0,16083:0:0:0:0:
128,192,15886,1,0,0:0:0:0:
128,192,15984,1,0,0:0:0:0:
128,192,16083,1,0,0:0:0:0:
384,192,16182,1,0,0:0:0:0:
128,192,16182,1,0,0:0:0:0:
384,192,16280,1,0,0:0:0:0:
128,192,16280,128,0,16478:0:0:0:0:
384,192,16379,1,0,0:0:0:0:
384,192,16478,1,0,0:0:0:0:
384,192,16576,1,0,0:0:0:0:
128,192,16576,1,0,0:0:0:0:
384,192,16675,128,0,16872:0:0:0:0:
128,192,16675,1,0,0:0:0:0:
128,192,16774,1,0,0:0:0:0:
128,192,16872,1,0,0:0:0:0:
384,192,16971,1,0,0:0:0:0:
128,192,16971,1,0,0:0:0:0:
384,192,17070,1,0,0:0:0:0:
128,192,17070,128,0,17267:0:0:0:0:
384,192,17168,1,0,0:0:0:0:
384,192,17267,1,0,0:0:0:0:
128,192,17366,1,0,0:0:0:0:
384,192,17366,1,0,0:0:0:0:
384,192,17464,128,0,17662:0:0:0:0:
128,192,17464,1,0,0:0:0:0:
128,192,17563,1,0,0:0:0:0:
128,192,17662,1,0,0:0:0:0:
384,192,17761,128,0,17859:0:0:0:0:
128,192,17761,128,0,18155:0:0:0:0:
384,192,17958,128,0,18057:0:0:0:0:
384,192,18155,1,0,0:0:0:0:
384,192,18353,1,0,0:0:0:0:
128,192,18353,128,0,19043:0:0:0:0:
384,192,18550,1,0,0:0:0:0:
384,192,18649,128,0,18945:0:0:0:0:
384,192,19043,1,0,0:0:0:0:
384,192,19142,1,0,0:0:0:0:
128,192,19142,1,0,0:0:0:0:
384,192,19241,128,0,19833:0:0:0:0:
128,192,19241,1,0,0:0:0:0:
128,192,19339,1,0,0:0:0:0:
128,192,19438,1,0,0:0:0:0:
128,192,19537,1,0,0:0:0:0:
128,192,19636,1,0,0:0:0:0:
128,192,19734,1,0,0:0:0:0:
128,192,19833,1,0,0:0:0:0:
384,192,19932,1,0,0:0:0:0:
128,192,19932,1,0,0:0:0:0:
384,192,20030,1,0,0:0:0:0:
128,192,20030,1,0,0:0:0:0:
384,192,20129,128,0,20524:0:0:0:0:
128,192,20129,1,0,0:0:0:0:
128,192,20228,1,0,0:0:0:0:
128,192,20326,1,0,0:0:0:0:
128,192,20425,1,0,0:0:0:0:
128,192,20524,1,0,0:0:0:0:
128,192,20622,1,0,0:0:0:0:
384,192,20622,1,0,0:0:0:0:
384,192,20721,1,0,0:0:0:0:
128,192,20721,1,0,0:0:0:0:
128,192,20820,1,0,0:0:0:0:
384,192,20820,128,0,21264:0:0:0:0:
128,192,20918,1,0,0:0:0:0:
128,192,21017,1,0,0:0:0:0:
128,192,21116,1,0,0:0:0:0:
128,192,21264,128,0,22399:0:0:0:0:
384,192,21362,1,0,0:0:0:0:
384,192,21461,1,0,0:0:0:0:
384,192,21560,1,0,0:0:0:0:
384,192,21659,1,0,0:0:0:0:
384,192,21757,1,0,0:0:0:0:
384,192,21856,1,0,0:0:0:0:
384,192,21955,1,0,0:0:0:0:
384,192,22053,1,0,0:0:0:0:
384,192,22152,1,0,0:0:0:0:
384,192,22251,1,0,0:0:0:0:
384,192,22349,1,0,0:0:0:0:
384,192,22448,128,0,22497:0:0:0:0:
128,192,22497,1,0,0:0:0:0:
384,192,22596,1,0,0:0:0:0:
128,192,22596,128,0,22695:0:0:0:0:
384,192,22695,1,0,0:0:0:0:
384,192,22793,1,0,0:0:0:0:
128,192,22793,128,0,22892:0:0:0:0:
384,192,22892,1,0,0:0:0:0:
384,192,22991,1,0,0:0:0:0:
128,192,22991,128,0,23089:0:0:0:0:
384,192,23089,1,0,0:0:0:0:
384,192,23188,1,0,0:0:0:0:
128,192,23188,128,0,23287:0:0:0:0:
384,192,23287,1,0,0:0:0:0:
384,192,23386,1,0,0:0:0:0:
128,192,23386,128,0,23484:0:0:0:0:
384,192,23484,1,0,0:0:0:0:
384,192,23583,1,0,0:0:0:0:
128,192,23583,128,0,23682:0:0:0:0:
384,192,23682,1,0,0:0:0:0:
384,192,23780,1,0,0:0:0:0:
128,192,23780,128,0,23879:0:0:0:0:
384,192,23879,1,0,0:0:0:0:
384,192,23978,1,0,0:0:0:0:
128,192,23978,128,0,24076:0:0:0:0:
384,192,24076,1,0,0:0:0:0:
384,192,24175,128,0,24274:0:0:0:0:
128,192,24175,128,0,24274:0:0:0:0:
128,192,24372,1,0,0:0:0:0:
384,192,24372,128,0,24471:0:0:0:0:
128,192,24471,128,0,24570:0:0:0:0:
384,192,24570,1,0,0:0:0:0:
384,192,24668,1,0,0:0:0:0:
128,192,24668,128,0,25261:0:0:0:0:
384,192,24767,1,0,0:0:0:0:
384,192,24866,1,0,0:0:0:0:
384,192,24964,128,0,25063:0:0:0:0:
384,192,25162,1,0,0:0:0:0:
384,192,25261,1,0,0:0:0:0:
128,192,25359,1,0,0:0:0:0:
384,192,25359,128,0,25458:0:0:0:0:
128,192,25458,1,0,0:0:0:0:
384,192,25557,128,0,25606:0:0:0:0:
128,192,25557,1,0,0:0:0:0:
128,192,25655,1,0,0:0:0:0:
384,192,25705,128,0,25754:0:0:0:0:
128,192,25754,1,0,0:0:0:0:
384,192,25853,128,0,25951:0:0:0:0:
128,192,25853,1,0,0:0:0:0:
128,192,25951,1,0,0:0:0:0:
384,192,26050,128,0,26149:0:0:0:0:
128,192,26050,1,0,0:0:0:0:
128,192,26149,1,0,0:0:0:0:
384,192,26247,128,0,26346:0:0:0:0:
128,192,26247,1,0,0:0:0:0:
128,192,26346,1,0,0:0:0:0:
384,192,26445,128,0,26543:0:0:0:0:
128,192,26445,1,0,0:0:0:0:
128,192,26543,1,0,0:0:0:0:
384,192,26642,128,0,26741:0:0:0:0:
128,192,26642,1,0,0:0:0:0:
128,192,26741,1,0,0:0:0:0:
128,192,26839,1,0,0:0:0:0:
384,192,26839,128,0,26938:0:0:0:0:
128,192,26938,1,0,0:0:0:0:
384,192,27037,128,0,27136:0:0:0:0:
128,192,27037,1,0,0:0:0:0:
128,192,27136,1,0,0:0:0:0:
384,192,27234,1,0,0:0:0:0:
128,192,27234,1,0,0:0:0:0:
384,192,27333,128,0,27432:0:0:0:0:
128,192,27333,1,0,0:0:0:0:
128,192,27432,1,0,0:0:0:0:
384,192,27530,128,0,27629:0:0:0:0:
128,192,27530,1,0,0:0:0:0:
128,192,27629,1,0,0:0:0:0:
384,192,27728,1,0,0:0:0:0:
128,192,27728,1,0,0:0:0:0:
128,192,27826,1,0,0:0:0:0:
384,192,27826,1,0,0:0:0:0:
384,192,27925,1,0,0:0:0:0:
128,192,27925,128,0,30787:0:0:0:0:
384,192,28024,128,0,28122:0:0:0:0:
384,192,28221,1,0,0:0:0:0:
384,192,28320,128,0,28813:0:0:0:0:
384,192,28912,128,0,29208:0:0:0:0:
384,192,29307,128,0,29603:0:0:0:0:
384,192,29701,128,0,29997:0:0:0:0:
384,192,30096,128,0,30392:0:0:0:0:
384,192,30491,128,0,30787:0:0:0:0:
384,192,30886,128,0,31182:0:0:0:0:
128,192,30886,1,0,0:0:0:0:
128,192,30984,1,0,0:0:0:0:
128,192,31083,1,0,0:0:0:0:
128,192,31182,1,0,0:0:0:0:
384,192,31280,128,0,31478:0:0:0:0:
128,192,31280,128,0,31478:0:0:0:0:
384,192,31576,128,0,31872:0:0:0:0:
128,192,31576,128,0,31872:0:0:0:0:
384,192,31971,128,0,32267:0:0:0:0:
128,192,31971,128,0,32267:0:0:0:0:
384,192,32366,128,0,32662:0:0:0:0:
128,192,32366,128,0,32662:0:0:0:0:
384,192,32761,128,0,33057:0:0:0:0:
128,192,32761,128,0,33057:0:0:0:0:
384,192,33155,1,0,0:0:0:0:
128,192,33155,128,0,33451:0:0:0:0:
384,192,33254,128,0,33303:0:0:0:0:
384,192,33402,128,0,33451:0:0:0:0:
384,192,33550,1,0,0:0:0:0:
128,192,33550,128,0,33846:0:0:0:0:
384,192,33649,128,0,33698:0:0:0:0:
384,192,33797,128,0,33846:0:0:0:0:
384,192,33945,1,0,0:0:0:0:
128,192,33945,128,0,34241:0:0:0:0:
384,192,34043,128,0,34093:0:0:0:0:
384,192,34191,128,0,34241:0:0:0:0:
384,192,34339,1,0,0:0:0:0:
128,192,34339,128,0,34636:0:0:0:0:
384,192,34438,128,0,34487:0:0:0:0:
384,192,34586,128,0,34636:0:0:0:0:
128,192,34734,1,0,0:0:0:0:
384,192,34734,128,0,35030:0:0:0:0:
128,192,35129,1,0,0:0:0:0:
384,192,35129,128,0,35425:0:0:0:0:
128,192,35524,1,0,0:0:0:0:
384,192,35524,128,0,35820:0:0:0:0:
384,192,35918,1,0,0:0:0:0:
128,192,35918,128,0,36214:0:0:0:0:
384,192,36313,1,0,0:0:0:0:
128,192,36313,128,0,37892:0:0:0:0:
384,192,36412,128,0,36461:0:0:0:0:
384,192,36560,128,0,36609:0:0:0:0:
384,192,36708,1,0,0:0:0:0:
384,192,36807,128,0,36856:0:0:0:0:
384,192,36955,128,0,37004:0:0:0:0:
384,192,37103,1,0,0:0:0:0:
384,192,37201,128,0,37251:0:0:0:0:
384,192,37349,128,0,37399:0:0:0:0:
384,192,37497,1,0,0:0:0:0:
384,192,37596,1,0,0:0:0:0:
384,192,37695,1,0,0:0:0:0:
384,192,37793,1,0,0:0:0:0:
384,192,37892,128,0,38188:0:0:0:0:
128,192,38287,1,0,0:0:0:0:
384,192,38287,128,0,38583:0:0:0:0:
128,192,38682,1,0,0:0:0:0:
384,192,38682,128,0,38978:0:0:0:0:
128,192,39076,1,0,0:0:0:0:
384,192,39076,128,0,39372:0:0:0:0:
384,192,39471,1,0,0:0:0:0:
128,192,39471,128,0,39767:0:0:0:0:
384,192,39570,1,0,0:0:0:0:
384,192,39668,1,0,0:0:0:0:
384,192,39767,1,0,0:0:0:0:
384,192,39866,1,0,0:0:0:0:
128,192,39866,128,0,40162:0:0:0:0:
384,192,39964,1,0,0:0:0:0:
384,192,40063,1,0,0:0:0:0:
384,192,40162,1,0,0:0:0:0:
128,192,40261,1,0,0:0:0:0:
384,192,40261,128,0,40557:0:0:0:0:
128,192,40359,1,0,0:0:0:0:
128,192,40458,1,0,0:0:0:0:
128,192,40557,1,0,0:0:0:0:
128,192,40655,1,0,0:0:0:0:
384,192,40655,128,0,40951:0:0:0:0:
128,192,40754,1,0,0:0:0:0:
128,192,40853,1,0,0:0:0:0:
128,192,40951,1,0,0:0:0:0:
128,192,41050,1,0,0:0:0:0:
384,192,41050,128,0,41346:0:0:0:0:
128,192,41445,1,0,0:0:0:0:
384,192,41445,128,0,41741:0:0:0:0:
384,192,41839,1,0,0:0:0:0:
128,192,41839,128,0,44208:0:0:0:0:
384,192,41938,128,0,42136:0:0:0:0:
384,192,42234,1,0,0:0:0:0:
384,192,42333,128,0,42530:0:0:0:0:
384,192,42629,1,0,0:0:0:0:
384,192,42728,128,0,42777:0:0:0:0:
384,192,42876,128,0,42925:0:0:0:0:
384,192,43024,1,0,0:0:0:0:
384,192,43122,128,0,43172:0:0:0:0:
384,192,43270,128,0,43320:0:0:0:0:
384,192,43418,1,0,0:0:0:0:
384,192,43517,128,0,43566:0:0:0:0:
384,192,43665,128,0,43714:0:0:0:0:
384,192,43813,1,0,0:0:0:0:
384,192,43912,128,0,43961:0:0:0:0:
384,192,44060,128,0,44109:0:0:0:0:
384,192,44208,1,0,0:0:0:0:
384,192,44307,128,0,44356:0:0:0:0:
128,192,44307,128,0,44603:0:0:0:0:
384,192,44455,128,0,44504:0:0:0:0:
384,192,44603,128,0,44997:0:0:0:0:
384,192,45096,128,0,48747:0:0:0:0:
128,192,45096,128,0,47168:0:0:0:0:
128,192,47316,1,0,0:0:0:0:
128,192,47464,1,0,0:0:0:0:
128,192,47563,1,0,0:0:0:0:
128,192,47711,1,0,0:0:0:0:
128,192,47859,1,0,0:0:0:0:
128,192,47958,1,0,0:0:0:0:
128,192,48106,1,0,0:0:0:0:
128,192,48254,1,0,0:0:0:0:
128,192,48353,1,0,0:0:0:0:
128,192,48501,1,0,0:0:0:0:
128,192,48649,1,0,0:0:0:0:
128,192,48747,1,0,0:0:0:0:
384,192,48895,1,0,0:0:0:0:
128,192,48895,1,0,0:0:0:0:
384,192,49043,1,0,0:0:0:0:
128,192,49043,1,0,0:0:0:0:
384,192,49142,1,0,0:0:0:0:
128,192,49142,1,0,0:0:0:0:
384,192,49290,1,0,0:0:0:0:
128,192,49290,1,0,0:0:0:0:
384,192,49438,1,0,0:0:0:0:
128,192,49438,1,0,0:0:0:0:
384,192,49537,1,0,0:0:0:0:
128,192,49537,1,0,0:0:0:0:
128,192,49685,1,0,0:0:0:0:
384,192,49685,1,0,0:0:0:0:
384,192,49833,1,0,0:0:0:0:
128,192,49833,1,0,0:0:0:0:
384,192,49932,1,0,0:0:0:0:
128,192,49932,1,0,0:0:0:0:
384,192,50080,128,0,50474:0:0:0:0:
128,192,50474,1,0,0:0:0:0:
384,192,50573,1,0,0:0:0:0:
128,192,50573,1,0,0:0:0:0:
384,192,50672,1,0,0:0:0:0:
128,192,50672,1,0,0:0:0:0:
384,192,50770,1,0,0:0:0:0:
128,192,50770,1,0,0:0:0:0:
128,192,50869,1,0,0:0:0:0:
384,192,50968,1,0,0:0:0:0:
128,192,50968,1,0,0:0:0:0:
384,192,51066,1,0,0:0:0:0:
128,192,51066,1,0,0:0:0:0:
384,192,51165,1,0,0:0:0:0:
128,192,51165,1,0,0:0:0:0:
384,192,51264,1,0,0:0:0:0:
384,192,51362,1,0,0:0:0:0:
128,192,51362,1,0,0:0:0:0:
384,192,51461,1,0,0:0:0:0:
128,192,51461,1,0,0:0:0:0:
384,192,51560,1,0,0:0:0:0:
128,192,51560,1,0,0:0:0:0:
384,192,51659,1,0,0:0:0:0:
128,192,51659,1,0,0:0:0:0:
384,192,51757,1,0,0:0:0:0:
128,192,51757,1,0,0:0:0:0:
384,192,51856,1,0,0:0:0:0:
128,192,51856,1,0,0:0:0:0:
384,192,51955,1,0,0:0:0:0:
128,192,51955,1,0,0:0:0:0:
128,192,52053,1,0,0:0:0:0:
384,192,52053,1,0,0:0:0:0:
384,192,52152,128,0,52349:0:0:0:0:
128,192,52152,1,0,0:0:0:0:
128,192,52251,1,0,0:0:0:0:
128,192,52349,1,0,0:0:0:0:
128,192,52448,1,0,0:0:0:0:
384,192,52448,1,0,0:0:0:0:
384,192,52547,1,0,0:0:0:0:
128,192,52547,128,0,52744:0:0:0:0:
384,192,52645,1,0,0:0:0:0:
384,192,52744,1,0,0:0:0:0:
384,192,52843,1,0,0:0:0:0:
128,192,52843,1,0,0:0:0:0:
384,192,52941,128,0,53139:0:0:0:0:
128,192,52941,1,0,0:0:0:0:
128,192,53040,1,0,0:0:0:0:
128,192,53139,1,0,0:0:0:0:
384,192,53237,1,0,0:0:0:0:
128,192,53237,1,0,0:0:0:0:
384,192,53336,1,0,0:0:0:0:
128,192,53336,128,0,53534:0:0:0:0:
384,192,53435,1,0,0:0:0:0:
384,192,53534,1,0,0:0:0:0:
384,192,53632,1,0,0:0:0:0:
128,192,53632,1,0,0:0:0:0:
384,192,53731,128,0,53928:0:0:0:0:
128,192,53731,1,0,0:0:0:0:
128,192,53830,1,0,0:0:0:0:
128,192,53928,1,0,0:0:0:0:
128,192,54027,1,0,0:0:0:0:
384,192,54027,1,0,0:0:0:0:
384,192,54126,128,0,54323:0:0:0:0:
128,192,54126,1,0,0:0:0:0:
128,192,54224,1,0,0:0:0:0:
128,192,54323,1,0,0:0:0:0:
128,192,54422,1,0,0:0:0:0:
384,192,54422,1,0,0:0:0:0:
384,192,54520,1,0,0:0:0:0:
128,192,54520,128,0,54718:0:0:0:0:
384,192,54619,1,0,0:0:0:0:
384,192,54718,1,0,0:0:0:0:
128,192,54816,1,0,0:0:0:0:
384,192,54816,1,0,0:0:0:0:
384,192,54915,128,0,55112:0:0:0:0:
128,192,54915,1,0,0:0:0:0:
128,192,55014,1,0,0:0:0:0:
128,192,55112,1,0,0:0:0:0:
384,192,55211,1,0,0:0:0:0:
128,192,55211,1,0,0:0:0:0:
384,192,55310,1,0,0:0:0:0:
128,192,55310,128,0,55507:0:0:0:0:
384,192,55409,1,0,0:0:0:0:
384,192,55507,1,0,0:0:0:0:
128,192,55606,1,0,0:0:0:0:
384,192,55606,1,0,0:0:0:0:
384,192,55705,1,0,0:0:0:0:
128,192,55705,128,0,55902:0:0:0:0:
384,192,55803,1,0,0:0:0:0:
384,192,55902,1,0,0:0:0:0:
128,192,56001,1,0,0:0:0:0:
384,192,56001,1,0,0:0:0:0:
384,192,56099,1,0,0:0:0:0:
128,192,56099,128,0,56297:0:0:0:0:
384,192,56198,1,0,0:0:0:0:
384,192,56297,1,0,0:0:0:0:
128,192,56395,1,0,0:0:0:0:
384,192,56494,128,0,56691:0:0:0:0:
128,192,56494,1,0,0:0:0:0:
128,192,56593,1,0,0:0:0:0:
128,192,56691,1,0,0:0:0:0:
384,192,56790,1,0,0:0:0:0:
128,192,56790,1,0,0:0:0:0:
384,192,56889,128,0,57086:0:0:0:0:
128,192,56889,1,0,0:0:0:0:
128,192,56987,1,0,0:0:0:0:
128,192,57086,1,0,0:0:0:0:
128,192,57185,1,0,0:0:0:0:
384,192,57284,128,0,57481:0:0:0:0:
128,192,57284,1,0,0:0:0:0:
128,192,57383,1,0,0:0:0:0:
128,192,57481,1,0,0:0:0:0:
384,192,57580,1,0,0:0:0:0:
128,192,57580,1,0,0:0:0:0:
384,192,57678,128,0,57876:0:0:0:0:
128,192,57679,1,0,0:0:0:0:
128,192,57777,1,0,0:0:0:0:
128,192,57876,1,0,0:0:0:0:
384,192,58024,1,0,0:0:0:0:
384,192,58122,128,0,58320:0:0:0:0:
128,192,58122,1,0,0:0:0:0:
128,192,58221,1,0,0:0:0:0:
128,192,58320,1,0,0:0:0:0:
384,192,58418,1,0,0:0:0:0:
384,192,58517,128,0,58714:0:0:0:0:
128,192,58517,1,0,0:0:0:0:
128,192,58616,1,0,0:0:0:0:
128,192,58714,1,0,0:0:0:0:
384,192,58813,1,0,0:0:0:0:
384,192,58912,128,0,59109:0:0:0:0:
128,192,58912,1,0,0:0:0:0:
128,192,59010,1,0,0:0:0:0:
128,192,59109,1,0,0:0:0:0:
384,192,59208,1,0,0:0:0:0:
384,192,59307,128,0,59504:0:0:0:0:
128,192,59307,1,0,0:0:0:0:
128,192,59405,1,0,0:0:0:0:
128,192,59504,1,0,0:0:0:0:
384,192,59603,1,0,0:0:0:0:
384,192,59701,128,0,59899:0:0:0:0:
128,192,59701,1,0,0:0:0:0:
128,192,59800,1,0,0:0:0:0:
128,192,59899,1,0,0:0:0:0:
128,192,59997,1,0,0:0:0:0:
128,192,60096,128,0,60293:0:0:0:0:
384,192,60096,1,0,0:0:0:0:
384,192,60195,1,0,0:0:0:0:
384,192,60293,1,0,0:0:0:0:
128,192,60392,1,0,0:0:0:0:
128,192,60491,128,0,60688:0:0:0:0:
384,192,60491,1,0,0:0:0:0:
384,192,60589,1,0,0:0:0:0:
384,192,60688,1,0,0:0:0:0:
128,192,60787,1,0,0:0:0:0:
128,192,60885,128,0,61083:0:0:0:0:
384,192,60885,1,0,0:0:0:0:
384,192,60984,1,0,0:0:0:0:
384,192,61083,1,0,0:0:0:0:
384,192,61182,1,0,0:0:0:0:
384,192,61280,128,0,61478:0:0:0:0:
128,192,61280,1,0,0:0:0:0:
128,192,61379,1,0,0:0:0:0:
128,192,61478,1,0,0:0:0:0:
384,192,61576,1,0,0:0:0:0:
384,192,61675,128,0,61872:0:0:0:0:
128,192,61675,1,0,0:0:0:0:
128,192,61774,1,0,0:0:0:0:
128,192,61872,1,0,0:0:0:0:
384,192,61971,1,0,0:0:0:0:
384,192,62070,128,0,62267:0:0:0:0:
128,192,62070,1,0,0:0:0:0:
128,192,62168,1,0,0:0:0:0:
128,192,62267,1,0,0:0:0:0:
384,192,62366,1,0,0:0:0:0:
128,192,62464,1,0,0:0:0:0:
384,192,62563,1,0,0:0:0:0:
128,192,62662,1,0,0:0:0:0:
384,192,62760,1,0,0:0:0:0:
128,192,62859,1,0,0:0:0:0:
384,192,62958,1,0,0:0:0:0:
128,192,63057,1,0,0:0:0:0:
384,192,63155,1,0,0:0:0:0:
384,192,63254,128,0,63451:0:0:0:0:
128,192,63254,128,0,63451:0:0:0:0:
128,192,63550,1,0,0:0:0:0:
384,192,63649,1,0,0:0:0:0:
128,192,63747,1,0,0:0:0:0:
384,192,63846,1,0,0:0:0:0:
128,192,63945,1,0,0:0:0:0:
384,192,64043,1,0,0:0:0:0:
128,192,64142,1,0,0:0:0:0:
384,192,64241,1,0,0:0:0:0:
128,192,64339,1,0,0:0:0:0:
384,192,64438,1,0,0:0:0:0:
128,192,64537,1,0,0:0:0:0:
384,192,64636,1,0,0:0:0:0:
128,192,64734,1,0,0:0:0:0:
384,192,64833,1,0,0:0:0:0:
384,192,64932,1,0,0:0:0:0:
128,192,65030,1,0,0:0:0:0:
384,192,65129,1,0,0:0:0:0:
128,192,65228,1,0,0:0:0:0:
384,192,65326,1,0,0:0:0:0:
128,192,65425,1,0,0:0:0:0:
384,192,65524,1,0,0:0:0:0:
128,192,65622,1,0,0:0:0:0:
384,192,65721,1,0,0:0:0:0:
128,192,65820,1,0,0:0:0:0:
384,192,65918,1,0,0:0:0:0:
128,192,66017,1,0,0:0:0:0:
384,192,66017,128,0,66510:0:0:0:0:
128,192,66116,1,0,0:0:0:0:
128,192,66214,1,0,0:0:0:0:
128,192,66313,1,0,0:0:0:0:
128,192,66412,1,0,0:0:0:0:
128,192,66510,1,0,0:0:0:0:
384,192,66708,128,0,68287:0:0:0:0:
128,192,66708,1,0,0:0:0:0:
128,192,66905,1,0,0:0:0:0:
128,192,67103,128,0,67892:0:0:0:0:
128,192,68089,1,0,0:0:0:0:
128,192,68287,1,0,0:0:0:0:
128,192,68484,1,0,0:0:0:0:
384,192,68484,128,0,69274:0:0:0:0:
128,192,68682,1,0,0:0:0:0:
128,192,68879,1,0,0:0:0:0:
128,192,69076,1,0,0:0:0:0:
128,192,69175,128,0,69471:0:0:0:0:
384,192,69471,1,0,0:0:0:0:
384,192,69570,128,0,69767:0:0:0:0:
128,192,69866,1,0,0:0:0:0:
384,192,69866,1,0,0:0:0:0:
128,192,69964,128,0,70162:0:0:0:0:
384,192,70063,1,0,0:0:0:0:
128,192,70260,1,0,0:0:0:0:
384,192,70261,1,0,0:0:0:0:
384,192,70359,128,0,70557:0:0:0:0:
128,192,70458,1,0,0:0:0:0:
384,192,70655,1,0,0:0:0:0:
128,192,70655,1,0,0:0:0:0:
128,192,70754,128,0,70951:0:0:0:0:
384,192,70853,1,0,0:0:0:0:
384,192,71050,1,0,0:0:0:0:
128,192,71050,1,0,0:0:0:0:
384,192,71149,128,0,71346:0:0:0:0:
128,192,71247,1,0,0:0:0:0:
128,192,71445,1,0,0:0:0:0:
384,192,71445,1,0,0:0:0:0:
128,192,71543,128,0,71741:0:0:0:0:
384,192,71642,1,0,0:0:0:0:
384,192,71839,1,0,0:0:0:0:
128,192,71839,128,0,72037:0:0:0:0:
384,192,71938,1,0,0:0:0:0:
384,192,72037,1,0,0:0:0:0:
128,192,72135,1,0,0:0:0:0:
384,192,72234,1,0,0:0:0:0:
128,192,72234,128,0,72432:0:0:0:0:
384,192,72333,1,0,0:0:0:0:
384,192,72432,1,0,0:0:0:0:
128,192,72530,1,0,0:0:0:0:
384,192,72629,1,0,0:0:0:0:
128,192,72629,128,0,72826:0:0:0:0:
384,192,72728,1,0,0:0:0:0:
384,192,72826,1,0,0:0:0:0:
128,192,72925,1,0,0:0:0:0:
384,192,72925,1,0,0:0:0:0:
384,192,73024,1,0,0:0:0:0:
128,192,73024,128,0,73221:0:0:0:0:
384,192,73122,128,0,73172:0:0:0:0:
384,192,73270,128,0,73320:0:0:0:0:
128,192,73320,1,0,0:0:0:0:
384,192,73418,1,0,0:0:0:0:
128,192,73418,128,0,73616:0:0:0:0:
384,192,73517,128,0,73566:0:0:0:0:
384,192,73665,128,0,73714:0:0:0:0:
128,192,73813,1,0,0:0:0:0:
384,192,73813,128,0,74010:0:0:0:0:
128,192,73912,128,0,73961:0:0:0:0:
128,192,74060,128,0,74109:0:0:0:0:
128,192,74208,1,0,0:0:0:0:
384,192,74208,128,0,74405:0:0:0:0:
128,192,74307,128,0,74356:0:0:0:0:
128,192,74455,128,0,74504:0:0:0:0:
384,192,74603,1,0,0:0:0:0:
128,192,74603,128,0,74997:0:0:0:0:
384,192,74701,128,0,74751:0:0:0:0:
384,192,74849,128,0,74899:0:0:0:0:
384,192,74997,1,0,0:0:0:0:
384,192,75096,1,0,0:0:0:0:
384,192,75195,1,0,0:0:0:0:
384,192,75293,1,0,0:0:0:0:
384,192,75392,1,0,0:0:0:0:
128,192,75392,128,0,75787:0:0:0:0:
384,192,75491,128,0,75540:0:0:0:0:
384,192,75639,128,0,75688:0:0:0:0:
384,192,75787,1,0,0:0:0:0:
384,192,75886,128,0,76182:0:0:0:0:
128,192,75984,128,0,76379:0:0:0:0:
384,192,76280,128,0,76576:0:0:0:0:
128,192,76576,128,0,77366:0:0:0:0:
384,192,77366,128,0,77810:0:0:0:0:
384,192,78155,1,0,0:0:0:0:
128,192,78155,1,0,0:0:0:0:
384,192,78254,128,0,78303:0:0:0:0:
384,192,78402,128,0,78501:0:0:0:0:
384,192,78599,128,0,78698:0:0:0:0:
384,192,78797,128,0,78846:0:0:0:0:
384,192,78945,1,0,0:0:0:0:
128,192,78945,1,0,0:0:0:0:
384,192,79043,128,0,79093:0:0:0:0:
384,192,79191,128,0,79290:0:0:0:0:
384,192,79389,128,0,79487:0:0:0:0:
384,192,79586,128,0,79636:0:0:0:0:
128,192,79734,1,0,0:0:0:0:
384,192,79734,128,0,80326:0:0:0:0:
128,192,80524,1,0,0:0:0:0:
384,192,80524,128,0,81116:0:0:0:0:
384,192,81313,1,0,0:0:0:0:
128,192,81313,1,0,0:0:0:0:
384,192,81412,128,0,81461:0:0:0:0:
128,192,81412,1,0,0:0:0:0:
128,192,81510,1,0,0:0:0:0:
384,192,81560,128,0,81659:0:0:0:0:
128,192,81609,1,0,0:0:0:0:
128,192,81708,1,0,0:0:0:0:
384,192,81757,128,0,81807:0:0:0:0:
128,192,81807,1,0,0:0:0:0:
384,192,81905,128,0,82004:0:0:0:0:
128,192,81905,1,0,0:0:0:0:
128,192,82004,1,0,0:0:0:0:
128,192,82103,1,0,0:0:0:0:
384,192,82201,1,0,0:0:0:0:
384,192,82300,1,0,0:0:0:0:
384,192,82399,1,0,0:0:0:0:
384,192,82497,1,0,0:0:0:0:
384,192,82596,1,0,0:0:0:0:
384,192,82695,1,0,0:0:0:0:
384,192,82793,1,0,0:0:0:0:
384,192,82892,1,0,0:0:0:0:
128,192,82892,128,0,83484:0:0:0:0:
128,192,83682,1,0,0:0:0:0:
384,192,83682,128,0,84274:0:0:0:0:
384,192,84471,128,0,84570:0:0:0:0:
128,192,84471,1,0,0:0:0:0:
384,192,84668,128,0,84718:0:0:0:0:
128,192,84668,1,0,0:0:0:0:
384,192,84816,128,0,84866:0:0:0:0:
128,192,84866,1,0,0:0:0:0:
384,192,84964,128,0,85014:0:0:0:0:
128,192,85063,1,0,0:0:0:0:
384,192,85112,128,0,85162:0:0:0:0:
128,192,85261,1,0,0:0:0:0:
384,192,85359,128,0,85409:0:0:0:0:
128,192,85458,1,0,0:0:0:0:
384,192,85507,128,0,85557:0:0:0:0:
384,192,85655,128,0,85705:0:0:0:0:
128,192,85655,1,0,0:0:0:0:
384,192,85803,128,0,85951:0:0:0:0:
128,192,85853,1,0,0:0:0:0:
384,192,86050,1,0,0:0:0:0:
128,192,86050,1,0,0:0:0:0:
384,192,86149,128,0,86741:0:0:0:0:
384,192,86839,1,0,0:0:0:0:
128,192,86839,128,0,87629:0:0:0:0:
384,192,87629,1,0,0:0:0:0:
128,192,87728,1,0,0:0:0:0:
384,192,87826,1,0,0:0:0:0:
128,192,87925,1,0,0:0:0:0:
384,192,88024,1,0,0:0:0:0:
128,192,88122,1,0,0:0:0:0:
384,192,88221,1,0,0:0:0:0:
128,192,88320,1,0,0:0:0:0:
384,192,88418,1,0,0:0:0:0:
128,192,88517,1,0,0:0:0:0:
128,192,88616,1,0,0:0:0:0:
384,192,88714,1,0,0:0:0:0:
128,192,88813,1,0,0:0:0:0:
384,192,88912,1,0,0:0:0:0:
128,192,89010,1,0,0:0:0:0:
384,192,89109,1,0,0:0:0:0:
128,192,89109,1,0,0:0:0:0:
384,192,89208,1,0,0:0:0:0:
128,192,89306,1,0,0:0:0:0:
384,192,89307,128,0,89899:0:0:0:0:
128,192,89503,1,0,0:0:0:0:
128,192,89701,1,0,0:0:0:0:
128,192,89898,1,0,0:0:0:0:
384,192,89997,1,0,0:0:0:0:
128,192,89997,1,0,0:0:0:0:
384,192,90096,128,0,90787:0:0:0:0:
128,192,90194,1,0,0:0:0:0:
128,192,90391,1,0,0:0:0:0:
128,192,90589,1,0,0:0:0:0:
128,192,90787,1,0,0:0:0:0:
128,192,90885,1,0,0:0:0:0:
384,192,90886,128,0,90935:0:0:0:0:
128,192,90984,1,0,0:0:0:0:
384,192,91034,128,0,91083:0:0:0:0:
128,192,91083,1,0,0:0:0:0:
384,192,91182,128,0,91231:0:0:0:0:
128,192,91182,1,0,0:0:0:0:
128,192,91280,1,0,0:0:0:0:
384,192,91330,128,0,91379:0:0:0:0:
128,192,91379,1,0,0:0:0:0:
384,192,91478,1,0,0:0:0:0:
128,192,91478,1,0,0:0:0:0:
128,192,91576,1,0,0:0:0:0:
384,192,91576,128,0,91774:0:0:0:0:
128,192,91675,1,0,0:0:0:0:
128,192,91774,1,0,0:0:0:0:
128,192,91872,1,0,0:0:0:0:
384,192,91971,1,0,0:0:0:0:
384,192,92070,1,0,0:0:0:0:
128,192,92168,1,0,0:0:0:0:
384,192,92267,1,0,0:0:0:0:
128,192,92267,1,0,0:0:0:0:
384,192,92366,1,0,0:0:0:0:
128,192,92366,128,0,93155:0:0:0:0:
384,192,93155,1,0,0:0:0:0:
384,192,93254,128,0,93846:0:0:0:0:
128,192,93945,1,0,0:0:0:0:
384,192,94043,1,0,0:0:0:0:
384,192,94142,1,0,0:0:0:0:
128,192,94241,1,0,0:0:0:0:
384,192,94339,1,0,0:0:0:0:
384,192,94438,1,0,0:0:0:0:
128,192,94537,1,0,0:0:0:0:
384,192,94636,1,0,0:0:0:0:
128,192,94734,1,0,0:0:0:0:
384,192,94833,1,0,0:0:0:0:
128,192,94833,1,0,0:0:0:0:
384,192,94932,1,0,0:0:0:0:
384,192,95030,1,0,0:0:0:0:
128,192,95030,1,0,0:0:0:0:
384,192,95129,1,0,0:0:0:0:
128,192,95227,1,0,0:0:0:0:
384,192,95228,1,0,0:0:0:0:
384,192,95326,1,0,0:0:0:0:
384,192,95425,1,0,0:0:0:0:
128,192,95425,1,0,0:0:0:0:
384,192,95524,1,0,0:0:0:0:
384,192,95622,1,0,0:0:0:0:
128,192,95622,1,0,0:0:0:0:
384,192,95721,1,0,0:0:0:0:
128,192,95721,1,0,0:0:0:0:
384,192,95820,1,0,0:0:0:0:
384,192,95918,1,0,0:0:0:0:
128,192,95918,1,0,0:0:0:0:
384,192,96017,1,0,0:0:0:0:
128,192,96115,1,0,0:0:0:0:
384,192,96116,1,0,0:0:0:0:
384,192,96214,1,0,0:0:0:0:
128,192,96214,1,0,0:0:0:0:
384,192,96313,1,0,0:0:0:0:
128,192,96411,1,0,0:0:0:0:
384,192,96412,128,0,97004:0:0:0:0:
128,192,96608,1,0,0:0:0:0:
128,192,96806,1,0,0:0:0:0:
128,192,97003,1,0,0:0:0:0:
128,192,97102,1,0,0:0:0:0:
384,192,97103,1,0,0:0:0:0:
384,192,97201,128,0,97300:0:0:0:0:
128,192,97299,1,0,0:0:0:0:
384,192,97399,128,0,97497:0:0:0:0:
128,192,97496,1,0,0:0:0:0:
384,192,97596,128,0,97645:0:0:0:0:
128,192,97596,1,0,0:0:0:0:
384,192,97744,128,0,97793:0:0:0:0:
128,192,97793,1,0,0:0:0:0:
128,192,97892,1,0,0:0:0:0:
384,192,97991,128,0,98040:0:0:0:0:
128,192,98139,128,0,98188:0:0:0:0:
384,192,98287,128,0,98386:0:0:0:0:
128,192,98484,128,0,98583:0:0:0:0:
384,192,98682,1,0,0:0:0:0:
128,192,98780,128,0,98830:0:0:0:0:
384,192,98928,128,0,99027:0:0:0:0:
128,192,99126,128,0,99224:0:0:0:0:
384,192,99323,128,0,99372:0:0:0:0:
128,192,99471,1,0,0:0:0:0:
384,192,99570,128,0,100112:0:0:0:0:
384,192,100211,1,0,0:0:0:0:
384,192,100310,1,0,0:0:0:0:
384,192,100409,1,0,0:0:0:0:
384,192,100507,1,0,0:0:0:0:
128,192,100655,1,0,0:0:0:0:
384,192,100705,1,0,0:0:0:0:
128,192,100803,1,0,0:0:0:0:
384,192,100902,1,0,0:0:0:0:
128,192,101050,1,0,0:0:0:0:
384,192,101099,1,0,0:0:0:0:
128,192,101247,1,0,0:0:0:0:
384,192,101297,1,0,0:0:0:0:
128,192,101444,1,0,0:0:0:0:
384,192,101494,1,0,0:0:0:0:
128,192,101642,1,0,0:0:0:0:
384,192,101691,1,0,0:0:0:0:
128,192,101839,1,0,0:0:0:0:
384,192,101889,1,0,0:0:0:0:
128,192,102036,1,0,0:0:0:0:
384,192,102086,1,0,0:0:0:0:
128,192,102234,1,0,0:0:0:0:
384,192,102284,1,0,0:0:0:0:
128,192,102431,1,0,0:0:0:0:
384,192,102481,1,0,0:0:0:0:
128,192,102629,1,0,0:0:0:0:
384,192,102678,1,0,0:0:0:0:
128,192,102826,1,0,0:0:0:0:
384,192,102876,1,0,0:0:0:0:
128,192,103023,1,0,0:0:0:0:
384,192,103073,1,0,0:0:0:0:
128,192,103221,1,0,0:0:0:0:
384,192,103270,1,0,0:0:0:0:
384,192,103418,1,0,0:0:0:0:
128,192,103418,128,0,103616:0:0:0:0:
384,192,103517,1,0,0:0:0:0:
384,192,103615,1,0,0:0:0:0:
128,192,103714,1,0,0:0:0:0:
384,192,103813,1,0,0:0:0:0:
128,192,103813,128,0,104010:0:0:0:0:
384,192,103911,1,0,0:0:0:0:
384,192,104010,1,0,0:0:0:0:
128,192,104109,1,0,0:0:0:0:
384,192,104208,1,0,0:0:0:0:
128,192,104208,128,0,104405:0:0:0:0:
384,192,104306,1,0,0:0:0:0:
384,192,104405,1,0,0:0:0:0:
128,192,104504,1,0,0:0:0:0:
384,192,104602,1,0,0:0:0:0:
128,192,104603,128,0,104800:0:0:0:0:
384,192,104701,1,0,0:0:0:0:
384,192,104800,1,0,0:0:0:0:
384,192,104898,1,0,0:0:0:0:
128,192,104997,1,0,0:0:0:0:
384,192,104997,128,0,105195:0:0:0:0:
128,192,105096,1,0,0:0:0:0:
128,192,105194,1,0,0:0:0:0:
128,192,105293,1,0,0:0:0:0:
128,192,105392,128,0,105589:0:0:0:0:
384,192,105392,1,0,0:0:0:0:
384,192,105490,1,0,0:0:0:0:
384,192,105589,1,0,0:0:0:0:
128,192,105688,1,0,0:0:0:0:
384,192,105787,1,0,0:0:0:0:
128,192,105787,128,0,105984:0:0:0:0:
384,192,105885,1,0,0:0:0:0:
384,192,105984,1,0,0:0:0:0:
128,192,106083,1,0,0:0:0:0:
384,192,106182,1,0,0:0:0:0:
128,192,106182,128,0,106379:0:0:0:0:
384,192,106280,1,0,0:0:0:0:
384,192,106379,1,0,0:0:0:0:
128,192,106478,1,0,0:0:0:0:
384,192,106576,1,0,0:0:0:0:
128,192,106576,128,0,106774:0:0:0:0:
384,192,106675,1,0,0:0:0:0:
384,192,106774,1,0,0:0:0:0:
128,192,106872,1,0,0:0:0:0:
384,192,106971,1,0,0:0:0:0:
128,192,106971,128,0,107168:0:0:0:0:
384,192,107070,1,0,0:0:0:0:
384,192,107168,1,0,0:0:0:0:
384,192,107267,1,0,0:0:0:0:
128,192,107366,1,0,0:0:0:0:
128,192,107761,1,0,0:0:0:0:
384,192,108155,1,0,0:0:0:0:
128,192,108155,128,0,114372:0:0:0:0:
384,192,108254,1,0,0:0:0:0:
384,192,108353,1,0,0:0:0:0:
384,192,108451,1,0,0:0:0:0:
384,192,108550,1,0,0:0:0:0:
384,192,108649,1,0,0:0:0:0:
384,192,108747,1,0,0:0:0:0:
384,192,108846,1,0,0:0:0:0:
384,192,108945,1,0,0:0:0:0:
384,192,109043,1,0,0:0:0:0:
384,192,109142,1,0,0:0:0:0:
384,192,109241,1,0,0:0:0:0:
384,192,109339,1,0,0:0:0:0:
384,192,109438,1,0,0:0:0:0:
384,192,109537,1,0,0:0:0:0:
384,192,109636,1,0,0:0:0:0:
384,192,109734,1,0,0:0:0:0:
384,192,109833,1,0,0:0:0:0:
384,192,109932,1,0,0:0:0:0:
384,192,110030,1,0,0:0:0:0:
384,192,110129,1,0,0:0:0:0:
384,192,110228,1,0,0:0:0:0:
384,192,110326,1,0,0:0:0:0:
384,192,110425,1,0,0:0:0:0:
384,192,110524,1,0,0:0:0:0:
384,192,110622,1,0,0:0:0:0:
384,192,110721,1,0,0:0:0:0:
384,192,110820,1,0,0:0:0:0:
384,192,110918,1,0,0:0:0:0:
384,192,111017,1,0,0:0:0:0:
384,192,111116,1,0,0:0:0:0:
384,192,111214,1,0,0:0:0:0:
384,192,111313,1,0,0:0:0:0:
384,192,111412,1,0,0:0:0:0:
384,192,111511,1,0,0:0:0:0:
384,192,111609,1,0,0:0:0:0:
384,192,111708,1,0,0:0:0:0:
384,192,111807,1,0,0:0:0:0:
384,192,111905,1,0,0:0:0:0:
384,192,112004,1,0,0:0:0:0:
384,192,112103,1,0,0:0:0:0:
384,192,112201,1,0,0:0:0:0:
384,192,112300,1,0,0:0:0:0:
384,192,112497,1,0,0:0:0:0:
384,192,112892,1,0,0:0:0:0:
384,192,113287,1,0,0:0:0:0:
384,192,113682,1,0,0:0:0:0:
384,192,114076,1,0,0:0:0:0:
384,192,114372,1,0,0:0:0:0:
128,192,114471,1,0,0:0:0:0:
384,192,114619,1,0,0:0:0:0:
128,192,114767,1,0,0:0:0:0:
384,192,114866,128,0,115063:0:0:0:0:
128,192,115260,1,0,0:0:0:0:
384,192,115260,128,0,117234:0:0:0:0:
128,192,115655,1,0,0:0:0:0:
128,192,116050,1,0,0:0:0:0:
128,192,116445,1,0,0:0:0:0:
128,192,116839,1,0,0:0:0:0:
128,192,116937,1,0,0:0:0:0:
128,192,117036,1,0,0:0:0:0:
128,192,117135,1,0,0:0:0:0:
128,192,117234,1,0,0:0:0:0:
384,192,117333,1,0,0:0:0:0:
384,192,117432,1,0,0:0:0:0:
384,192,117530,1,0,0:0:0:0:
384,192,117629,1,0,0:0:0:0:
384,192,117728,1,0,0:0:0:0:
128,192,117728,1,0,0:0:0:0:
384,192,117826,1,0,0:0:0:0:
128,192,117826,1,0,0:0:0:0:
384,192,117925,1,0,0:0:0:0:
384,192,118024,1,0,0:0:0:0:
384,192,118122,1,0,0:0:0:0:
128,192,118122,1,0,0:0:0:0:
384,192,118221,1,0,0:0:0:0:
128,192,118221,1,0,0:0:0:0:
384,192,118320,1,0,0:0:0:0:
384,192,118418,1,0,0:0:0:0:
384,192,118517,1,0,0:0:0:0:
128,192,118517,1,0,0:0:0:0:
384,192,118616,1,0,0:0:0:0:
128,192,118616,1,0,0:0:0:0:
384,192,118714,1,0,0:0:0:0:
384,192,118813,1,0,0:0:0:0:
384,192,118912,1,0,0:0:0:0:
128,192,118961,1,0,0:0:0:0:
384,192,119011,1,0,0:0:0:0:
128,192,119060,1,0,0:0:0:0:
384,192,119109,1,0,0:0:0:0:
384,192,119208,1,0,0:0:0:0:
384,192,119307,1,0,0:0:0:0:
128,192,119356,1,0,0:0:0:0:
384,192,119405,1,0,0:0:0:0:
128,192,119455,1,0,0:0:0:0:
384,192,119504,1,0,0:0:0:0:
384,192,119603,1,0,0:0:0:0:
384,192,119701,1,0,0:0:0:0:
128,192,119751,1,0,0:0:0:0:
384,192,119800,1,0,0:0:0:0:
128,192,119849,1,0,0:0:0:0:
384,192,119899,1,0,0:0:0:0:
384,192,119997,1,0,0:0:0:0:
384,192,120096,1,0,0:0:0:0:
128,192,120145,1,0,0:0:0:0:
384,192,120195,1,0,0:0:0:0:
128,192,120244,1,0,0:0:0:0:
384,192,120293,1,0,0:0:0:0:
384,192,120392,1,0,0:0:0:0:
384,192,120491,128,0,120984:0:0:0:0:
128,192,120491,128,0,120984:0:0:0:0:
384,192,121182,1,0,0:0:0:0:
128,192,121280,1,0,0:0:0:0:
384,192,121379,1,0,0:0:0:0:
128,192,121478,1,0,0:0:0:0:
384,192,121576,1,0,0:0:0:0:
128,192,121675,1,0,0:0:0:0:
384,192,121774,1,0,0:0:0:0:
128,192,121872,1,0,0:0:0:0:
384,192,121971,1,0,0:0:0:0:
128,192,122070,1,0,0:0:0:0:
384,192,122168,1,0,0:0:0:0:
384,192,122267,1,0,0:0:0:0:
128,192,122366,1,0,0:0:0:0:
384,192,122464,1,0,0:0:0:0:
384,192,122563,1,0,0:0:0:0:
128,192,122662,1,0,0:0:0:0:
384,192,122761,1,0,0:0:0:0:
384,192,122859,1,0,0:0:0:0:
128,192,122958,1,0,0:0:0:0:
384,192,123057,1,0,0:0:0:0:
384,192,123155,1,0,0:0:0:0:
128,192,123254,1,0,0:0:0:0:
128,192,123353,1,0,0:0:0:0:
384,192,123451,1,0,0:0:0:0:
128,192,123550,1,0,0:0:0:0:
384,192,123649,1,0,0:0:0:0:
128,192,123747,1,0,0:0:0:0:
384,192,123846,1,0,0:0:0:0:
128,192,123945,1,0,0:0:0:0:
384,192,124043,1,0,0:0:0:0:
128,192,124142,1,0,0:0:0:0:
384,192,124241,1,0,0:0:0:0:
128,192,124339,1,0,0:0:0:0:
384,192,124438,1,0,0:0:0:0:
128,192,124537,1,0,0:0:0:0:
384,192,124636,1,0,0:0:0:0:
128,192,124734,1,0,0:0:0:0:
384,192,124833,1,0,0:0:0:0:
384,192,124932,1,0,0:0:0:0:
384,192,125030,1,0,0:0:0:0:
128,192,125129,1,0,0:0:0:0:
384,192,125228,1,0,0:0:0:0:
384,192,125326,1,0,0:0:0:0:
384,192,125425,1,0,0:0:0:0:
128,192,125524,1,0,0:0:0:0:
384,192,125622,1,0,0:0:0:0:
384,192,125721,1,0,0:0:0:0:
384,192,125820,1,0,0:0:0:0:
128,192,125918,1,0,0:0:0:0:
384,192,126017,1,0,0:0:0:0:
384,192,126116,1,0,0:0:0:0:
384,192,126214,1,0,0:0:0:0:
128,192,126313,1,0,0:0:0:0:
384,192,126412,1,0,0:0:0:0:
128,192,126510,1,0,0:0:0:0:
384,192,126609,1,0,0:0:0:0:
128,192,126708,1,0,0:0:0:0:
384,192,126807,1,0,0:0:0:0:
128,192,126905,1,0,0:0:0:0:
384,192,127004,1,0,0:0:0:0:
128,192,127103,1,0,0:0:0:0:
384,192,127201,1,0,0:0:0:0:
128,192,127201,1,0,0:0:0:0:
128,192,127300,128,0,127497:0:0:0:0:
384,192,127300,1,0,0:0:0:0:
384,192,127497,1,0,0:0:0:0:
384,192,127596,1,0,0:0:0:0:
128,192,127596,1,0,0:0:0:0:
384,192,127695,128,0,127892:0:0:0:0:
128,192,127793,1,0,0:0:0:0:
128,192,127892,1,0,0:0:0:0:
384,192,128089,128,0,128287:0:0:0:0:
128,192,128188,1,0,0:0:0:0:
128,192,128287,1,0,0:0:0:0:
128,192,128484,128,0,128682:0:0:0:0:
384,192,128583,1,0,0:0:0:0:
384,192,128682,1,0,0:0:0:0:
384,192,128879,128,0,129076:0:0:0:0:
128,192,128978,1,0,0:0:0:0:
128,192,129076,1,0,0:0:0:0:
128,192,129274,128,0,129471:0:0:0:0:
384,192,129372,1,0,0:0:0:0:
384,192,129471,1,0,0:0:0:0:
128,192,129570,1,0,0:0:0:0:
384,192,129668,1,0,0:0:0:0:
128,192,129668,128,0,129866:0:0:0:0:
384,192,129767,1,0,0:0:0:0:
384,192,129866,1,0,0:0:0:0:
384,192,130063,128,0,130260:0:0:0:0:
128,192,130063,1,0,0:0:0:0:
128,192,130261,1,0,0:0:0:0:
384,192,130458,128,0,130655:0:0:0:0:
128,192,130458,1,0,0:0:0:0:
128,192,130655,1,0,0:0:0:0:
384,192,130853,128,0,131050:0:0:0:0:
128,192,130853,1,0,0:0:0:0:
128,192,131050,1,0,0:0:0:0:
384,192,131149,1,0,0:0:0:0:
384,192,131247,1,0,0:0:0:0:
128,192,131247,128,0,131445:0:0:0:0:
384,192,131445,1,0,0:0:0:0:
384,192,131642,1,0,0:0:0:0:
128,192,131642,128,0,131839:0:0:0:0:
384,192,131839,1,0,0:0:0:0:
128,192,132037,128,0,132234:0:0:0:0:
384,192,132037,1,0,0:0:0:0:
384,192,132234,1,0,0:0:0:0:
384,192,132333,1,0,0:0:0:0:
384,192,132432,1,0,0:0:0:0:
128,192,132432,128,0,132629:0:0:0:0:
384,192,132530,1,0,0:0:0:0:
384,192,132629,1,0,0:0:0:0:
384,192,132826,1,0,0:0:0:0:
128,192,132826,1,0,0:0:0:0:
128,192,133024,1,0,0:0:0:0:
384,192,133024,1,0,0:0:0:0:
384,192,133122,1,0,0:0:0:0:
128,192,133122,1,0,0:0:0:0:
128,192,133221,1,0,0:0:0:0:
384,192,133221,1,0,0:0:0:0:
384,192,133320,1,0,0:0:0:0:
128,192,133320,1,0,0:0:0:0:
128,192,133418,1,0,0:0:0:0:
384,192,133418,1,0,0:0:0:0:
384,192,133616,128,0,133813:0:0:0:0:
128,192,133616,1,0,0:0:0:0:
128,192,133813,1,0,0:0:0:0:
384,192,133912,1,0,0:0:0:0:
128,192,134010,128,0,134159:0:0:0:0:
384,192,134011,1,0,0:0:0:0:
384,192,134109,1,0,0:0:0:0:
384,192,134208,1,0,0:0:0:0:
384,192,134307,1,0,0:0:0:0:
384,192,134405,1,0,0:0:0:0:
128,192,134405,128,0,134603:0:0:0:0:
384,192,134504,1,0,0:0:0:0:
384,192,134603,1,0,0:0:0:0:
384,192,134701,1,0,0:0:0:0:
384,192,134800,1,0,0:0:0:0:
128,192,134800,128,0,134997:0:0:0:0:
384,192,134899,1,0,0:0:0:0:
384,192,134997,1,0,0:0:0:0:
384,192,135096,1,0,0:0:0:0:
384,192,135195,1,0,0:0:0:0:
128,192,135195,128,0,135392:0:0:0:0:
384,192,135293,1,0,0:0:0:0:
384,192,135392,1,0,0:0:0:0:
384,192,135491,1,0,0:0:0:0:
384,192,135589,1,0,0:0:0:0:
128,192,135589,128,0,135787:0:0:0:0:
384,192,135688,1,0,0:0:0:0:
384,192,135787,1,0,0:0:0:0:
384,192,135984,128,0,136182:0:0:0:0:
128,192,136182,1,0,0:0:0:0:
128,192,136379,128,0,136576:0:0:0:0:
384,192,136576,1,0,0:0:0:0:
384,192,136774,128,0,136971:0:0:0:0:
128,192,136971,1,0,0:0:0:0:
128,192,137168,128,0,137366:0:0:0:0:
384,192,137366,1,0,0:0:0:0:
384,192,137563,128,0,137760:0:0:0:0:
128,192,137761,1,0,0:0:0:0:
128,192,137958,128,0,138155:0:0:0:0:
384,192,138155,1,0,0:0:0:0:
384,192,138353,128,0,138550:0:0:0:0:
128,192,138550,1,0,0:0:0:0:
128,192,138747,128,0,138945:0:0:0:0:
384,192,138945,1,0,0:0:0:0:
384,192,139142,128,0,139339:0:0:0:0:
128,192,139339,1,0,0:0:0:0:
384,192,139537,128,0,139734:0:0:0:0:
128,192,139734,1,0,0:0:0:0:
384,192,139932,128,0,140129:0:0:0:0:
128,192,140129,1,0,0:0:0:0:
384,192,140326,128,0,140524:0:0:0:0:
128,192,140524,1,0,0:0:0:0:
128,192,140721,128,0,140918:0:0:0:0:
384,192,140918,1,0,0:0:0:0:
128,192,141116,128,0,141313:0:0:0:0:
384,192,141313,1,0,0:0:0:0:
384,192,141510,128,0,141708:0:0:0:0:
128,192,141708,1,0,0:0:0:0:
128,192,141905,128,0,142103:0:0:0:0:
384,192,142103,1,0,0:0:0:0:
384,192,142300,128,0,142497:0:0:0:0:
128,192,142497,1,0,0:0:0:0:
384,192,142695,128,0,142892:0:0:0:0:
128,192,142892,1,0,0:0:0:0:
384,192,142991,1,0,0:0:0:0:
384,192,143089,1,0,0:0:0:0:
128,192,143089,128,0,143287:0:0:0:0:
384,192,143188,1,0,0:0:0:0:
384,192,143287,1,0,0:0:0:0:
384,192,143484,128,0,143682:0:0:0:0:
128,192,143682,1,0,0:0:0:0:
128,192,143879,128,0,144076:0:0:0:0:
384,192,144076,1,0,0:0:0:0:
128,192,144274,128,0,144471:0:0:0:0:
384,192,144570,128,0,145951:0:0:0:0:
128,192,145260,1,0,0:0:0:0:
128,192,145458,1,0,0:0:0:0:
128,192,145655,1,0,0:0:0:0:
128,192,146050,1,0,0:0:0:0:
384,192,146050,1,0,0:0:0:0:
128,192,146445,128,0,150392:0:0:0:0:
384,192,146445,128,0,149997:0:0:0:0:
