osu file format v13

[General]
AudioFilename: Extreme Fantasy Survival.mp3
AudioLeadIn: 0
PreviewTime: 50720
Countdown: 0
SampleSet: Normal
StackLeniency: 0.7
Mode: 3
LetterboxInBreaks: 0
SpecialStyle: 1
WidescreenStoryboard: 1

[Editor]
DistanceSpacing: 1.2
BeatDivisor: 4
GridSize: 4
TimelineZoom: 4.199997

[Metadata]
Title:Extreme Fantasy Survival
TitleUnicode:Extreme Fantasy Survival
Artist:Memme
ArtistUnicode:Memme
Creator:jamesalegre15
Version:1K RIP Button
Source:BMS
Tags:arcwin eternalie 1K 2K 3K 9K 10K memme dubstep
BeatmapID:517282
BeatmapSetID:220543

[Difficulty]
HPDrainRate:2
CircleSize:1
OverallDifficulty:10
ApproachRate:5
SliderMultiplier:1.4
SliderTickRate:1

[Events]
//Background and Video events
0,0,"50164895dd196.jpg",0,0
//Break Periods
//Storyboard Layer 0 (Background)
//Storyboard Layer 1 (Fail)
//Storyboard Layer 2 (Pass)
//Storyboard Layer 3 (Foreground)
//Storyboard Sound Samples
//Background Colour Transformations
3,100,163,162,255

[TimingPoints]
4734,394.736842105263,4,1,0,50,1,0
146543,-400,4,1,0,50,0,0

[HitObjects]
256,192,2266,128,2,4832:2:0:0:0:
256,192,4931,128,2,5227:2:0:0:0:
256,192,5326,128,2,5523:2:0:0:0:
256,192,5622,128,2,6016:2:0:0:0:
256,192,6115,128,2,6411:2:0:0:0:
256,192,6510,1,2,2:0:0:0:
256,192,6608,1,2,2:0:0:0:
256,192,6707,1,2,2:0:0:0:
256,192,6806,1,2,2:0:0:0:
256,192,6905,1,2,2:0:0:0:
256,192,7003,1,2,2:0:0:0:
256,192,7102,1,2,2:0:0:0:
256,192,7201,1,2,2:0:0:0:
256,192,7299,1,2,2:0:0:0:
256,192,7398,1,2,2:0:0:0:
256,192,7497,1,2,2:0:0:0:
256,192,7595,1,2,2:0:0:0:
256,192,7694,1,2,2:0:0:0:
256,192,7793,1,2,2:0:0:0:
256,192,7891,1,2,2:0:0:0:
256,192,7990,1,2,2:0:0:0:
256,192,8089,1,2,2:0:0:0:
256,192,8187,1,2,2:0:0:0:
256,192,8286,1,2,2:0:0:0:
256,192,8385,1,2,2:0:0:0:
256,192,8483,1,2,2:0:0:0:
256,192,8582,1,2,2:0:0:0:
256,192,8681,1,2,2:0:0:0:
256,192,8780,1,2,2:0:0:0:
256,192,8878,1,2,2:0:0:0:
256,192,8977,1,2,2:0:0:0:
256,192,9076,1,2,2:0:0:0:
256,192,9174,1,2,2:0:0:0:
256,192,9273,1,2,2:0:0:0:
256,192,9372,1,2,2:0:0:0:
256,192,9470,1,2,2:0:0:0:
256,192,9569,1,2,2:0:0:0:
256,192,9668,1,2,2:0:0:0:
256,192,9766,1,2,2:0:0:0:
256,192,9865,1,2,2:0:0:0:
256,192,9964,1,2,2:0:0:0:
256,192,10062,1,2,2:0:0:0:
256,192,10161,1,2,2:0:0:0:
256,192,10260,1,2,2:0:0:0:
256,192,10358,1,2,2:0:0:0:
256,192,10457,1,2,2:0:0:0:
256,192,10556,1,2,2:0:0:0:
256,192,10655,1,2,2:0:0:0:
256,192,10753,1,2,2:0:0:0:
256,192,10852,1,2,2:0:0:0:
256,192,10951,1,2,2:0:0:0:
256,192,11049,1,2,2:0:0:0:
256,192,11148,1,2,2:0:0:0:
256,192,11247,1,2,2:0:0:0:
256,192,11345,1,2,2:0:0:0:
256,192,11444,1,2,2:0:0:0:
256,192,11543,1,2,2:0:0:0:
256,192,11641,1,2,2:0:0:0:
256,192,11740,1,2,2:0:0:0:
256,192,11839,1,2,2:0:0:0:
256,192,11937,1,2,2:0:0:0:
256,192,12036,1,2,2:0:0:0:
256,192,12135,1,2,2:0:0:0:
256,192,12233,1,2,2:0:0:0:
256,192,12332,1,2,2:0:0:0:
256,192,12431,1,2,2:0:0:0:
256,192,12530,1,2,2:0:0:0:
256,192,12628,1,2,2:0:0:0:
256,192,12727,1,2,2:0:0:0:
256,192,12826,1,2,2:0:0:0:
256,192,12924,1,2,2:0:0:0:
256,192,13023,1,2,2:0:0:0:
256,192,13122,1,2,2:0:0:0:
256,192,13220,1,2,2:0:0:0:
256,192,13319,1,2,2:0:0:0:
256,192,13418,1,2,2:0:0:0:
256,192,13516,1,2,2:0:0:0:
256,192,13615,1,2,2:0:0:0:
256,192,13714,1,2,2:0:0:0:
256,192,13812,1,2,2:0:0:0:
256,192,13911,1,2,2:0:0:0:
256,192,14010,1,2,2:0:0:0:
256,192,14108,1,2,2:0:0:0:
256,192,14207,1,2,2:0:0:0:
256,192,14306,1,2,2:0:0:0:
256,192,14405,1,2,2:0:0:0:
256,192,14503,128,2,14701:2:0:0:0:
256,192,14799,1,2,2:0:0:0:
256,192,14898,1,2,2:0:0:0:
256,192,14997,1,2,2:0:0:0:
256,192,15095,1,2,2:0:0:0:
256,192,15194,1,2,2:0:0:0:
256,192,15293,128,2,15490:2:0:0:0:
256,192,15589,1,2,2:0:0:0:
256,192,15687,1,2,2:0:0:0:
256,192,15786,1,2,2:0:0:0:
256,192,15885,1,2,2:0:0:0:
256,192,15983,1,2,2:0:0:0:
256,192,16082,128,2,16280:2:0:0:0:
256,192,16378,1,2,2:0:0:0:
256,192,16477,1,2,2:0:0:0:
256,192,16576,1,2,2:0:0:0:
256,192,16674,1,2,2:0:0:0:
256,192,16773,1,2,2:0:0:0:
256,192,16872,128,2,17069:2:0:0:0:
256,192,17168,1,2,2:0:0:0:
256,192,17266,1,2,2:0:0:0:
256,192,17365,1,2,2:0:0:0:
256,192,17464,1,2,2:0:0:0:
256,192,17562,1,2,2:0:0:0:
256,192,17661,128,2,17858:2:0:0:0:
256,192,17957,128,2,18056:2:0:0:0:
256,192,18155,128,2,18253:2:0:0:0:
256,192,18549,1,2,2:0:0:0:
256,192,18648,128,2,19043:2:0:0:0:
256,192,19240,1,2,2:0:0:0:
256,192,19339,1,2,2:0:0:0:
256,192,19437,128,2,20030:2:0:0:0:
256,192,20128,1,2,2:0:0:0:
256,192,20227,128,2,20720:2:0:0:0:
256,192,20819,1,2,2:0:0:0:
256,192,20918,128,2,21312:2:0:0:0:
256,192,21411,1,2,2:0:0:0:
256,192,21510,1,2,2:0:0:0:
256,192,21608,1,2,2:0:0:0:
256,192,21707,1,2,2:0:0:0:
256,192,21806,1,2,2:0:0:0:
256,192,21905,1,2,2:0:0:0:
256,192,22003,1,2,2:0:0:0:
256,192,22102,1,2,2:0:0:0:
256,192,22201,1,2,2:0:0:0:
256,192,22299,1,2,2:0:0:0:
256,192,22398,1,2,2:0:0:0:
256,192,22497,1,2,2:0:0:0:
256,192,22694,1,2,2:0:0:0:
256,192,22793,1,2,2:0:0:0:
256,192,22891,1,2,2:0:0:0:
256,192,22990,1,2,2:0:0:0:
256,192,23089,1,2,2:0:0:0:
256,192,23187,1,2,2:0:0:0:
256,192,23286,1,2,2:0:0:0:
256,192,23385,1,2,2:0:0:0:
256,192,23483,1,2,2:0:0:0:
256,192,23582,1,2,2:0:0:0:
256,192,23681,1,2,2:0:0:0:
256,192,23780,1,2,2:0:0:0:
256,192,23878,1,2,2:0:0:0:
256,192,23977,1,2,2:0:0:0:
256,192,24076,1,2,2:0:0:0:
256,192,24174,1,2,2:0:0:0:
256,192,24273,1,2,2:0:0:0:
256,192,24372,128,2,24470:2:0:0:0:
256,192,24569,1,2,2:0:0:0:
256,192,24668,1,2,2:0:0:0:
256,192,24766,1,2,2:0:0:0:
256,192,24865,1,2,2:0:0:0:
256,192,24964,1,2,2:0:0:0:
256,192,25062,1,2,2:0:0:0:
256,192,25161,128,2,25260:2:0:0:0:
256,192,25358,1,2,2:0:0:0:
256,192,25457,1,2,2:0:0:0:
256,192,25556,1,2,2:0:0:0:
256,192,25655,128,2,25852:2:0:0:0:
256,192,25951,1,2,2:0:0:0:
256,192,26049,128,2,26148:2:0:0:0:
256,192,26247,128,2,26345:2:0:0:0:
256,192,26444,128,2,26543:2:0:0:0:
256,192,26641,128,2,26740:2:0:0:0:
256,192,26839,128,2,26937:2:0:0:0:
256,192,27036,128,2,27135:2:0:0:0:
256,192,27233,128,2,27332:2:0:0:0:
256,192,27431,128,2,27530:2:0:0:0:
256,192,27628,128,2,27727:2:0:0:0:
256,192,27826,1,2,2:0:0:0:
256,192,27924,1,2,2:0:0:0:
256,192,28023,1,2,2:0:0:0:
256,192,28122,1,2,2:0:0:0:
256,192,28220,128,2,28319:2:0:0:0:
256,192,28418,1,2,2:0:0:0:
256,192,28516,128,2,28911:2:0:0:0:
256,192,29010,128,2,29306:2:0:0:0:
256,192,29405,128,2,29701:2:0:0:0:
256,192,29799,128,2,30095:2:0:0:0:
256,192,30194,128,2,30490:2:0:0:0:
256,192,30589,128,2,30885:2:0:0:0:
256,192,30983,1,2,2:0:0:0:
256,192,31082,1,2,2:0:0:0:
256,192,31181,1,2,2:0:0:0:
256,192,31280,1,2,2:0:0:0:
256,192,31378,1,2,2:0:0:0:
256,192,31477,1,2,2:0:0:0:
256,192,31576,1,2,2:0:0:0:
256,192,31674,1,2,2:0:0:0:
256,192,31773,1,2,2:0:0:0:
256,192,31872,128,2,32069:2:0:0:0:
256,192,32168,128,2,32464:2:0:0:0:
256,192,32562,128,2,32760:2:0:0:0:
256,192,32858,128,2,33155:2:0:0:0:
256,192,33253,1,2,2:0:0:0:
256,192,33451,1,2,2:0:0:0:
256,192,33549,1,2,2:0:0:0:
256,192,33747,1,2,2:0:0:0:
256,192,33845,1,2,2:0:0:0:
256,192,33944,128,2,34043:2:0:0:0:
256,192,34141,1,2,2:0:0:0:
256,192,34240,1,2,2:0:0:0:
256,192,34339,1,2,2:0:0:0:
256,192,34536,1,2,2:0:0:0:
256,192,34635,1,2,2:0:0:0:
256,192,34733,1,2,2:0:0:0:
256,192,34931,1,2,2:0:0:0:
256,192,35030,128,2,35227:2:0:0:0:
256,192,35326,1,2,2:0:0:0:
256,192,35424,128,2,35622:2:0:0:0:
256,192,35720,1,2,2:0:0:0:
256,192,35819,128,2,36016:2:0:0:0:
256,192,36115,1,2,2:0:0:0:
256,192,36214,128,2,36411:2:0:0:0:
256,192,36510,1,2,2:0:0:0:
256,192,36608,1,2,2:0:0:0:
256,192,36707,1,2,2:0:0:0:
256,192,36905,1,2,2:0:0:0:
256,192,37003,1,2,2:0:0:0:
256,192,37102,128,2,37201:2:0:0:0:
256,192,37299,1,2,2:0:0:0:
256,192,37398,1,2,2:0:0:0:
256,192,37497,1,2,2:0:0:0:
256,192,37694,1,2,2:0:0:0:
256,192,37793,1,2,2:0:0:0:
256,192,37891,1,2,2:0:0:0:
256,192,37990,1,2,2:0:0:0:
256,192,38089,1,2,2:0:0:0:
256,192,38187,128,2,38385:2:0:0:0:
256,192,38483,1,2,2:0:0:0:
256,192,38582,128,2,38780:2:0:0:0:
256,192,38878,1,2,2:0:0:0:
256,192,38977,128,2,39174:2:0:0:0:
256,192,39273,1,2,2:0:0:0:
256,192,39372,128,2,39569:2:0:0:0:
256,192,39668,1,2,2:0:0:0:
256,192,39766,128,2,39964:2:0:0:0:
256,192,40062,1,2,2:0:0:0:
256,192,40161,128,2,40358:2:0:0:0:
256,192,40457,1,2,2:0:0:0:
256,192,40556,128,2,40753:2:0:0:0:
256,192,40852,1,2,2:0:0:0:
256,192,40951,128,2,41148:2:0:0:0:
256,192,41247,1,2,2:0:0:0:
256,192,41345,128,2,41543:2:0:0:0:
256,192,41641,1,2,2:0:0:0:
256,192,41740,128,2,41937:2:0:0:0:
256,192,42036,1,2,2:0:0:0:
256,192,42135,128,2,42332:2:0:0:0:
256,192,42431,1,2,2:0:0:0:
256,192,42530,128,2,42727:2:0:0:0:
256,192,42826,1,2,2:0:0:0:
256,192,42924,1,2,2:0:0:0:
256,192,43023,128,2,43122:2:0:0:0:
256,192,43220,1,2,2:0:0:0:
256,192,43319,1,2,2:0:0:0:
256,192,43418,1,2,2:0:0:0:
256,192,43615,1,2,2:0:0:0:
256,192,43714,1,2,2:0:0:0:
256,192,43812,1,2,2:0:0:0:
256,192,44010,1,2,2:0:0:0:
256,192,44108,1,2,2:0:0:0:
256,192,44207,1,2,2:0:0:0:
256,192,44405,1,2,2:0:0:0:
256,192,44503,1,2,2:0:0:0:
256,192,44602,1,2,2:0:0:0:
256,192,44799,128,2,44898:2:0:0:0:
256,192,44997,128,2,50030:2:0:0:0:
256,192,50646,1,2,0:0:0:0:
256,192,50671,1,2,0:0:0:0:
256,192,50696,1,2,0:0:0:0:
256,192,50720,1,2,2:0:0:0:
256,192,50745,1,2,2:0:0:0:
256,192,50770,1,2,2:0:0:0:
256,192,50794,1,2,2:0:0:0:
256,192,50819,1,2,2:0:0:0:
256,192,50844,1,2,2:0:0:0:
256,192,50869,1,2,2:0:0:0:
256,192,50893,1,2,2:0:0:0:
256,192,50918,1,2,2:0:0:0:
256,192,50942,1,2,2:0:0:0:
256,192,50967,1,2,2:0:0:0:
256,192,50991,1,2,2:0:0:0:
256,192,51016,1,2,2:0:0:0:
256,192,51041,1,2,2:0:0:0:
256,192,51066,1,2,2:0:0:0:
256,192,51090,1,2,2:0:0:0:
256,192,51115,1,2,2:0:0:0:
256,192,51140,1,2,2:0:0:0:
256,192,51165,1,2,2:0:0:0:
256,192,51189,1,2,2:0:0:0:
256,192,51214,1,2,2:0:0:0:
256,192,51238,1,2,2:0:0:0:
256,192,51263,1,2,2:0:0:0:
256,192,51287,1,2,2:0:0:0:
256,192,51312,1,2,2:0:0:0:
256,192,51337,1,2,2:0:0:0:
256,192,51362,1,2,2:0:0:0:
256,192,51386,1,2,2:0:0:0:
256,192,51411,1,2,2:0:0:0:
256,192,51436,1,2,2:0:0:0:
256,192,51461,1,2,2:0:0:0:
256,192,51485,1,2,2:0:0:0:
256,192,51510,1,2,2:0:0:0:
256,192,51534,1,2,2:0:0:0:
256,192,51559,1,2,2:0:0:0:
256,192,51583,1,2,2:0:0:0:
256,192,51608,1,2,2:0:0:0:
256,192,51633,1,2,2:0:0:0:
256,192,51658,1,2,2:0:0:0:
256,192,51682,1,2,2:0:0:0:
256,192,51707,1,2,2:0:0:0:
256,192,51732,1,2,2:0:0:0:
256,192,51757,1,2,2:0:0:0:
256,192,51781,1,2,2:0:0:0:
256,192,51806,1,2,2:0:0:0:
256,192,51831,1,2,2:0:0:0:
256,192,51856,1,2,2:0:0:0:
256,192,51880,1,2,2:0:0:0:
256,192,51905,1,2,2:0:0:0:
256,192,51929,1,2,2:0:0:0:
256,192,51954,1,2,2:0:0:0:
256,192,51978,1,2,2:0:0:0:
256,192,52003,1,2,2:0:0:0:
256,192,52028,1,2,2:0:0:0:
256,192,52053,1,2,2:0:0:0:
256,192,52077,1,2,2:0:0:0:
256,192,52102,1,2,2:0:0:0:
256,192,52127,1,2,2:0:0:0:
256,192,52152,1,2,2:0:0:0:
256,192,52176,1,2,2:0:0:0:
256,192,52201,1,2,2:0:0:0:
256,192,52225,1,2,2:0:0:0:
256,192,52250,1,2,2:0:0:0:
256,192,52274,1,2,2:0:0:0:
256,192,52299,1,2,2:0:0:0:
256,192,52324,1,2,2:0:0:0:
256,192,52349,1,2,2:0:0:0:
256,192,52373,1,2,2:0:0:0:
256,192,52398,1,2,2:0:0:0:
256,192,52423,1,2,2:0:0:0:
256,192,52447,1,2,2:0:0:0:
256,192,52472,1,2,2:0:0:0:
256,192,52497,1,2,2:0:0:0:
256,192,52521,1,2,2:0:0:0:
256,192,52546,1,2,2:0:0:0:
256,192,52571,1,2,2:0:0:0:
256,192,52596,1,2,2:0:0:0:
256,192,52620,1,2,2:0:0:0:
256,192,52645,1,2,2:0:0:0:
256,192,52669,1,2,2:0:0:0:
256,192,52694,1,2,2:0:0:0:
256,192,52719,1,2,2:0:0:0:
256,192,52744,1,2,2:0:0:0:
256,192,52768,1,2,2:0:0:0:
256,192,52793,1,2,2:0:0:0:
256,192,52817,1,2,2:0:0:0:
256,192,52842,1,2,2:0:0:0:
256,192,52866,1,2,2:0:0:0:
256,192,52891,1,2,2:0:0:0:
256,192,52916,1,2,2:0:0:0:
256,192,52941,1,2,2:0:0:0:
256,192,52965,1,2,2:0:0:0:
256,192,52990,1,2,2:0:0:0:
256,192,53015,1,2,2:0:0:0:
256,192,53040,1,2,2:0:0:0:
256,192,53064,1,2,2:0:0:0:
256,192,53089,1,2,2:0:0:0:
256,192,53113,1,2,2:0:0:0:
256,192,53138,1,2,2:0:0:0:
256,192,53163,1,2,2:0:0:0:
256,192,53187,1,2,2:0:0:0:
256,192,53212,1,2,2:0:0:0:
256,192,53236,1,2,2:0:0:0:
256,192,53261,1,2,2:0:0:0:
256,192,53286,1,2,2:0:0:0:
256,192,53310,1,2,2:0:0:0:
256,192,53335,1,2,2:0:0:0:
256,192,53360,1,2,2:0:0:0:
256,192,53385,1,2,2:0:0:0:
256,192,53409,1,2,2:0:0:0:
256,192,53434,1,2,2:0:0:0:
256,192,53458,1,2,2:0:0:0:
256,192,53483,1,2,2:0:0:0:
256,192,53508,1,2,2:0:0:0:
256,192,53533,1,2,2:0:0:0:
256,192,53557,1,2,2:0:0:0:
256,192,53582,1,2,2:0:0:0:
256,192,53607,1,2,2:0:0:0:
256,192,53632,1,2,2:0:0:0:
256,192,53656,1,2,2:0:0:0:
256,192,53681,1,2,2:0:0:0:
256,192,53706,1,2,2:0:0:0:
256,192,53731,1,2,2:0:0:0:
256,192,53755,1,2,2:0:0:0:
256,192,53780,1,2,2:0:0:0:
256,192,53804,1,2,2:0:0:0:
256,192,53829,1,2,2:0:0:0:
256,192,53853,1,2,2:0:0:0:
256,192,53878,1,2,2:0:0:0:
256,192,53903,1,2,2:0:0:0:
256,192,53928,1,2,2:0:0:0:
256,192,53952,1,2,2:0:0:0:
256,192,53977,1,2,2:0:0:0:
256,192,54002,1,2,2:0:0:0:
256,192,54026,1,2,2:0:0:0:
256,192,54051,1,2,2:0:0:0:
256,192,54076,1,2,2:0:0:0:
256,192,54100,1,2,2:0:0:0:
256,192,54125,1,2,2:0:0:0:
256,192,54150,1,2,2:0:0:0:
256,192,54175,1,2,2:0:0:0:
256,192,54199,1,2,2:0:0:0:
256,192,54224,1,2,2:0:0:0:
256,192,54248,1,2,2:0:0:0:
256,192,54273,1,2,2:0:0:0:
256,192,54298,1,2,2:0:0:0:
256,192,54323,1,2,2:0:0:0:
256,192,54347,1,2,2:0:0:0:
256,192,54372,1,2,2:0:0:0:
256,192,54397,1,2,2:0:0:0:
256,192,54421,1,2,2:0:0:0:
256,192,54446,1,2,2:0:0:0:
256,192,54471,1,2,2:0:0:0:
256,192,54495,1,2,2:0:0:0:
256,192,54520,1,2,2:0:0:0:
256,192,54545,1,2,2:0:0:0:
256,192,54570,1,2,2:0:0:0:
256,192,54594,1,2,2:0:0:0:
256,192,54619,1,2,2:0:0:0:
256,192,54643,1,2,2:0:0:0:
256,192,54668,1,2,2:0:0:0:
256,192,54692,1,2,2:0:0:0:
256,192,54717,1,2,2:0:0:0:
256,192,54741,1,2,2:0:0:0:
256,192,54766,1,2,2:0:0:0:
256,192,54791,1,2,2:0:0:0:
256,192,54816,1,2,2:0:0:0:
256,192,54840,1,2,2:0:0:0:
256,192,54865,1,2,2:0:0:0:
256,192,54890,1,2,2:0:0:0:
256,192,54915,1,2,2:0:0:0:
256,192,54939,1,2,2:0:0:0:
256,192,54964,1,2,2:0:0:0:
256,192,54988,1,2,2:0:0:0:
256,192,55013,1,2,2:0:0:0:
256,192,55037,1,2,2:0:0:0:
256,192,55062,1,2,2:0:0:0:
256,192,55087,1,2,2:0:0:0:
256,192,55112,1,2,2:0:0:0:
256,192,55136,1,2,2:0:0:0:
256,192,55161,1,2,2:0:0:0:
256,192,55186,1,2,2:0:0:0:
256,192,55210,1,2,2:0:0:0:
256,192,55235,1,2,2:0:0:0:
256,192,55260,1,2,2:0:0:0:
256,192,55284,1,2,2:0:0:0:
256,192,55309,1,2,2:0:0:0:
256,192,55334,1,2,2:0:0:0:
256,192,55359,1,2,2:0:0:0:
256,192,55383,1,2,2:0:0:0:
256,192,55408,1,2,2:0:0:0:
256,192,55432,1,2,2:0:0:0:
256,192,55457,1,2,2:0:0:0:
256,192,55482,1,2,2:0:0:0:
256,192,55507,1,2,2:0:0:0:
256,192,55531,1,2,2:0:0:0:
256,192,55556,1,2,2:0:0:0:
256,192,55581,1,2,2:0:0:0:
256,192,55606,1,2,2:0:0:0:
256,192,55630,1,2,2:0:0:0:
256,192,55655,1,2,2:0:0:0:
256,192,55679,1,2,2:0:0:0:
256,192,55704,1,2,2:0:0:0:
256,192,55728,1,2,2:0:0:0:
256,192,55753,1,2,2:0:0:0:
256,192,55778,1,2,2:0:0:0:
256,192,55803,1,2,2:0:0:0:
256,192,55827,1,2,2:0:0:0:
256,192,55852,1,2,2:0:0:0:
256,192,55877,1,2,2:0:0:0:
256,192,55902,1,2,2:0:0:0:
256,192,55926,1,2,2:0:0:0:
256,192,55951,1,2,2:0:0:0:
256,192,55975,1,2,2:0:0:0:
256,192,56000,1,2,2:0:0:0:
256,192,56024,1,2,2:0:0:0:
256,192,56049,1,2,2:0:0:0:
256,192,56074,1,2,2:0:0:0:
256,192,56099,1,2,2:0:0:0:
256,192,56123,1,2,2:0:0:0:
256,192,56148,1,2,2:0:0:0:
256,192,56173,1,2,2:0:0:0:
256,192,56198,1,2,2:0:0:0:
256,192,56222,1,2,2:0:0:0:
256,192,56247,1,2,2:0:0:0:
256,192,56271,1,2,2:0:0:0:
256,192,56296,1,2,2:0:0:0:
256,192,56320,1,2,2:0:0:0:
256,192,56345,1,2,2:0:0:0:
256,192,56370,1,2,2:0:0:0:
256,192,56395,1,2,2:0:0:0:
256,192,56419,1,2,2:0:0:0:
256,192,56444,1,2,2:0:0:0:
256,192,56469,1,2,2:0:0:0:
256,192,56494,1,2,2:0:0:0:
256,192,56518,1,2,2:0:0:0:
256,192,56543,1,2,2:0:0:0:
256,192,56567,1,2,2:0:0:0:
256,192,56592,1,2,2:0:0:0:
256,192,56616,1,2,2:0:0:0:
256,192,56641,1,2,2:0:0:0:
256,192,56666,1,2,2:0:0:0:
256,192,56691,1,2,2:0:0:0:
256,192,56715,1,2,2:0:0:0:
256,192,56740,1,2,2:0:0:0:
256,192,56764,1,2,2:0:0:0:
256,192,56789,1,2,2:0:0:0:
256,192,56814,1,2,2:0:0:0:
256,192,56838,1,2,2:0:0:0:
256,192,56863,1,2,2:0:0:0:
256,192,56888,1,2,2:0:0:0:
256,192,56912,1,2,2:0:0:0:
256,192,56937,1,2,2:0:0:0:
256,192,56962,1,2,2:0:0:0:
256,192,56987,1,2,2:0:0:0:
256,192,57011,1,2,2:0:0:0:
256,192,57036,1,2,2:0:0:0:
256,192,57061,1,2,2:0:0:0:
256,192,57086,1,2,2:0:0:0:
256,192,57110,1,2,2:0:0:0:
256,192,57135,1,2,2:0:0:0:
256,192,57160,1,2,2:0:0:0:
256,192,57184,1,2,2:0:0:0:
256,192,57209,1,2,2:0:0:0:
256,192,57234,1,2,2:0:0:0:
256,192,57259,1,2,2:0:0:0:
256,192,57283,1,2,2:0:0:0:
256,192,57308,1,2,2:0:0:0:
256,192,57332,1,2,2:0:0:0:
256,192,57357,1,2,2:0:0:0:
256,192,57382,1,2,2:0:0:0:
256,192,57406,1,2,2:0:0:0:
256,192,57431,1,2,2:0:0:0:
256,192,57456,1,2,2:0:0:0:
256,192,57481,1,2,2:0:0:0:
256,192,57505,1,2,2:0:0:0:
256,192,57530,1,2,2:0:0:0:
256,192,57555,1,2,2:0:0:0:
256,192,57579,1,2,2:0:0:0:
256,192,57604,1,2,2:0:0:0:
256,192,57629,1,2,2:0:0:0:
256,192,57653,1,2,2:0:0:0:
256,192,57678,1,2,2:0:0:0:
256,192,57703,1,2,2:0:0:0:
256,192,57728,1,2,2:0:0:0:
256,192,57752,1,2,2:0:0:0:
256,192,57777,1,2,2:0:0:0:
256,192,57801,1,2,2:0:0:0:
256,192,57826,1,2,2:0:0:0:
256,192,57850,1,2,2:0:0:0:
256,192,57875,1,2,2:0:0:0:
256,192,57899,1,2,2:0:0:0:
256,192,57924,1,2,2:0:0:0:
256,192,57949,1,2,2:0:0:0:
256,192,57973,1,2,2:0:0:0:
256,192,57998,1,2,2:0:0:0:
256,192,58023,1,2,2:0:0:0:
256,192,58047,1,2,2:0:0:0:
256,192,58072,1,2,2:0:0:0:
256,192,58097,1,2,2:0:0:0:
256,192,58122,1,2,2:0:0:0:
256,192,58146,1,2,2:0:0:0:
256,192,58171,1,2,2:0:0:0:
256,192,58195,1,2,2:0:0:0:
256,192,58220,1,2,2:0:0:0:
256,192,58245,1,2,2:0:0:0:
256,192,58270,1,2,2:0:0:0:
256,192,58294,1,2,2:0:0:0:
256,192,58319,1,2,2:0:0:0:
256,192,58344,1,2,2:0:0:0:
256,192,58368,1,2,2:0:0:0:
256,192,58393,1,2,2:0:0:0:
256,192,58418,1,2,2:0:0:0:
256,192,58442,1,2,2:0:0:0:
256,192,58467,1,2,2:0:0:0:
256,192,58492,1,2,2:0:0:0:
256,192,58517,1,2,2:0:0:0:
256,192,58541,1,2,2:0:0:0:
256,192,58566,1,2,2:0:0:0:
256,192,58590,1,2,2:0:0:0:
256,192,58615,1,2,2:0:0:0:
256,192,58640,1,2,2:0:0:0:
256,192,58665,1,2,2:0:0:0:
256,192,58689,1,2,2:0:0:0:
256,192,58714,1,2,2:0:0:0:
256,192,58739,1,2,2:0:0:0:
256,192,58763,1,2,2:0:0:0:
256,192,58788,1,2,2:0:0:0:
256,192,58813,1,2,2:0:0:0:
256,192,58837,1,2,2:0:0:0:
256,192,58862,1,2,2:0:0:0:
256,192,58887,1,2,2:0:0:0:
256,192,58912,1,2,2:0:0:0:
256,192,58936,1,2,2:0:0:0:
256,192,58961,1,2,2:0:0:0:
256,192,58985,1,2,2:0:0:0:
256,192,59010,1,2,2:0:0:0:
256,192,59034,1,2,2:0:0:0:
256,192,59059,1,2,2:0:0:0:
256,192,59083,1,2,2:0:0:0:
256,192,59108,1,2,2:0:0:0:
256,192,59133,1,2,2:0:0:0:
256,192,59157,1,2,2:0:0:0:
256,192,59182,1,2,2:0:0:0:
256,192,59207,1,2,2:0:0:0:
256,192,59231,1,2,2:0:0:0:
256,192,59256,1,2,2:0:0:0:
256,192,59281,1,2,2:0:0:0:
256,192,59306,1,2,2:0:0:0:
256,192,59331,1,2,2:0:0:0:
256,192,59356,1,2,2:0:0:0:
256,192,59380,1,2,2:0:0:0:
256,192,59405,1,2,2:0:0:0:
256,192,59429,1,2,2:0:0:0:
256,192,59454,1,2,2:0:0:0:
256,192,59478,1,2,2:0:0:0:
256,192,59503,1,2,2:0:0:0:
256,192,59528,1,2,2:0:0:0:
256,192,59552,1,2,2:0:0:0:
256,192,59577,1,2,2:0:0:0:
256,192,59602,1,2,2:0:0:0:
256,192,59626,1,2,2:0:0:0:
256,192,59651,1,2,2:0:0:0:
256,192,59676,1,2,2:0:0:0:
256,192,59701,1,2,2:0:0:0:
256,192,59725,1,2,2:0:0:0:
256,192,59750,1,2,2:0:0:0:
256,192,59774,1,2,2:0:0:0:
256,192,59799,1,2,2:0:0:0:
256,192,59824,1,2,2:0:0:0:
256,192,59849,1,2,2:0:0:0:
256,192,59873,1,2,2:0:0:0:
256,192,59898,1,2,2:0:0:0:
256,192,59923,1,2,2:0:0:0:
256,192,59947,1,2,2:0:0:0:
256,192,59972,1,2,2:0:0:0:
256,192,59997,1,2,2:0:0:0:
256,192,60021,1,2,2:0:0:0:
256,192,60046,1,2,2:0:0:0:
256,192,60071,1,2,2:0:0:0:
256,192,60096,1,2,2:0:0:0:
256,192,60120,1,2,2:0:0:0:
256,192,60145,1,2,2:0:0:0:
256,192,60169,1,2,2:0:0:0:
256,192,60194,1,2,2:0:0:0:
256,192,60219,1,2,2:0:0:0:
256,192,60244,1,2,2:0:0:0:
256,192,60268,1,2,2:0:0:0:
256,192,60293,1,2,2:0:0:0:
256,192,60318,1,2,2:0:0:0:
256,192,60342,1,2,2:0:0:0:
256,192,60367,1,2,2:0:0:0:
256,192,60392,1,2,2:0:0:0:
256,192,60416,1,2,2:0:0:0:
256,192,60441,1,2,2:0:0:0:
256,192,60466,1,2,2:0:0:0:
256,192,60491,1,2,2:0:0:0:
256,192,60515,1,2,2:0:0:0:
256,192,60540,1,2,2:0:0:0:
256,192,60564,1,2,2:0:0:0:
256,192,60589,1,2,2:0:0:0:
256,192,60613,1,2,2:0:0:0:
256,192,60638,1,2,2:0:0:0:
256,192,60662,1,2,2:0:0:0:
256,192,60687,1,2,2:0:0:0:
256,192,60712,1,2,2:0:0:0:
256,192,60736,1,2,2:0:0:0:
256,192,60761,1,2,2:0:0:0:
256,192,60786,1,2,2:0:0:0:
256,192,60810,1,2,2:0:0:0:
256,192,60835,1,2,2:0:0:0:
256,192,60860,1,2,2:0:0:0:
256,192,60885,1,2,2:0:0:0:
256,192,60909,1,2,2:0:0:0:
256,192,60934,1,2,2:0:0:0:
256,192,60958,1,2,2:0:0:0:
256,192,60983,1,2,2:0:0:0:
256,192,61008,1,2,2:0:0:0:
256,192,61033,1,2,2:0:0:0:
256,192,61057,1,2,2:0:0:0:
256,192,61082,1,2,2:0:0:0:
256,192,61107,1,2,2:0:0:0:
256,192,61131,1,2,2:0:0:0:
256,192,61156,1,2,2:0:0:0:
256,192,61181,1,2,2:0:0:0:
256,192,61205,1,2,2:0:0:0:
256,192,61230,1,2,2:0:0:0:
256,192,61255,1,2,2:0:0:0:
256,192,61280,1,2,2:0:0:0:
256,192,61304,1,2,2:0:0:0:
256,192,61329,1,2,2:0:0:0:
256,192,61353,1,2,2:0:0:0:
256,192,61378,1,2,2:0:0:0:
256,192,61403,1,2,2:0:0:0:
256,192,61428,1,2,2:0:0:0:
256,192,61452,1,2,2:0:0:0:
256,192,61477,1,2,2:0:0:0:
256,192,61502,1,2,2:0:0:0:
256,192,61526,1,2,2:0:0:0:
256,192,61551,1,2,2:0:0:0:
256,192,61576,1,2,2:0:0:0:
256,192,61600,1,2,2:0:0:0:
256,192,61625,1,2,2:0:0:0:
256,192,61650,1,2,2:0:0:0:
256,192,61675,1,2,2:0:0:0:
256,192,61699,1,2,2:0:0:0:
256,192,61724,1,2,2:0:0:0:
256,192,61748,1,2,2:0:0:0:
256,192,61773,1,2,2:0:0:0:
256,192,61798,1,2,2:0:0:0:
256,192,61823,1,2,2:0:0:0:
256,192,61847,1,2,2:0:0:0:
256,192,61872,1,2,2:0:0:0:
256,192,61897,1,2,2:0:0:0:
256,192,61921,1,2,2:0:0:0:
256,192,61946,1,2,2:0:0:0:
256,192,61971,1,2,2:0:0:0:
256,192,61995,1,2,2:0:0:0:
256,192,62020,1,2,2:0:0:0:
256,192,62045,1,2,2:0:0:0:
256,192,62070,1,2,2:0:0:0:
256,192,62094,1,2,2:0:0:0:
256,192,62119,1,2,2:0:0:0:
256,192,62143,1,2,2:0:0:0:
256,192,62168,1,2,2:0:0:0:
256,192,62192,1,2,2:0:0:0:
256,192,62217,1,2,2:0:0:0:
256,192,62241,1,2,2:0:0:0:
256,192,62266,1,2,2:0:0:0:
256,192,62291,1,2,2:0:0:0:
256,192,62315,1,2,2:0:0:0:
256,192,62340,1,2,2:0:0:0:
256,192,62365,1,2,2:0:0:0:
256,192,62389,1,2,2:0:0:0:
256,192,62414,1,2,2:0:0:0:
256,192,62439,1,2,2:0:0:0:
256,192,62464,1,2,2:0:0:0:
256,192,62488,1,2,2:0:0:0:
256,192,62513,1,2,2:0:0:0:
256,192,62537,1,2,2:0:0:0:
256,192,62562,1,2,2:0:0:0:
256,192,62587,1,2,2:0:0:0:
256,192,62612,1,2,2:0:0:0:
256,192,62636,1,2,2:0:0:0:
256,192,62661,1,2,2:0:0:0:
256,192,62686,1,2,2:0:0:0:
256,192,62711,1,2,2:0:0:0:
256,192,62735,1,2,2:0:0:0:
256,192,62760,1,2,2:0:0:0:
256,192,62784,1,2,2:0:0:0:
256,192,62809,1,2,2:0:0:0:
256,192,62833,1,2,2:0:0:0:
256,192,62858,1,2,2:0:0:0:
256,192,62883,1,2,2:0:0:0:
256,192,62908,1,2,2:0:0:0:
256,192,62932,1,2,2:0:0:0:
256,192,62957,1,2,2:0:0:0:
256,192,62982,1,2,2:0:0:0:
256,192,63006,1,2,2:0:0:0:
256,192,63031,1,2,2:0:0:0:
256,192,63056,1,2,2:0:0:0:
256,192,63081,1,2,2:0:0:0:
256,192,63105,1,2,2:0:0:0:
256,192,63130,1,2,2:0:0:0:
256,192,63155,1,2,2:0:0:0:
256,192,63179,1,2,2:0:0:0:
256,192,63203,1,2,2:0:0:0:
256,192,63228,1,2,2:0:0:0:
256,192,63253,1,2,2:0:0:0:
256,192,63278,1,2,2:0:0:0:
256,192,63302,1,2,2:0:0:0:
256,192,63327,1,2,2:0:0:0:
256,192,63352,1,2,2:0:0:0:
256,192,63377,1,2,2:0:0:0:
256,192,63401,1,2,2:0:0:0:
256,192,63426,1,2,2:0:0:0:
256,192,63451,128,2,63648:2:0:0:0:
256,192,63747,1,2,2:0:0:0:
256,192,63845,1,2,2:0:0:0:
256,192,63944,1,2,2:0:0:0:
256,192,64043,1,2,2:0:0:0:
256,192,64141,1,2,2:0:0:0:
256,192,64240,1,2,2:0:0:0:
256,192,64339,1,2,2:0:0:0:
256,192,64437,1,2,2:0:0:0:
256,192,64536,1,2,2:0:0:0:
256,192,64635,1,2,2:0:0:0:
256,192,64733,1,2,2:0:0:0:
256,192,64832,1,2,2:0:0:0:
256,192,64931,1,2,2:0:0:0:
256,192,65030,1,2,2:0:0:0:
256,192,65128,1,2,2:0:0:0:
256,192,65227,1,2,2:0:0:0:
256,192,65326,1,2,2:0:0:0:
256,192,65424,1,2,2:0:0:0:
256,192,65523,1,2,2:0:0:0:
256,192,65622,1,2,2:0:0:0:
256,192,65720,1,2,2:0:0:0:
256,192,65819,1,2,2:0:0:0:
256,192,65918,1,2,2:0:0:0:
256,192,66016,1,2,2:0:0:0:
256,192,66115,1,2,2:0:0:0:
256,192,66214,128,2,66608:2:0:0:0:
256,192,66707,128,2,69470:2:0:0:0:
256,192,69766,128,2,69964:2:0:0:0:
256,192,70062,1,2,2:0:0:0:
256,192,70161,128,2,70358:2:0:0:0:
256,192,70457,1,2,2:0:0:0:
256,192,70556,128,2,70753:2:0:0:0:
256,192,70852,1,2,2:0:0:0:
256,192,70951,128,2,71148:2:0:0:0:
256,192,71247,1,2,2:0:0:0:
256,192,71345,128,2,71543:2:0:0:0:
256,192,71641,1,2,2:0:0:0:
256,192,71740,128,2,71937:2:0:0:0:
256,192,72036,1,2,2:0:0:0:
256,192,72061,1,2,2:0:0:0:
256,192,72085,1,2,2:0:0:0:
256,192,72110,1,2,2:0:0:0:
256,192,72135,1,2,2:0:0:0:
256,192,72233,1,2,2:0:0:0:
256,192,72258,1,2,2:0:0:0:
256,192,72282,1,2,2:0:0:0:
256,192,72307,1,2,2:0:0:0:
256,192,72332,1,2,2:0:0:0:
256,192,72431,1,2,2:0:0:0:
256,192,72456,1,2,2:0:0:0:
256,192,72480,1,2,2:0:0:0:
256,192,72505,1,2,2:0:0:0:
256,192,72530,1,2,2:0:0:0:
256,192,72628,1,2,2:0:0:0:
256,192,72653,1,2,2:0:0:0:
256,192,72677,1,2,2:0:0:0:
256,192,72702,1,2,2:0:0:0:
256,192,72727,1,2,2:0:0:0:
256,192,72826,1,2,2:0:0:0:
256,192,72850,1,2,2:0:0:0:
256,192,72874,1,2,2:0:0:0:
256,192,72899,1,2,2:0:0:0:
256,192,72924,1,2,2:0:0:0:
256,192,73023,1,2,2:0:0:0:
256,192,73048,1,2,2:0:0:0:
256,192,73072,1,2,2:0:0:0:
256,192,73097,1,2,2:0:0:0:
256,192,73122,1,2,2:0:0:0:
256,192,73220,1,2,2:0:0:0:
256,192,73245,1,2,0:0:0:0:
256,192,73270,1,2,0:0:0:0:
256,192,73294,1,2,0:0:0:0:
256,192,73319,1,2,2:0:0:0:
256,192,73418,1,2,2:0:0:0:
256,192,73442,1,2,0:0:0:0:
256,192,73467,1,2,0:0:0:0:
256,192,73492,1,2,0:0:0:0:
256,192,73516,1,2,2:0:0:0:
256,192,73615,1,2,2:0:0:0:
256,192,73640,1,2,0:0:0:0:
256,192,73664,1,2,0:0:0:0:
256,192,73689,1,2,0:0:0:0:
256,192,73714,1,2,2:0:0:0:
256,192,73812,1,2,2:0:0:0:
256,192,73837,1,2,0:0:0:0:
256,192,73862,1,2,0:0:0:0:
256,192,73886,1,2,0:0:0:0:
256,192,73911,1,2,2:0:0:0:
256,192,74010,1,2,2:0:0:0:
256,192,74034,1,2,0:0:0:0:
256,192,74059,1,2,0:0:0:0:
256,192,74084,1,2,0:0:0:0:
256,192,74108,1,2,2:0:0:0:
256,192,74207,1,2,2:0:0:0:
256,192,74232,1,2,0:0:0:0:
256,192,74257,1,2,0:0:0:0:
256,192,74281,1,2,0:0:0:0:
256,192,74306,1,2,2:0:0:0:
256,192,74405,1,2,2:0:0:0:
256,192,74429,1,2,0:0:0:0:
256,192,74454,1,2,0:0:0:0:
256,192,74479,1,2,0:0:0:0:
256,192,74503,1,2,2:0:0:0:
256,192,74602,128,2,74701:2:0:0:0:
256,192,74799,1,2,2:0:0:0:
256,192,74824,1,2,0:0:0:0:
256,192,74849,1,2,0:0:0:0:
256,192,74873,1,2,0:0:0:0:
256,192,74898,1,2,2:0:0:0:
256,192,74997,1,2,2:0:0:0:
256,192,75021,1,2,0:0:0:0:
256,192,75046,1,2,0:0:0:0:
256,192,75071,1,2,0:0:0:0:
256,192,75095,1,2,2:0:0:0:
256,192,75194,1,2,2:0:0:0:
256,192,75219,1,2,0:0:0:0:
256,192,75243,1,2,0:0:0:0:
256,192,75268,1,2,0:0:0:0:
256,192,75293,1,2,2:0:0:0:
256,192,75391,1,2,2:0:0:0:
256,192,75416,1,2,0:0:0:0:
256,192,75441,1,2,0:0:0:0:
256,192,75465,1,2,0:0:0:0:
256,192,75490,1,2,2:0:0:0:
256,192,75589,1,2,2:0:0:0:
256,192,75687,1,2,2:0:0:0:
256,192,75786,128,2,75885:2:0:0:0:
256,192,75983,1,2,2:0:0:0:
256,192,76082,128,2,76477:2:0:0:0:
256,192,76576,128,2,77266:2:0:0:0:
256,192,77365,128,2,78155:2:0:0:0:
256,192,78253,1,2,2:0:0:0:
256,192,78352,1,2,2:0:0:0:
256,192,78451,1,2,2:0:0:0:
256,192,78549,128,2,78648:2:0:0:0:
256,192,78747,128,2,78845:2:0:0:0:
256,192,78944,128,2,79043:2:0:0:0:
256,192,79141,1,2,2:0:0:0:
256,192,79240,1,2,2:0:0:0:
256,192,79339,128,2,80424:2:0:0:0:
256,192,80523,128,2,81411:2:0:0:0:
256,192,81510,1,2,2:0:0:0:
256,192,81608,1,2,2:0:0:0:
256,192,81707,128,2,81806:2:0:0:0:
256,192,81905,1,2,2:0:0:0:
256,192,82003,1,2,2:0:0:0:
256,192,82102,128,2,82201:2:0:0:0:
256,192,82299,1,2,2:0:0:0:
256,192,82398,1,2,2:0:0:0:
256,192,82497,1,2,2:0:0:0:
256,192,82595,1,2,2:0:0:0:
256,192,82694,1,2,2:0:0:0:
256,192,82793,1,2,2:0:0:0:
256,192,82891,128,2,83582:2:0:0:0:
256,192,83681,128,2,84470:2:0:0:0:
256,192,84569,1,2,2:0:0:0:
256,192,84668,128,2,84766:2:0:0:0:
256,192,84865,1,2,2:0:0:0:
256,192,84964,1,2,2:0:0:0:
256,192,85062,1,2,2:0:0:0:
256,192,85161,1,2,2:0:0:0:
256,192,85260,128,2,85358:2:0:0:0:
256,192,85457,1,2,2:0:0:0:
256,192,85556,1,2,2:0:0:0:
256,192,85655,1,2,2:0:0:0:
256,192,85753,1,2,2:0:0:0:
256,192,85852,1,2,2:0:0:0:
256,192,85951,1,2,2:0:0:0:
256,192,86049,128,2,86740:2:0:0:0:
256,192,86839,128,2,87628:2:0:0:0:
256,192,87727,1,2,2:0:0:0:
256,192,87826,1,2,2:0:0:0:
256,192,87924,1,2,2:0:0:0:
256,192,88023,1,2,2:0:0:0:
256,192,88122,1,2,2:0:0:0:
256,192,88220,1,2,2:0:0:0:
256,192,88319,1,2,2:0:0:0:
256,192,88418,1,2,2:0:0:0:
256,192,88516,1,2,2:0:0:0:
256,192,88615,1,2,2:0:0:0:
256,192,88714,1,2,2:0:0:0:
256,192,88812,1,2,2:0:0:0:
256,192,88911,1,2,2:0:0:0:
256,192,89010,1,2,2:0:0:0:
256,192,89108,1,2,2:0:0:0:
256,192,89207,1,2,2:0:0:0:
256,192,89306,1,2,2:0:0:0:
256,192,89405,1,2,2:0:0:0:
256,192,89503,1,2,2:0:0:0:
256,192,89602,1,2,2:0:0:0:
256,192,89701,1,2,2:0:0:0:
256,192,89799,1,2,2:0:0:0:
256,192,89898,1,2,2:0:0:0:
256,192,89997,1,2,2:0:0:0:
256,192,90095,1,2,2:0:0:0:
256,192,90194,1,2,2:0:0:0:
256,192,90293,1,2,2:0:0:0:
256,192,90391,1,2,2:0:0:0:
256,192,90490,1,2,2:0:0:0:
256,192,90589,1,2,2:0:0:0:
256,192,90687,1,2,2:0:0:0:
256,192,90786,1,2,2:0:0:0:
256,192,90885,1,2,2:0:0:0:
256,192,90983,1,2,2:0:0:0:
256,192,91082,1,2,2:0:0:0:
256,192,91181,128,2,91280:2:0:0:0:
256,192,91378,1,2,2:0:0:0:
256,192,91477,128,2,91576:2:0:0:0:
256,192,91674,1,2,2:0:0:0:
256,192,91773,1,2,2:0:0:0:
256,192,91872,1,2,2:0:0:0:
256,192,91970,1,2,2:0:0:0:
256,192,92069,1,2,2:0:0:0:
256,192,92168,1,2,2:0:0:0:
256,192,92266,1,2,2:0:0:0:
256,192,92365,128,2,93056:2:0:0:0:
256,192,93155,128,2,93944:2:0:0:0:
256,192,94043,1,2,2:0:0:0:
256,192,94141,1,2,2:0:0:0:
256,192,94240,1,2,2:0:0:0:
256,192,94339,1,2,2:0:0:0:
256,192,94437,1,2,2:0:0:0:
256,192,94536,1,2,2:0:0:0:
256,192,94635,1,2,2:0:0:0:
256,192,94733,1,2,2:0:0:0:
256,192,94832,1,2,2:0:0:0:
256,192,94931,1,2,2:0:0:0:
256,192,95030,1,2,2:0:0:0:
256,192,95128,1,2,2:0:0:0:
256,192,95227,1,2,2:0:0:0:
256,192,95326,1,2,2:0:0:0:
256,192,95424,1,2,2:0:0:0:
256,192,95523,1,2,2:0:0:0:
256,192,95622,1,2,2:0:0:0:
256,192,95720,1,2,2:0:0:0:
256,192,95819,1,2,2:0:0:0:
256,192,95918,1,2,2:0:0:0:
256,192,96016,1,2,2:0:0:0:
256,192,96115,1,2,2:0:0:0:
256,192,96214,1,2,2:0:0:0:
256,192,96312,1,2,2:0:0:0:
256,192,96411,1,2,2:0:0:0:
256,192,96510,1,2,2:0:0:0:
256,192,96608,1,2,2:0:0:0:
256,192,96707,1,2,2:0:0:0:
256,192,96806,1,2,2:0:0:0:
256,192,96905,1,2,2:0:0:0:
256,192,97003,1,2,2:0:0:0:
256,192,97102,1,2,2:0:0:0:
256,192,97201,1,2,2:0:0:0:
256,192,97299,1,2,2:0:0:0:
256,192,97398,128,2,97497:2:0:0:0:
256,192,97595,128,2,97694:2:0:0:0:
256,192,97793,1,2,2:0:0:0:
256,192,97891,1,2,2:0:0:0:
256,192,98089,1,2,2:0:0:0:
256,192,98187,1,2,2:0:0:0:
256,192,98286,128,2,98385:2:0:0:0:
256,192,98483,128,2,98582:2:0:0:0:
256,192,98681,128,2,98780:2:0:0:0:
256,192,98878,1,2,2:0:0:0:
256,192,98977,1,2,2:0:0:0:
256,192,99076,128,2,99174:2:0:0:0:
256,192,99273,1,2,2:0:0:0:
256,192,99372,1,2,2:0:0:0:
256,192,99470,128,2,100260:2:0:0:0:
256,192,100358,1,2,2:0:0:0:
256,192,100457,1,2,2:0:0:0:
256,192,100556,1,2,2:0:0:0:
256,192,100655,1,2,2:0:0:0:
256,192,100753,1,2,2:0:0:0:
256,192,100852,1,2,2:0:0:0:
256,192,100951,1,2,2:0:0:0:
256,192,101049,1,2,2:0:0:0:
256,192,101148,1,2,2:0:0:0:
256,192,101247,1,2,2:0:0:0:
256,192,101345,1,2,2:0:0:0:
256,192,101444,1,2,2:0:0:0:
256,192,101543,1,2,2:0:0:0:
256,192,101641,1,2,2:0:0:0:
256,192,101740,1,2,2:0:0:0:
256,192,101839,1,2,2:0:0:0:
256,192,101937,1,2,2:0:0:0:
256,192,102036,1,2,2:0:0:0:
256,192,102135,1,2,2:0:0:0:
256,192,102233,1,2,2:0:0:0:
256,192,102332,1,2,2:0:0:0:
256,192,102431,1,2,2:0:0:0:
256,192,102530,1,2,2:0:0:0:
256,192,102628,1,2,2:0:0:0:
256,192,102727,1,2,2:0:0:0:
256,192,102826,1,2,2:0:0:0:
256,192,102924,1,2,2:0:0:0:
256,192,103023,1,2,2:0:0:0:
256,192,103122,1,2,2:0:0:0:
256,192,103220,1,2,2:0:0:0:
256,192,103319,1,2,2:0:0:0:
256,192,103418,1,2,2:0:0:0:
256,192,103516,1,2,2:0:0:0:
256,192,103615,1,2,2:0:0:0:
256,192,103714,1,2,2:0:0:0:
256,192,103812,1,2,2:0:0:0:
256,192,103911,1,2,2:0:0:0:
256,192,104010,1,2,2:0:0:0:
256,192,104108,1,2,2:0:0:0:
256,192,104207,1,2,2:0:0:0:
256,192,104306,1,2,2:0:0:0:
256,192,104405,1,2,2:0:0:0:
256,192,104503,1,2,2:0:0:0:
256,192,104602,1,2,2:0:0:0:
256,192,104701,1,2,2:0:0:0:
256,192,104799,1,2,2:0:0:0:
256,192,104898,1,2,2:0:0:0:
256,192,104997,1,2,2:0:0:0:
256,192,105095,1,2,2:0:0:0:
256,192,105194,1,2,2:0:0:0:
256,192,105293,1,2,2:0:0:0:
256,192,105391,1,2,2:0:0:0:
256,192,105490,1,2,2:0:0:0:
256,192,105589,1,2,2:0:0:0:
256,192,105687,1,2,2:0:0:0:
256,192,105786,1,2,2:0:0:0:
256,192,105885,1,2,2:0:0:0:
256,192,105983,1,2,2:0:0:0:
256,192,106082,1,2,2:0:0:0:
256,192,106181,1,2,2:0:0:0:
256,192,106280,1,2,2:0:0:0:
256,192,106378,1,2,2:0:0:0:
256,192,106477,1,2,2:0:0:0:
256,192,106576,1,2,2:0:0:0:
256,192,106674,1,2,2:0:0:0:
256,192,106773,1,2,2:0:0:0:
256,192,106872,1,2,2:0:0:0:
256,192,106970,1,2,2:0:0:0:
256,192,107069,1,2,2:0:0:0:
256,192,107168,1,2,2:0:0:0:
256,192,107266,1,2,2:0:0:0:
256,192,107365,1,2,2:0:0:0:
256,192,107464,1,2,2:0:0:0:
256,192,107562,1,2,2:0:0:0:
256,192,107661,1,2,2:0:0:0:
256,192,107760,1,2,2:0:0:0:
256,192,107858,1,2,2:0:0:0:
256,192,107957,128,2,108155:2:0:0:0:
256,192,108253,1,2,2:0:0:0:
256,192,108352,1,2,2:0:0:0:
256,192,108451,1,2,2:0:0:0:
256,192,108549,1,2,2:0:0:0:
256,192,108648,1,2,2:0:0:0:
256,192,108747,1,2,2:0:0:0:
256,192,108845,1,2,2:0:0:0:
256,192,108944,1,2,2:0:0:0:
256,192,109043,1,2,2:0:0:0:
256,192,109141,1,2,2:0:0:0:
256,192,109240,1,2,2:0:0:0:
256,192,109339,1,2,2:0:0:0:
256,192,109437,1,2,2:0:0:0:
256,192,109536,1,2,2:0:0:0:
256,192,109635,1,2,2:0:0:0:
256,192,109733,1,2,2:0:0:0:
256,192,109832,1,2,2:0:0:0:
256,192,109931,1,2,2:0:0:0:
256,192,110030,1,2,2:0:0:0:
256,192,110128,1,2,2:0:0:0:
256,192,110227,1,2,2:0:0:0:
256,192,110326,1,2,2:0:0:0:
256,192,110424,1,2,2:0:0:0:
256,192,110523,1,2,2:0:0:0:
256,192,110622,1,2,2:0:0:0:
256,192,110720,1,2,2:0:0:0:
256,192,110819,1,2,2:0:0:0:
256,192,110918,1,2,2:0:0:0:
256,192,111016,1,2,2:0:0:0:
256,192,111115,1,2,2:0:0:0:
256,192,111214,1,2,2:0:0:0:
256,192,111312,1,2,2:0:0:0:
256,192,111411,1,2,2:0:0:0:
256,192,111510,1,2,2:0:0:0:
256,192,111608,1,2,2:0:0:0:
256,192,111707,1,2,2:0:0:0:
256,192,111806,1,2,2:0:0:0:
256,192,111905,1,2,2:0:0:0:
256,192,112003,1,2,2:0:0:0:
256,192,112102,1,2,2:0:0:0:
256,192,112201,1,2,2:0:0:0:
256,192,112299,1,2,2:0:0:0:
256,192,112398,1,2,2:0:0:0:
256,192,112497,1,2,2:0:0:0:
256,192,112595,1,2,2:0:0:0:
256,192,112694,1,2,2:0:0:0:
256,192,112793,1,2,2:0:0:0:
256,192,112891,1,2,2:0:0:0:
256,192,112990,1,2,2:0:0:0:
256,192,113089,1,2,2:0:0:0:
256,192,113187,1,2,2:0:0:0:
256,192,113286,1,2,2:0:0:0:
256,192,113385,1,2,2:0:0:0:
256,192,113483,1,2,2:0:0:0:
256,192,113582,1,2,2:0:0:0:
256,192,113681,1,2,2:0:0:0:
256,192,113780,1,2,2:0:0:0:
256,192,113878,1,2,2:0:0:0:
256,192,113977,1,2,2:0:0:0:
256,192,114076,1,2,2:0:0:0:
256,192,114174,1,2,2:0:0:0:
256,192,114273,1,2,2:0:0:0:
256,192,114372,1,2,2:0:0:0:
256,192,114470,1,2,2:0:0:0:
256,192,114569,1,2,2:0:0:0:
256,192,114865,1,2,2:0:0:0:
256,192,115260,1,2,2:0:0:0:
256,192,115655,1,2,2:0:0:0:
256,192,116049,1,2,2:0:0:0:
256,192,116444,1,2,2:0:0:0:
256,192,116543,1,2,2:0:0:0:
256,192,116641,1,2,2:0:0:0:
256,192,116740,1,2,2:0:0:0:
256,192,116839,1,2,2:0:0:0:
256,192,116937,1,2,2:0:0:0:
256,192,117036,1,2,2:0:0:0:
256,192,117135,1,2,2:0:0:0:
256,192,117233,1,2,2:0:0:0:
256,192,117332,1,2,2:0:0:0:
256,192,117431,1,2,2:0:0:0:
256,192,117530,1,2,2:0:0:0:
256,192,117628,1,2,2:0:0:0:
256,192,117678,1,2,0:0:0:0:
256,192,117727,1,2,2:0:0:0:
256,192,117776,1,2,0:0:0:0:
256,192,117826,1,2,2:0:0:0:
256,192,117875,1,2,0:0:0:0:
256,192,117924,1,2,2:0:0:0:
256,192,117974,1,2,0:0:0:0:
256,192,118023,1,2,2:0:0:0:
256,192,118072,1,2,0:0:0:0:
256,192,118122,1,2,2:0:0:0:
256,192,118171,1,2,0:0:0:0:
256,192,118220,1,2,2:0:0:0:
256,192,118270,1,2,0:0:0:0:
256,192,118319,1,2,2:0:0:0:
256,192,118368,1,2,0:0:0:0:
256,192,118418,1,2,2:0:0:0:
256,192,118467,1,2,0:0:0:0:
256,192,118516,1,2,2:0:0:0:
256,192,118566,1,2,0:0:0:0:
256,192,118615,1,2,2:0:0:0:
256,192,118664,1,2,0:0:0:0:
256,192,118714,1,2,2:0:0:0:
256,192,118763,1,2,0:0:0:0:
256,192,118812,1,2,2:0:0:0:
256,192,118862,1,2,0:0:0:0:
256,192,118911,1,2,2:0:0:0:
256,192,118960,1,2,0:0:0:0:
256,192,119010,1,2,2:0:0:0:
256,192,119059,1,2,0:0:0:0:
256,192,119108,1,2,2:0:0:0:
256,192,119158,1,2,0:0:0:0:
256,192,119207,1,2,2:0:0:0:
256,192,119257,1,2,0:0:0:0:
256,192,119306,1,2,2:0:0:0:
256,192,119355,1,2,0:0:0:0:
256,192,119405,1,2,2:0:0:0:
256,192,119454,1,2,0:0:0:0:
256,192,119503,1,2,2:0:0:0:
256,192,119553,1,2,0:0:0:0:
256,192,119602,1,2,2:0:0:0:
256,192,119651,1,2,0:0:0:0:
256,192,119701,1,2,2:0:0:0:
256,192,119750,1,2,0:0:0:0:
256,192,119799,1,2,2:0:0:0:
256,192,119849,1,2,0:0:0:0:
256,192,119898,1,2,2:0:0:0:
256,192,119947,1,2,0:0:0:0:
256,192,119997,1,2,2:0:0:0:
256,192,120046,1,2,0:0:0:0:
256,192,120095,1,2,2:0:0:0:
256,192,120145,1,2,0:0:0:0:
256,192,120194,1,2,2:0:0:0:
256,192,120243,1,2,0:0:0:0:
256,192,120293,1,2,2:0:0:0:
256,192,120342,1,2,0:0:0:0:
256,192,120391,1,2,2:0:0:0:
256,192,120441,1,2,0:0:0:0:
256,192,120490,1,2,2:0:0:0:
256,192,120539,1,2,0:0:0:0:
256,192,120589,128,2,120885:2:0:0:0:
256,192,120909,1,2,0:0:0:0:
256,192,120934,1,2,0:0:0:0:
256,192,120959,1,2,0:0:0:0:
256,192,120983,1,2,2:0:0:0:
256,192,121008,1,2,2:0:0:0:
256,192,121032,1,2,2:0:0:0:
256,192,121057,1,2,2:0:0:0:
256,192,121082,1,2,2:0:0:0:
256,192,121107,1,2,2:0:0:0:
256,192,121131,1,2,2:0:0:0:
256,192,121156,1,2,2:0:0:0:
256,192,121181,1,2,2:0:0:0:
256,192,121206,1,2,2:0:0:0:
256,192,121231,1,2,2:0:0:0:
256,192,121256,1,2,2:0:0:0:
256,192,121280,1,2,2:0:0:0:
256,192,121305,1,2,2:0:0:0:
256,192,121330,1,2,2:0:0:0:
256,192,121355,1,2,2:0:0:0:
256,192,121379,1,2,2:0:0:0:
256,192,121404,1,2,2:0:0:0:
256,192,121428,1,2,2:0:0:0:
256,192,121453,1,2,2:0:0:0:
256,192,121477,1,2,2:0:0:0:
256,192,121502,1,2,2:0:0:0:
256,192,121527,1,2,2:0:0:0:
256,192,121552,1,2,2:0:0:0:
256,192,121576,1,2,2:0:0:0:
256,192,121601,1,2,2:0:0:0:
256,192,121626,1,2,2:0:0:0:
256,192,121651,1,2,2:0:0:0:
256,192,121675,1,2,2:0:0:0:
256,192,121700,1,2,2:0:0:0:
256,192,121724,1,2,2:0:0:0:
256,192,121749,1,2,2:0:0:0:
256,192,121773,1,2,2:0:0:0:
256,192,121798,1,2,2:0:0:0:
256,192,121823,1,2,2:0:0:0:
256,192,121848,1,2,2:0:0:0:
256,192,121872,1,2,2:0:0:0:
256,192,121897,1,2,2:0:0:0:
256,192,121922,1,2,2:0:0:0:
256,192,121947,1,2,2:0:0:0:
256,192,121971,1,2,2:0:0:0:
256,192,121996,1,2,2:0:0:0:
256,192,122020,1,2,2:0:0:0:
256,192,122045,1,2,2:0:0:0:
256,192,122069,1,2,2:0:0:0:
256,192,122094,1,2,2:0:0:0:
256,192,122119,1,2,2:0:0:0:
256,192,122144,1,2,2:0:0:0:
256,192,122168,1,2,2:0:0:0:
256,192,122193,1,2,2:0:0:0:
256,192,122218,1,2,2:0:0:0:
256,192,122243,1,2,2:0:0:0:
256,192,122267,1,2,2:0:0:0:
256,192,122292,1,2,2:0:0:0:
256,192,122317,1,2,2:0:0:0:
256,192,122340,1,2,2:0:0:0:
256,192,122366,1,2,2:0:0:0:
256,192,122391,1,2,2:0:0:0:
256,192,122415,1,2,2:0:0:0:
256,192,122440,1,2,2:0:0:0:
256,192,122464,1,2,2:0:0:0:
256,192,122489,1,2,2:0:0:0:
256,192,122513,1,2,2:0:0:0:
256,192,122538,1,2,2:0:0:0:
256,192,122563,1,2,2:0:0:0:
256,192,122587,1,2,2:0:0:0:
256,192,122612,1,2,2:0:0:0:
256,192,122637,1,2,2:0:0:0:
256,192,122662,1,2,2:0:0:0:
256,192,122686,1,2,2:0:0:0:
256,192,122711,1,2,2:0:0:0:
256,192,122735,1,2,2:0:0:0:
256,192,122760,1,2,2:0:0:0:
256,192,122784,1,2,2:0:0:0:
256,192,122809,1,2,2:0:0:0:
256,192,122834,1,2,2:0:0:0:
256,192,122859,1,2,2:0:0:0:
256,192,122883,1,2,2:0:0:0:
256,192,122908,1,2,2:0:0:0:
256,192,122933,1,2,2:0:0:0:
256,192,122958,1,2,2:0:0:0:
256,192,122982,1,2,2:0:0:0:
256,192,123007,1,2,2:0:0:0:
256,192,123031,1,2,2:0:0:0:
256,192,123056,1,2,2:0:0:0:
256,192,123080,1,2,2:0:0:0:
256,192,123105,1,2,2:0:0:0:
256,192,123130,1,2,2:0:0:0:
256,192,123155,1,2,2:0:0:0:
256,192,123179,1,2,2:0:0:0:
256,192,123204,1,2,2:0:0:0:
256,192,123229,1,2,2:0:0:0:
256,192,123254,1,2,2:0:0:0:
256,192,123278,1,2,2:0:0:0:
256,192,123303,1,2,2:0:0:0:
256,192,123327,1,2,2:0:0:0:
256,192,123352,1,2,2:0:0:0:
256,192,123376,1,2,2:0:0:0:
256,192,123401,1,2,2:0:0:0:
256,192,123426,1,2,2:0:0:0:
256,192,123451,1,2,2:0:0:0:
256,192,123475,1,2,2:0:0:0:
256,192,123500,1,2,2:0:0:0:
256,192,123525,1,2,2:0:0:0:
256,192,123550,1,2,2:0:0:0:
256,192,123574,1,2,2:0:0:0:
256,192,123599,1,2,2:0:0:0:
256,192,123624,1,2,2:0:0:0:
256,192,123649,1,2,2:0:0:0:
256,192,123673,1,2,2:0:0:0:
256,192,123698,1,2,2:0:0:0:
256,192,123722,1,2,2:0:0:0:
256,192,123747,1,2,2:0:0:0:
256,192,123771,1,2,2:0:0:0:
256,192,123796,1,2,2:0:0:0:
256,192,123821,1,2,2:0:0:0:
256,192,123846,1,2,2:0:0:0:
256,192,123871,1,2,2:0:0:0:
256,192,123895,1,2,2:0:0:0:
256,192,123920,1,2,2:0:0:0:
256,192,123945,1,2,2:0:0:0:
256,192,123970,1,2,2:0:0:0:
256,192,123994,1,2,2:0:0:0:
256,192,124019,1,2,2:0:0:0:
256,192,124043,1,2,2:0:0:0:
256,192,124068,1,2,2:0:0:0:
256,192,124092,1,2,2:0:0:0:
256,192,124117,1,2,2:0:0:0:
256,192,124142,1,2,2:0:0:0:
256,192,124167,1,2,2:0:0:0:
256,192,124191,1,2,2:0:0:0:
256,192,124216,1,2,2:0:0:0:
256,192,124241,1,2,2:0:0:0:
256,192,124266,1,2,2:0:0:0:
256,192,124290,1,2,2:0:0:0:
256,192,124315,1,2,2:0:0:0:
256,192,124339,1,2,2:0:0:0:
256,192,124364,1,2,2:0:0:0:
256,192,124388,1,2,2:0:0:0:
256,192,124413,1,2,2:0:0:0:
256,192,124438,1,2,2:0:0:0:
256,192,124463,1,2,2:0:0:0:
256,192,124487,1,2,2:0:0:0:
256,192,124512,1,2,2:0:0:0:
256,192,124537,1,2,2:0:0:0:
256,192,124562,1,2,2:0:0:0:
256,192,124586,1,2,2:0:0:0:
256,192,124611,1,2,2:0:0:0:
256,192,124635,1,2,2:0:0:0:
256,192,124660,1,2,2:0:0:0:
256,192,124684,1,2,2:0:0:0:
256,192,124709,1,2,2:0:0:0:
256,192,124734,1,2,2:0:0:0:
256,192,124759,1,2,2:0:0:0:
256,192,124783,1,2,2:0:0:0:
256,192,124808,1,2,2:0:0:0:
256,192,124833,1,2,2:0:0:0:
256,192,124858,1,2,2:0:0:0:
256,192,124882,1,2,2:0:0:0:
256,192,124907,1,2,2:0:0:0:
256,192,124932,1,2,2:0:0:0:
256,192,124957,1,2,2:0:0:0:
256,192,124981,1,2,2:0:0:0:
256,192,125006,1,2,2:0:0:0:
256,192,125030,1,2,2:0:0:0:
256,192,125055,1,2,2:0:0:0:
256,192,125079,1,2,2:0:0:0:
256,192,125104,1,2,2:0:0:0:
256,192,125128,1,2,2:0:0:0:
256,192,125153,1,2,2:0:0:0:
256,192,125178,1,2,2:0:0:0:
256,192,125202,1,2,2:0:0:0:
256,192,125227,1,2,2:0:0:0:
256,192,125252,1,2,2:0:0:0:
256,192,125277,1,2,2:0:0:0:
256,192,125301,1,2,2:0:0:0:
256,192,125326,1,2,2:0:0:0:
256,192,125350,1,2,2:0:0:0:
256,192,125375,1,2,2:0:0:0:
256,192,125399,1,2,2:0:0:0:
256,192,125424,1,2,2:0:0:0:
256,192,125449,1,2,2:0:0:0:
256,192,125474,1,2,2:0:0:0:
256,192,125498,1,2,2:0:0:0:
256,192,125523,1,2,2:0:0:0:
256,192,125548,1,2,2:0:0:0:
256,192,125573,1,2,2:0:0:0:
256,192,125597,1,2,2:0:0:0:
256,192,125622,1,2,2:0:0:0:
256,192,125646,1,2,2:0:0:0:
256,192,125671,1,2,2:0:0:0:
256,192,125695,1,2,2:0:0:0:
256,192,125720,1,2,2:0:0:0:
256,192,125745,1,2,2:0:0:0:
256,192,125770,1,2,2:0:0:0:
256,192,125794,1,2,2:0:0:0:
256,192,125819,1,2,2:0:0:0:
256,192,125844,1,2,2:0:0:0:
256,192,125869,1,2,2:0:0:0:
256,192,125893,1,2,2:0:0:0:
256,192,125918,1,2,2:0:0:0:
256,192,125942,1,2,2:0:0:0:
256,192,125967,1,2,2:0:0:0:
256,192,125991,1,2,2:0:0:0:
256,192,126016,1,2,2:0:0:0:
256,192,126041,1,2,2:0:0:0:
256,192,126066,1,2,2:0:0:0:
256,192,126090,1,2,2:0:0:0:
256,192,126115,1,2,2:0:0:0:
256,192,126140,1,2,2:0:0:0:
256,192,126165,1,2,2:0:0:0:
256,192,126189,1,2,2:0:0:0:
256,192,126214,1,2,2:0:0:0:
256,192,126239,1,2,2:0:0:0:
256,192,126264,1,2,2:0:0:0:
256,192,126288,1,2,2:0:0:0:
256,192,126313,1,2,2:0:0:0:
256,192,126337,1,2,2:0:0:0:
256,192,126362,1,2,2:0:0:0:
256,192,126386,1,2,2:0:0:0:
256,192,126411,1,2,2:0:0:0:
256,192,126436,1,2,2:0:0:0:
256,192,126461,1,2,2:0:0:0:
256,192,126486,1,2,2:0:0:0:
256,192,126510,1,2,2:0:0:0:
256,192,126535,1,2,2:0:0:0:
256,192,126560,1,2,2:0:0:0:
256,192,126585,1,2,2:0:0:0:
256,192,126609,1,2,2:0:0:0:
256,192,126634,1,2,2:0:0:0:
256,192,126658,1,2,2:0:0:0:
256,192,126683,1,2,2:0:0:0:
256,192,126707,1,2,2:0:0:0:
256,192,126732,1,2,2:0:0:0:
256,192,126757,1,2,2:0:0:0:
256,192,126782,1,2,2:0:0:0:
256,192,126806,1,2,2:0:0:0:
256,192,126831,1,2,2:0:0:0:
256,192,126856,1,2,2:0:0:0:
256,192,126881,1,2,2:0:0:0:
256,192,126905,1,2,2:0:0:0:
256,192,126930,1,2,2:0:0:0:
256,192,126954,1,2,2:0:0:0:
256,192,126979,1,2,2:0:0:0:
256,192,127003,1,2,2:0:0:0:
256,192,127028,1,2,2:0:0:0:
256,192,127053,1,2,2:0:0:0:
256,192,127078,1,2,2:0:0:0:
256,192,127102,1,2,2:0:0:0:
256,192,127127,1,2,2:0:0:0:
256,192,127152,1,2,2:0:0:0:
256,192,127177,1,2,2:0:0:0:
256,192,127201,1,2,2:0:0:0:
256,192,127226,1,2,2:0:0:0:
256,192,127250,1,2,2:0:0:0:
256,192,127275,1,2,2:0:0:0:
256,192,127299,1,2,2:0:0:0:
256,192,127324,1,2,2:0:0:0:
256,192,127349,1,2,2:0:0:0:
256,192,127374,1,2,2:0:0:0:
256,192,127398,1,2,2:0:0:0:
256,192,127423,1,2,2:0:0:0:
256,192,127448,1,2,2:0:0:0:
256,192,127473,1,2,2:0:0:0:
256,192,127497,1,2,2:0:0:0:
256,192,127522,1,2,2:0:0:0:
256,192,127547,1,2,2:0:0:0:
256,192,127572,1,2,2:0:0:0:
256,192,127596,1,2,2:0:0:0:
256,192,127621,1,2,2:0:0:0:
256,192,127645,1,2,2:0:0:0:
256,192,127670,1,2,2:0:0:0:
256,192,127694,1,2,2:0:0:0:
256,192,127719,1,2,2:0:0:0:
256,192,127743,1,2,2:0:0:0:
256,192,127768,1,2,2:0:0:0:
256,192,127793,1,2,2:0:0:0:
256,192,127817,1,2,2:0:0:0:
256,192,127842,1,2,2:0:0:0:
256,192,127867,1,2,2:0:0:0:
256,192,127892,1,2,2:0:0:0:
256,192,127916,1,2,2:0:0:0:
256,192,127941,1,2,2:0:0:0:
256,192,127965,1,2,2:0:0:0:
256,192,127990,1,2,2:0:0:0:
256,192,128014,1,2,2:0:0:0:
256,192,128039,1,2,2:0:0:0:
256,192,128064,1,2,2:0:0:0:
256,192,128089,1,2,2:0:0:0:
256,192,128113,1,2,2:0:0:0:
256,192,128138,1,2,2:0:0:0:
256,192,128163,1,2,2:0:0:0:
256,192,128188,1,2,2:0:0:0:
256,192,128212,1,2,2:0:0:0:
256,192,128237,1,2,2:0:0:0:
256,192,128261,1,2,2:0:0:0:
256,192,128286,1,2,2:0:0:0:
256,192,128310,1,2,2:0:0:0:
256,192,128335,1,2,2:0:0:0:
256,192,128360,1,2,2:0:0:0:
256,192,128385,1,2,2:0:0:0:
256,192,128409,1,2,2:0:0:0:
256,192,128434,1,2,2:0:0:0:
256,192,128459,1,2,2:0:0:0:
256,192,128484,1,2,2:0:0:0:
256,192,128508,1,2,2:0:0:0:
256,192,128533,1,2,2:0:0:0:
256,192,128557,1,2,2:0:0:0:
256,192,128582,1,2,2:0:0:0:
256,192,128606,1,2,2:0:0:0:
256,192,128631,1,2,2:0:0:0:
256,192,128656,1,2,2:0:0:0:
256,192,128681,1,2,2:0:0:0:
256,192,128705,1,2,2:0:0:0:
256,192,128730,1,2,2:0:0:0:
256,192,128755,1,2,2:0:0:0:
256,192,128780,1,2,2:0:0:0:
256,192,128804,1,2,2:0:0:0:
256,192,128829,1,2,2:0:0:0:
256,192,128854,1,2,2:0:0:0:
256,192,128879,1,2,2:0:0:0:
256,192,128903,1,2,2:0:0:0:
256,192,128928,1,2,2:0:0:0:
256,192,128952,1,2,2:0:0:0:
256,192,128977,1,2,2:0:0:0:
256,192,129001,1,2,2:0:0:0:
256,192,129026,1,2,2:0:0:0:
256,192,129051,1,2,2:0:0:0:
256,192,129076,1,2,2:0:0:0:
256,192,129101,1,2,2:0:0:0:
256,192,129125,1,2,2:0:0:0:
256,192,129150,1,2,2:0:0:0:
256,192,129175,1,2,2:0:0:0:
256,192,129200,1,2,2:0:0:0:
256,192,129224,1,2,2:0:0:0:
256,192,129249,1,2,2:0:0:0:
256,192,129273,1,2,2:0:0:0:
256,192,129298,1,2,2:0:0:0:
256,192,129322,1,2,2:0:0:0:
256,192,129347,1,2,2:0:0:0:
256,192,129372,1,2,2:0:0:0:
256,192,129397,1,2,2:0:0:0:
256,192,129421,1,2,2:0:0:0:
256,192,129446,1,2,2:0:0:0:
256,192,129471,1,2,2:0:0:0:
256,192,129496,1,2,2:0:0:0:
256,192,129520,1,2,2:0:0:0:
256,192,129545,1,2,2:0:0:0:
256,192,129569,1,2,2:0:0:0:
256,192,129594,1,2,2:0:0:0:
256,192,129618,1,2,2:0:0:0:
256,192,129643,1,2,2:0:0:0:
256,192,129668,1,2,2:0:0:0:
256,192,129693,1,2,2:0:0:0:
256,192,129717,1,2,2:0:0:0:
256,192,129742,1,2,2:0:0:0:
256,192,129767,1,2,2:0:0:0:
256,192,129792,1,2,2:0:0:0:
256,192,129816,1,2,2:0:0:0:
256,192,129841,1,2,2:0:0:0:
256,192,129865,1,2,2:0:0:0:
256,192,129890,1,2,2:0:0:0:
256,192,129914,1,2,2:0:0:0:
256,192,129939,1,2,2:0:0:0:
256,192,129964,1,2,2:0:0:0:
256,192,129989,1,2,2:0:0:0:
256,192,130013,1,2,2:0:0:0:
256,192,130038,1,2,2:0:0:0:
256,192,130063,1,2,2:0:0:0:
256,192,130088,1,2,2:0:0:0:
256,192,130112,1,2,2:0:0:0:
256,192,130137,1,2,2:0:0:0:
256,192,130162,1,2,2:0:0:0:
256,192,130187,1,2,2:0:0:0:
256,192,130211,1,2,2:0:0:0:
256,192,130236,1,2,2:0:0:0:
256,192,130260,1,2,2:0:0:0:
256,192,130285,1,2,2:0:0:0:
256,192,130309,1,2,2:0:0:0:
256,192,130334,1,2,2:0:0:0:
256,192,130358,1,2,2:0:0:0:
256,192,130383,1,2,2:0:0:0:
256,192,130408,1,2,2:0:0:0:
256,192,130432,1,2,2:0:0:0:
256,192,130457,1,2,2:0:0:0:
256,192,130482,1,2,2:0:0:0:
256,192,130507,1,2,2:0:0:0:
256,192,130531,1,2,2:0:0:0:
256,192,130556,1,2,2:0:0:0:
256,192,130580,1,2,2:0:0:0:
256,192,130605,1,2,2:0:0:0:
256,192,130629,1,2,2:0:0:0:
256,192,130654,1,2,2:0:0:0:
256,192,130679,1,2,2:0:0:0:
256,192,130704,1,2,2:0:0:0:
256,192,130728,1,2,2:0:0:0:
256,192,130753,1,2,2:0:0:0:
256,192,130778,1,2,2:0:0:0:
256,192,130803,1,2,2:0:0:0:
256,192,130827,1,2,2:0:0:0:
256,192,130852,1,2,2:0:0:0:
256,192,130876,1,2,2:0:0:0:
256,192,130901,1,2,2:0:0:0:
256,192,130925,1,2,2:0:0:0:
256,192,130950,1,2,2:0:0:0:
256,192,130975,1,2,2:0:0:0:
256,192,131000,1,2,2:0:0:0:
256,192,131024,1,2,2:0:0:0:
256,192,131049,1,2,2:0:0:0:
256,192,131074,1,2,2:0:0:0:
256,192,131099,1,2,2:0:0:0:
256,192,131123,1,2,2:0:0:0:
256,192,131148,1,2,2:0:0:0:
256,192,131172,1,2,2:0:0:0:
256,192,131197,1,2,2:0:0:0:
256,192,131221,1,2,2:0:0:0:
256,192,131246,1,2,2:0:0:0:
256,192,131271,1,2,2:0:0:0:
256,192,131296,1,2,2:0:0:0:
256,192,131320,1,2,2:0:0:0:
256,192,131345,1,2,2:0:0:0:
256,192,131370,1,2,2:0:0:0:
256,192,131395,1,2,2:0:0:0:
256,192,131419,1,2,2:0:0:0:
256,192,131444,1,2,2:0:0:0:
256,192,131469,1,2,2:0:0:0:
256,192,131494,1,2,2:0:0:0:
256,192,131518,1,2,2:0:0:0:
256,192,131543,1,2,2:0:0:0:
256,192,131567,1,2,2:0:0:0:
256,192,131592,1,2,2:0:0:0:
256,192,131616,1,2,2:0:0:0:
256,192,131641,1,2,2:0:0:0:
256,192,131666,1,2,2:0:0:0:
256,192,131691,1,2,2:0:0:0:
256,192,131716,1,2,2:0:0:0:
256,192,131740,1,2,2:0:0:0:
256,192,131765,1,2,2:0:0:0:
256,192,131790,1,2,2:0:0:0:
256,192,131815,1,2,2:0:0:0:
256,192,131839,1,2,2:0:0:0:
256,192,131864,1,2,2:0:0:0:
256,192,131888,1,2,2:0:0:0:
256,192,131913,1,2,2:0:0:0:
256,192,131937,1,2,2:0:0:0:
256,192,131962,1,2,2:0:0:0:
256,192,131987,1,2,2:0:0:0:
256,192,132012,1,2,2:0:0:0:
256,192,132036,1,2,2:0:0:0:
256,192,132061,1,2,2:0:0:0:
256,192,132086,1,2,2:0:0:0:
256,192,132111,1,2,2:0:0:0:
256,192,132135,1,2,2:0:0:0:
256,192,132160,1,2,2:0:0:0:
256,192,132184,1,2,2:0:0:0:
256,192,132209,1,2,2:0:0:0:
256,192,132233,1,2,2:0:0:0:
256,192,132258,1,2,2:0:0:0:
256,192,132283,1,2,2:0:0:0:
256,192,132308,1,2,2:0:0:0:
256,192,132332,1,2,2:0:0:0:
256,192,132357,1,2,2:0:0:0:
256,192,132382,1,2,2:0:0:0:
256,192,132407,1,2,2:0:0:0:
256,192,132431,1,2,2:0:0:0:
256,192,132456,1,2,2:0:0:0:
256,192,132480,1,2,2:0:0:0:
256,192,132505,1,2,2:0:0:0:
256,192,132529,1,2,2:0:0:0:
256,192,132554,1,2,2:0:0:0:
256,192,132579,1,2,2:0:0:0:
256,192,132604,1,2,2:0:0:0:
256,192,132628,1,2,2:0:0:0:
256,192,132653,1,2,2:0:0:0:
256,192,132678,1,2,2:0:0:0:
256,192,132703,1,2,2:0:0:0:
256,192,132727,1,2,2:0:0:0:
256,192,132752,1,2,2:0:0:0:
256,192,132777,1,2,2:0:0:0:
256,192,132802,1,2,2:0:0:0:
256,192,132826,1,2,2:0:0:0:
256,192,132851,1,2,2:0:0:0:
256,192,132875,1,2,2:0:0:0:
256,192,132900,1,2,2:0:0:0:
256,192,132924,1,2,2:0:0:0:
256,192,132949,1,2,2:0:0:0:
256,192,132974,1,2,2:0:0:0:
256,192,132999,1,2,2:0:0:0:
256,192,133024,1,2,2:0:0:0:
256,192,133048,1,2,2:0:0:0:
256,192,133073,1,2,2:0:0:0:
256,192,133098,1,2,2:0:0:0:
256,192,133123,1,2,2:0:0:0:
256,192,133147,1,2,2:0:0:0:
256,192,133172,1,2,2:0:0:0:
256,192,133196,1,2,2:0:0:0:
256,192,133221,1,2,2:0:0:0:
256,192,133245,1,2,2:0:0:0:
256,192,133270,1,2,2:0:0:0:
256,192,133295,1,2,2:0:0:0:
256,192,133320,1,2,2:0:0:0:
256,192,133344,1,2,2:0:0:0:
256,192,133369,1,2,2:0:0:0:
256,192,133394,1,2,2:0:0:0:
256,192,133419,1,2,2:0:0:0:
256,192,133443,1,2,2:0:0:0:
256,192,133468,1,2,2:0:0:0:
256,192,133492,1,2,2:0:0:0:
256,192,133517,1,2,2:0:0:0:
256,192,133541,1,2,2:0:0:0:
256,192,133566,1,2,2:0:0:0:
256,192,133591,1,2,2:0:0:0:
256,192,133616,1,2,2:0:0:0:
256,192,133640,1,2,2:0:0:0:
256,192,133665,1,2,2:0:0:0:
256,192,133690,1,2,2:0:0:0:
256,192,133715,1,2,2:0:0:0:
256,192,133739,1,2,2:0:0:0:
256,192,133764,1,2,2:0:0:0:
256,192,133788,1,2,2:0:0:0:
256,192,133813,1,2,2:0:0:0:
256,192,133837,1,2,2:0:0:0:
256,192,133862,1,2,2:0:0:0:
256,192,133887,1,2,2:0:0:0:
256,192,133912,1,2,2:0:0:0:
256,192,133936,1,2,2:0:0:0:
256,192,133960,1,2,2:0:0:0:
256,192,133985,1,2,2:0:0:0:
256,192,134010,1,2,2:0:0:0:
256,192,134035,1,2,2:0:0:0:
256,192,134059,1,2,2:0:0:0:
256,192,134084,1,2,2:0:0:0:
256,192,134108,1,2,2:0:0:0:
256,192,134133,1,2,2:0:0:0:
256,192,134158,1,2,2:0:0:0:
256,192,134183,1,2,2:0:0:0:
256,192,134207,1,2,2:0:0:0:
256,192,134232,1,2,2:0:0:0:
256,192,134257,1,2,2:0:0:0:
256,192,134281,1,2,2:0:0:0:
256,192,134306,1,2,2:0:0:0:
256,192,134331,1,2,2:0:0:0:
256,192,134355,1,2,2:0:0:0:
256,192,134380,1,2,0:0:0:0:
256,192,134405,1,2,2:0:0:0:
256,192,134429,1,2,0:0:0:0:
256,192,134454,1,2,0:0:0:0:
256,192,134479,1,2,0:0:0:0:
256,192,134503,1,2,2:0:0:0:
256,192,134528,1,2,0:0:0:0:
256,192,134553,1,2,0:0:0:0:
256,192,134577,1,2,0:0:0:0:
256,192,134602,1,2,2:0:0:0:
256,192,134627,1,2,0:0:0:0:
256,192,134651,1,2,0:0:0:0:
256,192,134676,1,2,0:0:0:0:
256,192,134701,1,2,2:0:0:0:
256,192,134725,1,2,0:0:0:0:
256,192,134750,1,2,0:0:0:0:
256,192,134775,1,2,0:0:0:0:
256,192,134799,1,2,2:0:0:0:
256,192,134824,1,2,0:0:0:0:
256,192,134849,1,2,0:0:0:0:
256,192,134873,1,2,0:0:0:0:
256,192,134898,1,2,2:0:0:0:
256,192,134923,1,2,0:0:0:0:
256,192,134947,1,2,0:0:0:0:
256,192,134972,1,2,0:0:0:0:
256,192,134997,1,2,2:0:0:0:
256,192,135021,1,2,0:0:0:0:
256,192,135046,1,2,0:0:0:0:
256,192,135071,1,2,0:0:0:0:
256,192,135095,1,2,2:0:0:0:
256,192,135120,1,2,0:0:0:0:
256,192,135145,1,2,0:0:0:0:
256,192,135169,1,2,0:0:0:0:
256,192,135194,1,2,2:0:0:0:
256,192,135219,1,2,0:0:0:0:
256,192,135243,1,2,0:0:0:0:
256,192,135268,1,2,0:0:0:0:
256,192,135293,1,2,2:0:0:0:
256,192,135317,1,2,0:0:0:0:
256,192,135342,1,2,0:0:0:0:
256,192,135367,1,2,0:0:0:0:
256,192,135391,1,2,2:0:0:0:
256,192,135416,1,2,0:0:0:0:
256,192,135441,1,2,0:0:0:0:
256,192,135465,1,2,0:0:0:0:
256,192,135490,1,2,2:0:0:0:
256,192,135515,1,2,0:0:0:0:
256,192,135539,1,2,0:0:0:0:
256,192,135564,1,2,0:0:0:0:
256,192,135589,1,2,2:0:0:0:
256,192,135613,1,2,0:0:0:0:
256,192,135638,1,2,0:0:0:0:
256,192,135663,1,2,0:0:0:0:
256,192,135687,1,2,2:0:0:0:
256,192,135712,1,2,0:0:0:0:
256,192,135737,1,2,0:0:0:0:
256,192,135761,1,2,0:0:0:0:
256,192,135786,1,2,2:0:0:0:
256,192,135811,1,2,0:0:0:0:
256,192,135835,1,2,0:0:0:0:
256,192,135860,1,2,0:0:0:0:
256,192,135885,1,2,2:0:0:0:
256,192,135909,1,2,0:0:0:0:
256,192,135934,1,2,0:0:0:0:
256,192,135959,1,2,0:0:0:0:
256,192,135983,1,2,2:0:0:0:
256,192,136082,128,2,136280:2:0:0:0:
256,192,136378,1,2,2:0:0:0:
256,192,136477,128,2,136674:2:0:0:0:
256,192,136773,1,2,2:0:0:0:
256,192,136872,128,2,137069:2:0:0:0:
256,192,137168,1,2,2:0:0:0:
256,192,137266,128,2,137464:2:0:0:0:
256,192,137562,1,2,2:0:0:0:
256,192,137661,128,2,137858:2:0:0:0:
256,192,137957,1,2,2:0:0:0:
256,192,138056,128,2,138253:2:0:0:0:
256,192,138352,1,2,2:0:0:0:
256,192,138451,128,2,138648:2:0:0:0:
256,192,138747,1,2,2:0:0:0:
256,192,138845,128,2,139043:2:0:0:0:
256,192,139141,1,2,2:0:0:0:
256,192,139240,128,2,139437:2:0:0:0:
256,192,139536,1,2,2:0:0:0:
256,192,139635,128,2,139832:2:0:0:0:
256,192,139931,1,2,2:0:0:0:
256,192,140030,128,2,140227:2:0:0:0:
256,192,140326,1,2,2:0:0:0:
256,192,140424,128,2,140622:2:0:0:0:
256,192,140720,1,2,2:0:0:0:
256,192,140819,128,2,141016:2:0:0:0:
256,192,141115,1,2,2:0:0:0:
256,192,141214,128,2,141411:2:0:0:0:
256,192,141510,1,2,2:0:0:0:
256,192,141608,128,2,141806:2:0:0:0:
256,192,141905,1,2,2:0:0:0:
256,192,142003,128,2,142201:2:0:0:0:
256,192,142299,1,2,2:0:0:0:
256,192,142398,128,2,142595:2:0:0:0:
256,192,142694,1,2,2:0:0:0:
256,192,142793,128,2,142990:2:0:0:0:
256,192,143089,1,2,2:0:0:0:
256,192,143187,1,2,2:0:0:0:
256,192,143286,1,2,2:0:0:0:
256,192,143385,1,2,2:0:0:0:
256,192,143483,1,2,2:0:0:0:
256,192,143582,128,2,143780:2:0:0:0:
256,192,143878,1,2,2:0:0:0:
256,192,143977,128,2,144174:2:0:0:0:
256,192,144273,1,2,2:0:0:0:
256,192,144372,128,2,144668:2:0:0:0:
256,192,144766,128,2,146148:2:0:0:0:
256,192,146247,128,2,146444:2:0:0:0:
256,192,146543,128,2,150589:2:0:0:0:
