osu file format v11

[General]
AudioFilename: Extream Fantasy.mp3
AudioLeadIn: 0
PreviewTime: 48944
Countdown: 0
SampleSet: Normal
StackLeniency: 0.6
Mode: 1
LetterboxInBreaks: 0

[Editor]
Bookmarks: 4750,17382,30014,48961,64750,67908,86066,119224,144882
DistanceSpacing: 0
BeatDivisor: 4
GridSize: 4

[Metadata]
Title:Extreme Fantasy
TitleUnicode:Extreme Fantasy
Artist:Memme
ArtistUnicode:Memme
Creator:AngelHoney
Version:Taiko Muzukashii
Source:O2jam Analog
Tags:Frederic Chopin respect for Chopin Classical fantasie impromptu mix Ultimate Fantasy Electro Fantasy OST Dub Electro TW-KUMA01 Naryuga
BeatmapID:192222
BeatmapSetID:49459

[Difficulty]
HPDrainRate:5
CircleSize:5
OverallDifficulty:5
ApproachRate:5
SliderMultiplier:1.4
SliderTickRate:1

[Events]
//Background and Video events
0,0,"24429280.jpg"
//Break Periods
//Storyboard Layer 0 (Background)
//Storyboard Layer 1 (Fail)
//Storyboard Layer 2 (Pass)
//Storyboard Layer 3 (Foreground)
//Storyboard Sound Samples
//Background Colour Transformations
3,100,0,0,0

[TimingPoints]
3172,394.736842105263,4,1,0,85,1,0
30014,-100,4,1,0,85,0,1
42645,-100,4,1,0,85,0,0
48961,-100,4,1,0,85,0,1
64750,-100,4,1,0,85,0,0
75014,394.736842105263,4,1,0,85,1,0
106592,-100,4,1,0,85,0,1
112908,-100,4,1,0,85,0,0
119224,-100,4,1,0,85,0,1
131856,-100,4,1,0,85,0,0

[Colours]
Combo1 : 112,196,193
Combo2 : 243,89,34

[HitObjects]
256,192,3172,1,0,0:0:0
256,192,3369,5,8,0:0:0
256,192,3566,5,0,0:0:0
256,192,3764,5,8,0:0:0
256,192,3961,5,0,0:0:0
256,192,4356,5,14,0:0:0
256,192,4750,5,0,0:0:0
256,192,5145,5,8,0:0:0
256,192,5540,5,0,0:0:0
256,192,5935,5,8,0:0:0
256,192,6329,5,0,0:0:0
256,192,6724,5,8,0:0:0
256,192,7119,5,0,0:0:0
256,192,7316,1,0,0:0:0
256,192,7514,5,8,0:0:0
256,192,7908,5,0,0:0:0
256,192,8303,5,8,0:0:0
256,192,8698,5,0,0:0:0
256,192,8895,1,0,0:0:0
256,192,9093,5,8,0:0:0
256,192,9487,5,0,0:0:0
256,192,9882,5,8,0:0:0
256,192,10079,5,0,0:0:0
256,192,10277,1,0,0:0:0
256,192,10474,5,8,0:0:0
256,192,10671,1,8,0:0:0
256,192,11066,5,0,0:0:0
256,192,11461,5,8,0:0:0
256,192,11856,5,0,0:0:0
256,192,12053,1,0,0:0:0
256,192,12251,5,8,0:0:0
256,192,12645,5,0,0:0:0
256,192,13040,5,8,0:0:0
256,192,13237,5,0,0:0:0
256,192,13435,1,0,0:0:0
256,192,13632,1,0,0:0:0
256,192,13830,5,8,0:0:0
256,192,14224,5,0,0:0:0
256,192,14619,5,8,0:0:0
256,192,14816,1,8,0:0:0
256,192,15014,5,0,0:0:0
256,192,15408,5,8,0:0:0
256,192,15803,5,0,0:0:0
256,192,16000,1,0,0:0:0
256,192,16395,1,0,0:0:0
256,192,16494,1,0,0:0:0
256,192,16593,1,0,0:0:0
256,192,16790,5,8,0:0:0
256,192,16987,5,0,0:0:0
256,192,17382,1,0,0:0:0
256,192,17777,5,8,0:0:0
256,192,18369,5,0,0:0:0
256,192,18566,5,8,0:0:0
256,192,19158,5,0,0:0:0
256,192,19356,5,8,0:0:0
256,192,19652,5,0,0:0:0
256,192,19750,1,0,0:0:0
256,192,19948,1,0,0:0:0
256,192,20145,5,8,0:0:0
256,192,20343,5,0,0:0:0
256,192,20540,1,0,0:0:0
256,192,20935,5,8,0:0:0
256,192,21527,5,0,0:0:0
256,192,21724,5,8,0:0:0
256,192,22316,5,0,0:0:0
256,192,22514,5,8,0:0:0
256,192,22810,5,0,0:0:0
256,192,22908,1,0,0:0:0
256,192,23106,1,0,0:0:0
256,192,23303,5,8,0:0:0
256,192,23501,5,0,0:0:0
256,192,23698,1,0,0:0:0
256,192,24093,5,8,0:0:0
256,192,24487,5,0,0:0:0
256,192,24685,1,0,0:0:0
256,192,24882,5,8,0:0:0
256,192,25277,5,0,0:0:0
256,192,25474,1,0,0:0:0
256,192,25671,5,8,0:0:0
256,192,25968,5,0,0:0:0
256,192,26066,1,0,0:0:0
256,192,26264,1,0,0:0:0
256,192,26461,5,8,0:0:0
256,192,26658,5,0,0:0:0
256,192,26856,1,0,0:0:0
256,192,27250,1,4,0:0:0
256,192,27645,1,0,0:0:0
256,192,28040,1,4,0:0:0
256,192,28435,1,0,0:0:0
256,192,28632,1,0,0:0:0
256,192,28829,1,0,0:0:0
256,192,29027,1,0,0:0:0
256,192,29224,2,0,P|400:192,1,140
256,192,30014,1,0,0:0:0
256,192,30408,1,0,0:0:0
256,192,30803,1,0,0:0:0
256,192,31198,5,8,0:0:0
256,192,31593,5,0,0:0:0
256,192,31691,1,0,0:0:0
256,192,31790,1,0,0:0:0
256,192,31987,1,0,0:0:0
256,192,32086,1,0,0:0:0
256,192,32185,1,0,0:0:0
256,192,32382,1,0,0:0:0
256,192,32481,1,0,0:0:0
256,192,32579,1,0,0:0:0
256,192,32777,5,8,0:0:0
256,192,33171,5,0,0:0:0
256,192,33566,5,8,0:0:0
256,192,33961,1,8,0:0:0
256,192,34356,5,0,0:0:0
256,192,34750,1,0,0:0:0
256,192,34849,1,0,0:0:0
256,192,34948,1,0,0:0:0
256,192,35145,5,8,0:0:0
256,192,35244,1,8,0:0:0
256,192,35343,1,8,0:0:0
256,192,35540,1,8,0:0:0
256,192,35639,1,8,0:0:0
256,192,35737,1,8,0:0:0
256,192,35935,5,0,0:0:0
256,192,36329,1,0,0:0:0
256,192,36724,5,8,0:0:0
256,192,37119,5,0,0:0:0
256,192,37514,5,8,0:0:0
256,192,37908,5,0,0:0:0
256,192,38106,1,0,0:0:0
256,192,38303,5,8,0:0:0
256,192,38402,1,8,0:0:0
256,192,38500,1,8,0:0:0
256,192,38698,5,0,0:0:0
256,192,38796,1,0,0:0:0
256,192,38895,1,0,0:0:0
256,192,39093,5,8,0:0:0
256,192,39290,1,8,0:0:0
256,192,39487,5,0,0:0:0
256,192,39882,5,8,0:0:0
256,192,40277,5,0,0:0:0
256,192,40671,5,8,0:0:0
256,192,41066,5,0,0:0:0
256,192,41165,1,0,0:0:0
256,192,41264,1,0,0:0:0
256,192,41461,5,8,0:0:0
256,192,41560,1,8,0:0:0
256,192,41658,1,8,0:0:0
256,192,41856,5,0,0:0:0
256,192,41954,1,0,0:0:0
256,192,42053,1,0,0:0:0
256,192,42250,1,0,0:0:0
256,192,42645,5,8,0:0:0
256,192,43040,5,0,0:0:0
256,192,43435,5,14,0:0:0
256,192,45803,1,8,0:0:0
256,192,46198,1,8,0:0:0
256,192,46593,1,8,0:0:0
256,192,46987,1,8,0:0:0
256,192,47382,5,0,0:0:0
256,192,47777,1,0,0:0:0
256,192,48171,1,0,0:0:0
256,192,48303,1,0,0:0:0
256,192,48435,1,0,0:0:0
256,192,48566,1,0,0:0:0
256,192,48961,1,4,0:0:0
256,192,49356,5,8,0:0:0
256,192,49750,5,0,0:0:0
256,192,49948,1,0,0:0:0
256,192,50145,5,8,0:0:0
256,192,50343,5,0,0:0:0
256,192,50737,1,0,0:0:0
256,192,50935,5,8,0:0:0
256,192,51132,5,0,0:0:0
256,192,51527,5,8,0:0:0
256,192,51724,1,8,0:0:0
256,192,51921,1,8,0:0:0
256,192,52119,5,0,0:0:0
256,192,52514,5,8,0:0:0
256,192,52908,5,0,0:0:0
256,192,53106,1,0,0:0:0
256,192,53303,5,8,0:0:0
256,192,53500,5,0,0:0:0
256,192,53698,1,0,0:0:0
256,192,54093,5,8,0:0:0
256,192,54487,5,0,0:0:0
256,192,54586,1,0,0:0:0
256,192,54685,1,0,0:0:0
256,192,54882,5,8,0:0:0
256,192,55277,5,4,0:0:0
256,192,55671,5,8,0:0:0
256,192,56066,5,0,0:0:0
256,192,56461,5,14,0:0:0
256,192,56856,5,0,0:0:0
256,192,57053,1,0,0:0:0
256,192,57250,5,8,0:0:0
256,192,57448,5,0,0:0:0
256,192,57645,1,0,0:0:0
256,192,58040,5,8,0:0:0
256,192,58435,5,4,0:0:0
256,192,58829,1,0,0:0:0
256,192,59224,5,14,0:0:0
256,192,59619,5,0,0:0:0
256,192,60014,1,4,0:0:0
256,192,60408,5,8,0:0:0
256,192,60803,1,14,0:0:0
256,192,61198,5,0,0:0:0
256,192,61593,1,4,0:0:0
256,192,61987,1,0,0:0:0
256,192,62382,5,14,0:0:0
256,192,62777,1,8,0:0:0
256,192,63171,5,4,0:0:0
256,192,63369,1,0,0:0:0
256,192,63566,1,0,0:0:0
256,192,63764,1,0,0:0:0
256,192,63961,2,4,P|400:192,1,140
396,192,64750,1,0,0:0:0
256,192,65145,5,14,0:0:0
256,192,67908,5,0,0:0:0
256,192,68303,5,14,0:0:0
256,192,68698,5,4,0:0:0
256,192,69093,5,14,0:0:0
256,192,69487,5,4,0:0:0
256,192,69882,1,4,0:0:0
256,192,70277,5,14,0:0:0
256,192,70671,5,4,0:0:0
256,192,71066,1,4,0:0:0
256,192,71461,1,4,0:0:0
256,192,71856,1,0,0:0:0
256,192,72053,5,8,0:0:0
256,192,72250,5,0,0:0:0
256,192,72645,1,4,0:0:0
256,192,73040,1,4,0:0:0
256,192,73435,1,0,0:0:0
256,192,73632,1,0,0:0:0
256,192,73829,1,4,0:0:0
256,192,75014,1,4,0:0:0
256,192,75803,5,14,0:0:0
256,192,76198,5,0,0:0:0
256,192,76592,1,0,0:0:0
256,192,76987,1,0,0:0:0
256,192,77382,5,8,0:0:0
256,192,77579,1,8,0:0:0
256,192,77777,5,0,0:0:0
256,192,78171,1,0,0:0:0
256,192,78961,5,8,0:0:0
256,192,79356,5,0,0:0:0
256,192,79750,1,0,0:0:0
256,192,80145,5,8,0:0:0
256,192,80277,1,8,0:0:0
256,192,80408,1,8,0:0:0
256,192,80540,5,0,0:0:0
256,192,80935,1,0,0:0:0
256,192,81329,1,4,0:0:0
256,192,82119,5,14,0:0:0
256,192,82514,5,0,0:0:0
256,192,82908,1,0,0:0:0
256,192,83303,5,8,0:0:0
256,192,83698,5,0,0:0:0
256,192,83895,1,0,0:0:0
256,192,83994,1,0,0:0:0
256,192,84092,1,0,0:0:0
256,192,84487,1,0,0:0:0
256,192,85277,1,4,0:0:0
256,192,85671,5,8,0:0:0
256,192,86066,5,0,0:0:0
256,192,87645,1,0,0:0:0
256,192,88435,5,8,0:0:0
256,192,89224,5,0,0:0:0
256,192,89619,5,8,0:0:0
256,192,89750,1,8,0:0:0
256,192,89882,1,8,0:0:0
256,192,90014,5,0,0:0:0
256,192,90803,1,0,0:0:0
256,192,91592,5,8,0:0:0
256,192,91987,5,0,0:0:0
256,192,92382,1,0,0:0:0
256,192,92777,1,0,0:0:0
256,192,92875,1,0,0:0:0
256,192,92974,1,0,0:0:0
256,192,93171,5,8,0:0:0
256,192,93566,5,0,0:0:0
256,192,93961,1,0,0:0:0
256,192,94750,5,8,0:0:0
256,192,95540,5,0,0:0:0
256,192,95935,5,8,0:0:0
256,192,96329,5,0,0:0:0
256,192,96527,1,0,0:0:0
256,192,96625,1,0,0:0:0
256,192,96724,1,0,0:0:0
256,192,97119,1,0,0:0:0
256,192,97250,1,0,0:0:0
256,192,97382,1,0,0:0:0
256,192,97514,5,8,0:0:0
256,192,97908,5,0,0:0:0
256,192,98303,5,8,0:0:0
256,192,98698,1,14,0:0:0
256,192,99487,1,8,0:0:0
256,192,99586,1,8,0:0:0
256,192,99685,1,8,0:0:0
256,192,99882,5,0,0:0:0
256,192,100277,5,14,0:0:0
256,192,100671,1,8,0:0:0
256,192,101066,5,0,0:0:0
256,192,101461,5,8,0:0:0
256,192,101856,5,0,0:0:0
256,192,102250,5,8,0:0:0
256,192,102645,5,0,0:0:0
256,192,103040,5,8,0:0:0
256,192,103435,1,8,0:0:0
256,192,103829,1,8,0:0:0
256,192,104224,5,0,0:0:0
256,192,104619,5,8,0:0:0
256,192,105013,5,0,0:0:0
256,192,105408,5,8,0:0:0
256,192,105803,1,8,0:0:0
256,192,106198,5,0,0:0:0
256,192,106592,1,4,0:0:0
256,192,106987,5,8,0:0:0
256,192,107579,5,0,0:0:0
256,192,107777,5,8,0:0:0
256,192,108171,1,8,0:0:0
256,192,108369,5,0,0:0:0
256,192,108566,5,8,0:0:0
256,192,108862,5,0,0:0:0
256,192,108961,1,0,0:0:0
256,192,109158,1,0,0:0:0
256,192,109356,5,8,0:0:0
256,192,109553,5,0,0:0:0
256,192,109750,1,0,0:0:0
256,192,110145,5,8,0:0:0
256,192,110540,1,8,0:0:0
256,192,110737,5,0,0:0:0
256,192,110935,5,8,0:0:0
256,192,111132,5,0,0:0:0
256,192,111329,1,0,0:0:0
256,192,111724,5,8,0:0:0
256,192,112119,5,0,0:0:0
256,192,112316,1,0,0:0:0
256,192,112513,5,8,0:0:0
256,192,112908,5,0,0:0:0
256,192,113106,1,0,0:0:0
256,192,113204,1,0,0:0:0
256,192,113303,1,0,0:0:0
256,192,113698,5,14,0:0:0
256,192,116066,1,8,0:0:0
256,192,116461,1,8,0:0:0
256,192,116856,1,8,0:0:0
256,192,117250,1,8,0:0:0
256,192,117645,5,0,0:0:0
256,192,117777,1,0,0:0:0
256,192,117908,1,0,0:0:0
256,192,118040,1,0,0:0:0
256,192,118435,1,0,0:0:0
256,192,118566,1,0,0:0:0
256,192,118698,1,0,0:0:0
256,192,118829,5,8,0:0:0
256,192,119224,5,4,0:0:0
256,192,119619,5,8,0:0:0
256,192,119816,1,8,0:0:0
256,192,120013,5,0,0:0:0
256,192,120211,5,8,0:0:0
256,192,120408,5,0,0:0:0
256,192,120606,5,8,0:0:0
256,192,120803,5,0,0:0:0
256,192,121000,5,8,0:0:0
256,192,121198,5,0,0:0:0
256,192,121395,5,8,0:0:0
256,192,121592,5,0,0:0:0
256,192,121987,5,8,0:0:0
256,192,122382,5,0,0:0:0
256,192,122777,1,0,0:0:0
256,192,122974,1,0,0:0:0
256,192,123171,5,8,0:0:0
256,192,123369,1,8,0:0:0
256,192,123566,5,0,0:0:0
256,192,123763,5,8,0:0:0
256,192,123961,5,0,0:0:0
256,192,124158,5,8,0:0:0
256,192,124356,5,0,0:0:0
256,192,124553,5,8,0:0:0
256,192,124750,5,0,0:0:0
256,192,125145,5,8,0:0:0
256,192,125540,5,0,0:0:0
256,192,125935,5,8,0:0:0
256,192,126132,1,8,0:0:0
256,192,126329,5,0,0:0:0
256,192,126527,1,0,0:0:0
256,192,126724,5,8,0:0:0
256,192,126921,1,8,0:0:0
256,192,127119,5,0,0:0:0
256,192,127316,1,0,0:0:0
256,192,127513,5,8,0:0:0
256,192,127711,1,8,0:0:0
256,192,127908,5,0,0:0:0
256,192,128303,5,8,0:0:0
256,192,128698,5,0,0:0:0
256,192,129092,5,8,0:0:0
256,192,129290,1,8,0:0:0
256,192,129487,5,0,0:0:0
256,192,129685,1,0,0:0:0
256,192,129882,5,8,0:0:0
256,192,130079,1,8,0:0:0
256,192,130277,5,0,0:0:0
256,192,130474,5,8,0:0:0
256,192,130671,5,0,0:0:0
256,192,130869,5,8,0:0:0
256,192,131066,5,0,0:0:0
256,192,131263,1,0,0:0:0
256,192,131461,5,14,0:0:0
256,192,131856,5,4,0:0:0
256,192,132250,5,8,0:0:0
256,192,132645,5,0,0:0:0
256,192,132842,1,0,0:0:0
256,192,133040,5,8,0:0:0
256,192,133237,5,0,0:0:0
256,192,133435,1,0,0:0:0
256,192,133632,5,8,0:0:0
256,192,133829,1,8,0:0:0
256,192,134027,5,0,0:0:0
256,192,134224,1,0,0:0:0
256,192,134421,1,0,0:0:0
256,192,134619,5,8,0:0:0
256,192,135013,5,0,0:0:0
256,192,135408,5,8,0:0:0
256,192,135803,5,0,0:0:0
256,192,136000,5,8,0:0:0
256,192,136198,5,0,0:0:0
256,192,136395,5,8,0:0:0
256,192,136592,5,0,0:0:0
256,192,136790,5,8,0:0:0
256,192,136987,5,0,0:0:0
256,192,137185,1,0,0:0:0
256,192,137382,1,0,0:0:0
256,192,137777,5,8,0:0:0
256,192,138171,5,0,0:0:0
256,192,138566,5,8,0:0:0
256,192,138763,1,8,0:0:0
256,192,138961,5,0,0:0:0
256,192,139356,5,8,0:0:0
256,192,139750,5,0,0:0:0
256,192,140145,5,8,0:0:0
256,192,140342,5,0,0:0:0
256,192,140540,1,0,0:0:0
256,192,140737,1,0,0:0:0
256,192,140935,5,8,0:0:0
256,192,141329,5,0,0:0:0
256,192,141724,5,8,0:0:0
256,192,142119,5,0,0:0:0
256,192,142513,5,8,0:0:0
256,192,142908,5,0,0:0:0
256,192,143106,5,8,0:0:0
256,192,143500,1,8,0:0:0
256,192,143599,1,8,0:0:0
256,192,143698,5,0,0:0:0
256,192,143895,1,0,0:0:0
256,192,144092,5,8,0:0:0
256,192,144487,5,4,0:0:0
256,192,144882,5,14,0:0:0
