osu file format v11

[General]
AudioFilename: Extream Fantasy.mp3
AudioLeadIn: 0
PreviewTime: 48944
Countdown: 0
SampleSet: Normal
StackLeniency: 0.6
Mode: 0
LetterboxInBreaks: 0

[Editor]
Bookmarks: 4733,17365,29997,42628,48944,64733,67891,74207,86049,100260,112891,119207,131839,142891
DistanceSpacing: 0.8
BeatDivisor: 2
GridSize: 16

[Metadata]
Title:Extreme Fantasy
TitleUnicode:Extreme Fantasy
Artist:Memme
ArtistUnicode:Memme
Creator:AngelHoney
Version:Normal
Source:O2jam Analog
Tags:Frederic Chopin respect for Chopin Classical fantasie impromptu mix Ultimate Fantasy Electro Fantasy OST Dub Electro TW-KUMA01 Naryuga
BeatmapID:192182
BeatmapSetID:49459

[Difficulty]
HPDrainRate:3
CircleSize:3
OverallDifficulty:4
ApproachRate:5
SliderMultiplier:0.8
SliderTickRate:1

[Events]
//Background and Video events
0,0,"24429280.jpg"
//Break Periods
2,43635,44603
2,113897,114866
//Storyboard Layer 0 (Background)
//Storyboard Layer 1 (Fail)
//Storyboard Layer 2 (Pass)
//Storyboard Layer 3 (Foreground)
//Storyboard Sound Samples
//Background Colour Transformations
3,100,0,0,0

[TimingPoints]
3172,394.736842105263,4,1,1,60,1,0
3172,-71.4285714285714,4,1,1,60,0,0
4141,-62.5,4,1,1,50,0,0
4750,-62.5,4,1,1,60,0,0
15704,-62.5,4,1,1,70,0,0
15902,-62.5,4,1,1,50,0,0
16198,-62.5,4,1,1,40,0,0
16593,-62.5,4,1,0,80,0,0
17283,-62.5,4,1,1,60,0,0
28435,-62.5,4,1,1,75,0,0
29224,-62.5,4,1,1,85,0,0
29816,-62.5,4,1,1,40,0,0
29915,-62.5,4,1,1,60,0,0
42645,-62.5,4,1,1,40,0,0
43435,-62.5,4,1,1,80,0,0
45803,-62.5,4,1,1,40,0,0
48566,-62.5,4,1,1,45,0,0
48764,-62.5,4,1,1,60,0,0
64750,-62.5,4,1,1,50,0,0
64849,-62.5,4,1,1,40,0,0
67908,-62.5,4,1,1,70,0,0
68106,-62.5,4,1,1,50,0,0
68204,-62.5,4,1,1,60,0,0
74125,-62.5,4,1,1,30,0,0
75014,394.736842105263,4,1,2,70,1,0
85869,-100,4,1,2,55,0,0
90704,-100,4,1,2,70,0,0
92185,-100,4,1,2,55,0,0
97119,-100,4,1,2,70,0,0
98500,-100,4,1,2,60,0,0
100277,-100,4,1,1,50,0,0
106592,-100,4,1,1,60,0,0
112908,-100,4,1,1,80,0,0
115671,-100,4,1,1,40,0,0
118829,-100,4,1,1,45,0,0
119010,-55.5555555555556,4,1,1,70,0,0
130967,-55.5555555555556,4,1,1,80,0,0
131362,-55.5555555555556,4,1,1,50,0,0
131856,-55.5555555555556,4,1,1,70,0,0
142908,-71.4285714285714,4,1,1,60,0,0
143599,-71.4285714285714,4,1,1,80,0,0
143994,-100,4,1,1,60,0,0

[Colours]
Combo1 : 248,211,171
Combo2 : 171,252,203
Combo3 : 175,221,254
Combo4 : 249,254,186
Combo5 : 240,80,80

[HitObjects]
80,96,3172,6,0,P|64:144|80:208,2,111.999996582031
224,144,4356,2,0,P|288:128|352:128,1,128
416,144,4948,6,0,P|464:192,2,64,2|8|2,0:0|0:0|0:0,0:0:0
384,288,5737,1,2,0:0:0
288,192,6132,1,2,0:0:0
272,64,6527,1,2,0:0:0
160,128,6921,1,2,0:0:0
48,192,7316,1,2,0:0:0
112,304,7711,1,2,0:0:0
240,272,8106,5,2,0:0:0
240,272,8303,1,8,0:0:0
240,272,8500,1,2,0:0:0
368,304,8895,1,2,0:0:0
464,208,9290,1,2,0:0:0
336,160,9685,1,2,0:0:0
208,112,10079,1,2,0:0:0
80,160,10474,1,2,0:0:0
144,272,10869,1,2,0:0:0
272,224,11264,5,2,0:0:0
272,224,11461,1,8,0:0:0
272,224,11658,1,2,0:0:0
352,336,12053,1,2,0:0:0
464,256,12448,1,2,0:0:0
384,144,12843,1,2,0:0:0
288,48,13237,1,2,0:0:0
160,96,13632,1,2,0:0:0
256,192,14027,1,2,0:0:0
304,320,14421,5,2,0:0:0
304,320,14619,1,8,0:0:0
304,320,14816,1,2,0:0:0
176,368,15211,1,2,0:0:0
80,272,15606,1,2,0:0:0
80,272,15803,2,0,P|64:128,2,128
144,304,16790,1,0,0:0:0
208,272,16987,1,0,0:0:0
368,240,17382,6,0,P|368:304,2,64,0|2|8,0:0|0:0|0:0,0:0:0
368,176,17974,1,2,0:0:0
224,96,18369,1,2,0:0:0
224,160,18566,1,8,0:0:0
160,192,18764,1,2,0:0:0
96,176,18961,6,0,P|65:163|32:128,2,64,0|2|8,0:0|0:0|0:0,0:0:0
112,240,19553,1,2,0:0:0
240,320,19948,1,2,0:0:0
288,272,20145,1,8,0:0:0
320,208,20343,1,2,0:0:0
320,144,20540,6,0,P|304:64,2,64,0|2|8,0:0|0:0|0:0,0:0:0
384,160,21132,1,2,0:0:0
448,192,21329,2,0,P|540:180,2,64,0|2|8,0:0|0:0|0:0,0:0:0
400,240,21921,1,2,0:0:0
336,272,22119,6,0,P|272:288,1,64,0|2,0:0|0:0,0:0:0
208,256,22514,2,0,P|128:272,1,64,8|2,0:0|0:0,0:0:0
80,240,22908,2,0,P|32:192|48:96,1,128,0|8,0:0|0:0,0:0:0
128,32,23698,6,0,P|224:64,1,64,0|2,0:0|0:0,0:0:0
256,80,24093,1,8,0:0:0
320,112,24290,2,0,P|384:144|436:120,1,128,2|2,0:0|0:0,0:0:0
480,176,24882,6,0,P|464:256|496:304,1,128,8|0,0:0|0:0,0:0:0
416,336,25474,2,0,P|368:304|288:304,1,128,2|0,0:0|0:0,0:0:0
224,320,26066,2,0,P|144:336|96:320,1,128,2|8,0:0|0:0,0:0:0
16,192,26856,6,0,P|16:128|68:64,1,128,0|8,0:0|0:0,0:0:0
112,64,27448,1,2,0:0:0
176,80,27645,2,0,P|240:96|308:76,1,128,0|8,0:0|0:0,0:0:0
448,64,28435,6,0,P|464:128,1,64
496,176,28829,2,0,P|492:240,1,64
448,288,29224,2,0,P|376:292,1,64
336,240,29619,2,0,P|256:224,1,64
208,240,30014,5,0,0:0:0
64,224,30408,1,8,0:0:0
224,144,30803,1,0,0:0:0
80,128,31198,1,8,0:0:0
240,48,31593,6,0,P|336:48,1,64
368,48,31987,2,0,P|384:128,1,64,8|0,0:0|0:0,0:0:0
384,176,32382,2,0,P|288:176,1,64
256,176,32777,2,0,P|240:256,1,64,8|0,0:0|0:0,0:0:0
224,304,33171,5,0,0:0:0
352,336,33566,1,8,0:0:0
464,272,33961,1,0,0:0:0
336,224,34356,1,8,0:0:0
208,256,34750,6,0,P|144:272|60:236,3,128,0|8|0|8,0:0|0:0|0:0|0:0,0:0:0
32,128,36329,5,0,0:0:0
160,80,36724,1,8,0:0:0
288,112,37119,1,0,0:0:0
416,64,37514,1,8,0:0:0
496,176,37908,6,0,P|464:272,1,64
448,288,38303,2,0,P|340:300,1,64,8|0,0:0|0:0,0:0:0
320,288,38698,2,0,P|272:368,1,64
224,352,39093,2,0,P|112:352,1,64,8|0,0:0|0:0,0:0:0
96,352,39487,5,0,0:0:0
16,240,39882,1,8,0:0:0
128,160,40277,1,0,0:0:0
208,272,40671,1,8,0:0:0
256,192,41066,12,8,43435,0:0:0
256,192,45803,12,0,48566,0:0:0
160,288,48961,6,0,P|240:304|292:268,1,128,4|8,0:0|0:0,0:0:0
320,240,49553,1,2,0:0:0
448,288,49948,1,2,0:0:0
496,240,50145,1,8,0:0:0
496,176,50343,1,2,0:0:0
448,128,50540,6,0,P|384:96|304:128,1,128,0|8,0:0|0:0,0:0:0
288,144,51132,1,2,0:0:0
144,208,51527,1,2,0:0:0
96,160,51724,1,8,0:0:0
96,96,51921,1,2,0:0:0
144,48,52119,6,0,P|208:16|296:28,1,128,0|8,0:0|0:0,0:0:0
320,48,52711,1,2,0:0:0
304,112,52908,2,0,P|336:176|400:192,1,128,2|8,0:0|0:0,0:0:0
448,176,53500,1,2,0:0:0
480,112,53698,6,0,P|464:32,1,64,0|2,0:0|0:0,0:0:0
416,16,54093,2,0,P|336:32,1,64,8|2,0:0|0:0,0:0:0
320,80,54487,2,0,P|240:96,1,64,2|2,0:0|0:0,0:0:0
208,128,54882,2,0,P|128:112,1,64,8|2,0:0|0:0,0:0:0
80,112,55277,6,0,P|96:240,1,128,4|8,0:0|0:0,0:0:0
112,304,55869,2,0,P|272:272,1,128,2|2,0:0|0:0,0:0:0
304,256,56461,1,8,0:0:0
368,272,56658,1,2,0:0:0
432,288,56856,6,0,P|464:208|448:160,1,128,4|8,0:0|0:0,0:0:0
307,133,57645,2,0,P|291:213|307:261,1,128,0|8,0:0|0:0,0:0:0
144,208,58435,2,0,P|160:144|132:68,1,128,4|8,0:0|0:0,0:0:0
304,48,59224,2,0,P|432:48,1,128,4|8,0:0|0:0,0:0:0
480,176,60014,5,4,0:0:0
336,176,60408,1,8,0:0:0
192,176,60803,1,4,0:0:0
48,176,61198,1,8,0:0:0
16,304,61593,5,4,0:0:0
160,304,61987,1,8,0:0:0
304,304,62382,1,4,0:0:0
448,304,62777,1,8,0:0:0
480,176,63171,5,4,0:0:0
336,176,63566,1,8,0:0:0
192,176,63961,1,4,0:0:0
48,176,64356,1,8,0:0:0
16,304,64750,5,0,0:0:0
256,192,64948,12,0,67908,0:0:0
256,128,68303,6,0,P|224:192|240:256,2,128
384,144,69487,5,0,0:0:0
384,144,69882,1,0,0:0:0
384,144,70277,1,0,0:0:0
384,144,70671,1,0,0:0:0
320,240,71066,5,0,0:0:0
320,240,71461,1,0,0:0:0
320,240,71856,1,0,0:0:0
320,240,72250,1,0,0:0:0
208,224,72645,5,0,0:0:0
208,224,73040,1,0,0:0:0
208,224,73435,1,0,0:0:0
208,224,73829,1,0,0:0:0
336,96,75014,5,4,0:0:0
336,96,75803,1,8,0:0:0
336,96,76592,2,0,P|240:32|96:64,1,240,0|8,0:0|0:0,0:0:0
32,144,78171,5,0,0:0:0
32,144,78961,1,8,0:0:0
32,144,79750,2,0,P|160:112|272:180,1,240,0|8,0:0|0:0,0:0:0
320,256,81329,5,0,0:0:0
320,256,82119,1,8,0:0:0
320,256,82908,2,0,P|432:224|464:80,1,240,0|8,0:0|0:0,0:0:0
368,32,84487,5,0,0:0:0
368,32,85277,1,8,0:0:0
160,96,86066,6,0,P|64:80,3,80
65,178,87645,2,0,P|144:192,3,80,0|0|8|0,0:0|0:0|0:0|0:0,0:0:0
96,288,89224,6,0,P|192:320|256:272,1,160,0|8,0:0|0:0,0:0:0
304,192,90408,1,0,0:0:0
368,304,90803,2,0,P|448:256|528:288,1,160,0|8,0:0|0:0,0:0:0
432,128,92382,6,0,P|352:128|272:80,1,160,0|8,0:0|0:0,0:0:0
160,32,93566,1,0,0:0:0
160,160,93961,2,0,P|80:160|0:224,1,160,0|8,0:0|0:0,0:0:0
16,320,95145,1,0,0:0:0
128,272,95540,6,0,P|256:320|352:240,1,240
224,240,97119,2,0,P|304:160|304:112,1,160,0|8,0:0|0:0,0:0:0
208,32,98303,1,0,0:0:0
112,112,98698,6,0,P|208:176|320:112,1,240
416,48,100277,6,0,P|512:48,1,80
448,160,101066,2,0,P|448:256,1,80
336,192,101856,2,0,P|240:192,1,80
288,304,102645,2,0,P|288:400,1,80
176,336,103435,6,0,P|64:336,1,80
32,176,104224,2,0,P|32:272,1,80
160,224,105013,2,0,P|256:224,1,80
368,336,105803,2,0,P|368:240,1,80
448,160,106592,5,0,0:0:0
448,160,106987,1,8,0:0:0
336,112,107382,1,0,0:0:0
336,112,107777,1,8,0:0:0
224,176,108171,1,0,0:0:0
224,176,108566,1,8,0:0:0
112,128,108961,1,0,0:0:0
112,128,109356,1,8,0:0:0
16,192,109750,5,0,0:0:0
16,192,110145,1,8,0:0:0
80,288,110540,1,0,0:0:0
80,288,110935,1,8,0:0:0
192,256,111329,1,0,0:0:0
192,256,111724,1,8,0:0:0
288,304,112119,1,0,0:0:0
288,304,112513,1,8,0:0:0
400,256,112908,6,0,P|352:160|368:96,1,160,0|8,0:0|0:0,0:0:0
256,192,116066,12,0,118829,0:0:0
64,96,119224,5,0,0:0:0
128,64,119421,1,2,0:0:0
192,80,119619,1,8,0:0:0
240,128,119816,1,2,0:0:0
192,256,120211,1,2,0:0:0
320,304,120606,1,2,0:0:0
368,176,121000,1,2,0:0:0
240,128,121395,1,2,0:0:0
192,256,121790,1,2,0:0:0
320,304,122185,1,2,0:0:0
368,176,122579,5,2,0:0:0
368,176,122777,1,8,0:0:0
368,176,122974,1,2,0:0:0
240,128,123369,1,2,0:0:0
192,256,123763,1,2,0:0:0
320,304,124158,1,2,0:0:0
368,176,124553,1,2,0:0:0
240,128,124948,1,2,0:0:0
192,256,125342,1,2,0:0:0
320,304,125737,5,2,0:0:0
320,304,125935,1,8,0:0:0
320,304,126132,1,2,0:0:0
368,176,126527,1,2,0:0:0
240,128,126921,1,2,0:0:0
192,256,127316,1,2,0:0:0
320,304,127711,1,2,0:0:0
368,176,128106,1,2,0:0:0
240,128,128500,1,2,0:0:0
192,256,128895,5,2,0:0:0
192,256,129092,1,8,0:0:0
192,256,129290,1,2,0:0:0
320,304,129685,1,2,0:0:0
368,176,130079,1,2,0:0:0
240,128,130474,1,2,0:0:0
192,256,130869,1,2,0:0:0
192,256,131066,1,0,0:0:0
192,256,131263,1,0,0:0:0
192,256,131461,2,0,P|272:240|352:288,1,143.999995605469
384,304,132053,5,2,0:0:0
416,240,132250,1,8,0:0:0
448,176,132448,1,2,0:0:0
384,48,132842,1,2,0:0:0
320,176,133237,1,2,0:0:0
256,48,133632,1,2,0:0:0
192,176,134027,1,2,0:0:0
128,48,134421,1,2,0:0:0
64,176,134816,1,2,0:0:0
0,48,135211,5,2,0:0:0
0,48,135408,1,8,0:0:0
0,48,135606,1,2,0:0:0
112,128,136000,1,2,0:0:0
240,80,136395,1,2,0:0:0
368,128,136790,1,2,0:0:0
416,256,137185,1,2,0:0:0
320,352,137579,1,2,0:0:0
192,320,137974,1,2,0:0:0
176,192,138369,5,2,0:0:0
176,192,138566,1,8,0:0:0
176,192,138763,1,2,0:0:0
304,144,139158,1,2,0:0:0
352,16,139553,1,2,0:0:0
464,96,139948,1,2,0:0:0
400,224,140342,1,2,0:0:0
480,336,140737,1,2,0:0:0
336,352,141132,1,2,0:0:0
224,256,141527,5,2,0:0:0
224,256,141724,1,8,0:0:0
224,256,141921,1,2,0:0:0
80,288,142316,1,2,0:0:0
16,160,142711,1,2,0:0:0
16,160,142908,6,0,P|96:80|204:104,1,223.999993164063,4|0,0:0|0:0,0:0:0
240,144,143895,1,0,0:0:0
256,208,144092,1,0,0:0:0
144,336,144487,2,0,P|240:300,1,80
