osu file format v11

[General]
AudioFilename: Extream Fantasy.mp3
AudioLeadIn: 0
PreviewTime: 48944
Countdown: 0
SampleSet: Normal
StackLeniency: 0.6
Mode: 0
LetterboxInBreaks: 0

[Editor]
Bookmarks: 4733,17365,29997,42628,48944,64733,67891,74207,86049,100260,112891,119207,131839,142891
DistanceSpacing: 0.8
BeatDivisor: 4
GridSize: 4

[Metadata]
Title:Extreme Fantasy
TitleUnicode:Extreme Fantasy
Artist:Memme
ArtistUnicode:Memme
Creator:AngelHoney
Version:ExtrA
Source:O2jam Analog
Tags:Frederic Chopin respect for Chopin Classical fantasie impromptu mix Ultimate Fantasy Electro Fantasy OST Dub Electro TW-KUMA01 Naryuga
BeatmapID:152480
BeatmapSetID:49459

[Difficulty]
HPDrainRate:7
CircleSize:5
OverallDifficulty:7
ApproachRate:8
SliderMultiplier:1.4
SliderTickRate:1

[Events]
//Background and Video events
0,0,"24429280.jpg"
//Break Periods
2,43635,45053
2,113898,115316
//Storyboard Layer 0 (Background)
//Storyboard Layer 1 (Fail)
//Storyboard Layer 2 (Pass)
//Storyboard Layer 3 (Foreground)
//Storyboard Sound Samples
//Background Colour Transformations
3,100,0,0,0

[TimingPoints]
3172,394.736842105263,4,1,1,60,1,0
4141,-62.5,4,1,1,50,0,0
4750,-62.5,4,1,1,60,0,0
15704,-62.5,4,1,1,70,0,0
15902,-62.5,4,1,1,50,0,0
16198,-62.5,4,1,1,40,0,0
16593,-62.5,4,1,0,80,0,0
17283,-62.5,4,1,1,60,0,0
28435,-62.5,4,1,1,75,0,0
29224,-62.5,4,1,1,85,0,0
29816,-62.5,4,1,1,40,0,0
29915,-62.5,4,1,1,60,0,0
42645,-62.5,4,1,1,40,0,0
43435,-62.5,4,1,1,80,0,0
45803,-62.5,4,1,1,40,0,0
48566,-62.5,4,1,1,45,0,0
48764,-62.5,4,1,1,60,0,0
64750,-62.5,4,1,1,50,0,0
64849,-62.5,4,1,1,40,0,0
67908,-62.5,4,1,1,70,0,0
68106,-62.5,4,1,1,50,0,0
68204,-62.5,4,1,1,60,0,0
74125,-62.5,4,1,1,30,0,0
75014,394.736842105263,4,1,2,70,1,0
85869,-100,4,1,2,55,0,0
90704,-100,4,1,2,70,0,0
92185,-100,4,1,2,55,0,0
97119,-100,4,1,2,70,0,0
98500,-100,4,1,2,60,0,0
100277,-100,4,1,1,50,0,0
106592,-100,4,1,1,60,0,0
112908,-100,4,1,1,80,0,0
115671,-100,4,1,1,40,0,0
118829,-100,4,1,1,45,0,0
119010,-55.5555555555556,4,1,1,70,0,0
130967,-55.5555555555556,4,1,1,80,0,0
131362,-55.5555555555556,4,1,1,50,0,0
131856,-55.5555555555556,4,1,1,70,0,0
142908,-71.4285714285714,4,1,1,60,0,0
143599,-71.4285714285714,4,1,1,80,0,0
143994,-100,4,1,1,60,0,0

[Colours]
Combo1 : 248,211,171
Combo2 : 171,252,203
Combo3 : 175,221,254
Combo4 : 249,254,186
Combo5 : 240,80,80

[HitObjects]
72,128,3172,6,0,B|136:104|184:136|184:136|224:104|224:104|280:128|352:104,1,280,4|0,0:0|0:0,0:0:0
448,264,4356,1,2,0:0:0
416,272,4454,1,2,0:0:0
384,280,4553,1,2,0:0:0
352,288,4652,1,2,0:0:0
320,296,4750,6,0,B|288:304|288:304|248:288|248:288|208:312,1,112,4|0,0:0|0:0,0:0:0
40,296,5145,1,8,0:0:0
40,288,5244,1,0,0:0:0
40,280,5343,1,2,0:0:0
160,248,5540,1,0,0:0:0
156,241,5639,1,0,0:0:0
152,234,5737,1,2,0:0:0
256,152,5935,1,8,0:0:0
249,148,6033,1,0,0:0:0
242,144,6132,1,2,0:0:0
336,40,6329,1,0,0:0:0
328,40,6428,1,0,0:0:0
320,40,6527,1,2,0:0:0
408,160,6724,1,8,0:0:0
414,155,6823,1,0,0:0:0
421,151,6921,1,2,0:0:0
320,264,7119,2,0,B|360:272|360:272|376:304|376:304|448:320,1,112,8|0,0:0|0:0,0:0:0
200,184,7514,2,0,B|160:192|160:192|144:224|144:224|88:248,1,112,8|0,0:0|0:0,0:0:0
216,336,7908,5,0,0:0:0
211,346,8007,1,0,0:0:0
207,356,8106,1,0,0:0:0
368,216,8303,2,0,B|408:200|408:200|440:208|440:208|488:192,1,112,8|2,0:0|0:0,0:0:0
320,56,8698,2,0,B|305:89|305:89|264:96|264:96|240:152,1,112,0|2,0:0|0:0,0:0:0
112,136,9093,2,0,B|72:120|72:120|40:128|40:128|0:96,1,112,8|2,0:0|0:0,0:0:0
88,256,9487,2,0,B|128:248|128:248|160:272|160:272|216:264,1,112,0|2,0:0|0:0,0:0:0
376,160,9882,2,0,B|336:144|336:144|304:152|304:152|256:144,1,112,8|2,0:0|0:0,0:0:0
384,280,10277,2,0,B|409:307|409:307|448:320|448:320|488:360,1,112
200,344,10671,2,0,B|210:303|210:303|240:288|240:288|256:232,1,112,8|0,0:0|0:0,0:0:0
296,120,11066,5,0,0:0:0
296,112,11165,1,0,0:0:0
296,104,11264,1,0,0:0:0
152,88,11461,1,8,0:0:0
145,84,11560,1,0,0:0:0
138,80,11658,1,2,0:0:0
72,208,11856,1,0,0:0:0
66,212,11954,1,0,0:0:0
59,216,12053,1,2,0:0:0
168,304,12250,1,8,0:0:0
168,312,12349,1,0,0:0:0
168,320,12448,1,2,0:0:0
304,264,12645,1,0,0:0:0
310,268,12744,1,0,0:0:0
317,272,12843,1,2,0:0:0
368,136,13040,1,8,0:0:0
376,136,13139,1,0,0:0:0
384,136,13237,1,2,0:0:0
176,48,13435,2,0,B|208:88|208:88|192:176,1,112,8|0,0:0|0:0,0:0:0
64,320,13829,2,0,B|32:280|32:280|48:192,1,112,8|0,0:0|0:0,0:0:0
184,248,14224,5,0,0:0:0
304,224,14421,1,0,0:0:0
416,200,14619,1,8,0:0:0
336,312,14816,2,0,B|368:320|368:320|408:312|408:312|456:320,1,112,2|0,0:0|0:0,0:0:0
224,360,15211,1,2,0:0:0
144,192,15408,2,0,B|104:200|104:200|72:192|72:192|16:208,1,112,8|2,0:0|0:0,0:0:0
216,88,15803,5,0,0:0:0
224,88,15902,1,0,0:0:0
232,88,16000,1,0,0:0:0
240,88,16099,1,0,0:0:0
248,88,16198,1,0,0:0:0
256,88,16296,1,0,0:0:0
264,88,16395,1,0,0:0:0
272,88,16494,1,0,0:0:0
280,88,16593,5,0,0:0:0
448,144,16790,1,0,0:0:0
232,240,16987,1,0,0:0:0
408,312,17185,1,0,0:0:0
128,336,17382,5,0,0:0:0
104,328,17481,1,0,0:0:0
88,312,17579,1,2,0:0:0
76,292,17678,1,0,0:0:0
76,268,17777,1,8,0:0:0
84,248,17875,1,0,0:0:0
100,232,17974,1,2,0:0:0
120,220,18073,1,0,0:0:0
140,212,18171,2,0,B|132:156,1,56,0|0,0:0|0:0,0:0:0
200,168,18369,2,0,B|192:104,1,56,2|0,0:0|0:0,0:0:0
264,144,18566,2,0,B|256:80,1,56,10|0,0:0|0:0,0:0:0
336,152,18764,2,0,B|328:88,1,56,2|0,0:0|0:0,0:0:0
400,176,18961,5,0,0:0:0
420,188,19060,1,0,0:0:0
436,204,19158,1,2,0:0:0
448,224,19257,1,0,0:0:0
452,248,19356,1,8,0:0:0
448,272,19454,1,0,0:0:0
432,292,19553,1,2,0:0:0
408,304,19652,1,0,0:0:0
384,312,19750,2,0,B|312:328,1,56
336,256,19948,2,0,B|272:272,1,56,2|0,0:0|0:0,0:0:0
296,200,20145,2,0,B|232:216,1,56,10|0,0:0|0:0,0:0:0
256,144,20343,2,0,B|192:160,1,56,2|0,0:0|0:0,0:0:0
208,88,20540,5,0,0:0:0
184,80,20639,1,0,0:0:0
160,80,20737,1,2,0:0:0
136,84,20836,1,0,0:0:0
112,92,20935,1,8,0:0:0
92,104,21033,1,0,0:0:0
72,120,21132,1,2,0:0:0
56,140,21231,1,0,0:0:0
48,164,21329,1,2,0:0:0
44,188,21428,1,0,0:0:0
48,212,21527,1,2,0:0:0
56,236,21625,1,0,0:0:0
72,256,21724,1,10,0:0:0
88,272,21823,1,0,0:0:0
108,284,21921,1,2,0:0:0
132,288,22020,1,0,0:0:0
156,288,22119,6,0,B|212:280,3,56,0|0|2|0,0:0|0:0|0:0|0:0,0:0:0
248,208,22514,2,0,B|184:216,3,56,8|0|0|0,0:0|0:0|0:0|0:0,0:0:0
232,144,22908,2,0,B|296:136,3,56,2|0|2|0,0:0|0:0|0:0|0:0,0:0:0
323,68,23303,2,0,B|259:76,3,56,10|0|2|0,0:0|0:0|0:0|0:0,0:0:0
392,48,23698,5,0,0:0:0
416,60,23796,1,0,0:0:0
436,80,23895,1,2,0:0:0
452,104,23994,1,0,0:0:0
460,128,24093,1,8,0:0:0
460,156,24191,1,0,0:0:0
456,184,24290,1,2,0:0:0
444,208,24389,1,0,0:0:0
428,232,24487,2,0,B|360:240,1,56
320,192,24685,2,0,B|248:200,1,56,2|0,0:0|0:0,0:0:0
216,152,24882,2,0,B|144:160,1,56,10|0,0:0|0:0,0:0:0
104,120,25079,2,0,B|40:128,1,56,2|0,0:0|0:0,0:0:0
24,192,25277,6,0,B|40:264,1,56
104,232,25474,2,0,B|120:288,1,56,2|0,0:0|0:0,0:0:0
184,264,25671,2,0,B|208:336,1,56,10|0,0:0|0:0,0:0:0
264,280,25869,2,0,B|296:360,1,56,2|0,0:0|0:0,0:0:0
344,288,26066,2,0,B|400:272,1,56
360,208,26264,2,0,B|416:192,1,56,2|0,0:0|0:0,0:0:0
368,128,26461,2,0,B|424:112,1,56,10|0,0:0|0:0,0:0:0
376,48,26658,2,0,B|432:32,1,56,2|0,0:0|0:0,0:0:0
296,32,26856,5,0,0:0:0
272,48,26954,1,0,0:0:0
244,56,27053,1,2,0:0:0
216,56,27152,1,0,0:0:0
189,46,27250,1,0,0:0:0
164,32,27349,1,0,0:0:0
136,16,27448,1,2,0:0:0
116,36,27546,1,0,0:0:0
92,52,27645,1,2,0:0:0
68,64,27744,1,0,0:0:0
40,68,27843,1,2,0:0:0
12,64,27941,1,0,0:0:0
28,96,28040,1,2,0:0:0
36,132,28139,1,0,0:0:0
40,168,28237,1,2,0:0:0
40,204,28336,1,0,0:0:0
32,240,28435,5,4,0:0:0
264,240,28632,1,0,0:0:0
72,304,28829,1,0,0:0:0
224,174,29027,1,0,0:0:0
160,344,29224,1,0,0:0:0
160,344,29323,1,0,0:0:0
160,344,29421,1,0,0:0:0
160,344,29520,1,0,0:0:0
160,344,29619,2,0,B|200:352|200:352|232:336|232:336|280:344,1,112
112,56,30014,6,0,B|24:128|40:240,1,168
144,272,30408,2,0,B|232:200|216:88,1,168,8|0,0:0|0:0,0:0:0
152,120,30803,2,0,B|104:208|168:304,1,168
288,264,31198,2,0,B|336:176|272:80,1,168,8|0,0:0|0:0,0:0:0
200,48,31593,5,0,0:0:0
200,56,31691,1,0,0:0:0
200,64,31790,1,0,0:0:0
376,96,31987,1,8,0:0:0
376,104,32086,1,0,0:0:0
376,112,32185,1,0,0:0:0
120,168,32382,1,0,0:0:0
120,176,32481,1,0,0:0:0
120,184,32579,1,0,0:0:0
336,256,32777,1,8,0:0:0
336,264,32875,1,0,0:0:0
336,272,32974,1,0,0:0:0
120,320,33171,6,0,B|160:224|80:144,1,168
264,72,33566,2,0,B|224:168|304:248,1,168,8|0,0:0|0:0,0:0:0
200,232,33961,2,0,B|112:200|32:264,1,168
176,136,34356,2,0,B|264:168|344:104,1,168,8|0,0:0|0:0,0:0:0
400,64,34750,5,2,0:0:0
416,84,34849,1,0,0:0:0
428,108,34948,1,0,0:0:0
432,136,35046,1,0,0:0:0
428,164,35145,1,10,0:0:0
420,192,35244,1,0,0:0:0
408,220,35343,1,0,0:0:0
396,248,35441,1,0,0:0:0
400,276,35540,1,2,0:0:0
372,288,35639,1,0,0:0:0
344,300,35737,1,2,0:0:0
312,308,35836,1,0,0:0:0
280,296,35935,1,10,0:0:0
244,304,36033,1,0,0:0:0
208,312,36132,1,10,0:0:0
172,320,36231,1,0,0:0:0
136,328,36329,6,0,B|208:248|152:144,1,168,4|0,0:0|0:0,0:0:0
284,52,36724,2,0,B|212:132|268:236,1,168,8|0,0:0|0:0,0:0:0
336,232,37119,2,0,B|408:152|352:48,1,168
468,192,37514,2,0,B|396:272|452:376,1,168,8|0,0:0|0:0,0:0:0
352,328,37908,5,0,0:0:0
336,328,38007,1,0,0:0:0
320,328,38106,1,0,0:0:0
80,248,38303,1,8,0:0:0
96,248,38402,1,0,0:0:0
112,248,38500,1,0,0:0:0
344,160,38698,1,0,0:0:0
328,160,38796,1,0,0:0:0
312,160,38895,1,0,0:0:0
120,64,39093,1,8,0:0:0
136,64,39191,1,0,0:0:0
152,64,39290,1,0,0:0:0
344,288,39487,6,0,B|304:200|192:208,1,168,4|0,0:0|0:0,0:0:0
456,200,39882,2,0,B|368:160|376:48,1,168,8|0,0:0|0:0,0:0:0
296,144,40277,2,0,B|256:56|144:64,1,168
152,272,40672,2,0,B|64:232|72:120,1,168,8|0,0:0|0:0,0:0:0
160,144,41066,5,2,0:0:0
184,132,41165,1,0,0:0:0
212,128,41264,1,0,0:0:0
240,132,41362,1,0,0:0:0
264,144,41461,1,10,0:0:0
284,164,41560,1,0,0:0:0
296,188,41658,1,0,0:0:0
303,213,41757,1,0,0:0:0
300,240,41856,1,2,0:0:0
292,264,41954,1,0,0:0:0
276,284,42053,1,2,0:0:0
252,300,42152,1,0,0:0:0
228,308,42250,1,10,0:0:0
200,308,42349,1,0,0:0:0
172,296,42448,1,10,0:0:0
152,276,42546,1,0,0:0:0
256,192,42645,12,8,43435,0:0:0
256,192,45803,12,0,48566,0:0:0
192,100,48961,5,4,0:0:0
192,100,49060,5,0,0:0:0
224,88,49158,1,2,0:0:0
260,88,49257,1,0,0:0:0
292,100,49356,1,8,0:0:0
316,124,49454,1,0,0:0:0
328,160,49553,1,2,0:0:0
320,192,49652,1,0,0:0:0
292,212,49750,1,0,0:0:0
256,216,49849,1,0,0:0:0
220,208,49948,1,2,0:0:0
184,212,50046,1,0,0:0:0
156,236,50145,1,10,0:0:0
152,272,50244,1,0,0:0:0
164,304,50343,1,2,0:0:0
196,320,50441,1,0,0:0:0
232,320,50540,5,0,0:0:0
232,320,50639,5,0,0:0:0
252,292,50737,1,2,0:0:0
256,256,50836,1,0,0:0:0
244,224,50935,1,8,0:0:0
216,200,51033,1,0,0:0:0
192,176,51132,1,2,0:0:0
180,144,51231,1,0,0:0:0
184,108,51329,1,0,0:0:0
208,80,51428,1,0,0:0:0
240,64,51527,1,2,0:0:0
276,68,51625,1,0,0:0:0
308,84,51724,1,10,0:0:0
328,112,51823,1,0,0:0:0
332,148,51921,1,2,0:0:0
316,180,52020,1,0,0:0:0
284,204,52119,5,0,0:0:0
284,204,52218,5,0,0:0:0
248,200,52316,1,2,0:0:0
212,196,52415,1,0,0:0:0
176,192,52514,1,8,0:0:0
140,188,52612,1,0,0:0:0
104,184,52711,1,2,0:0:0
68,180,52810,1,0,0:0:0
32,176,52908,1,2,0:0:0
16,208,53007,1,0,0:0:0
32,240,53106,1,2,0:0:0
48,272,53204,1,0,0:0:0
64,304,53303,1,10,0:0:0
96,296,53402,1,0,0:0:0
128,288,53500,1,2,0:0:0
160,280,53599,1,0,0:0:0
192,272,53698,5,0,0:0:0
192,272,53796,5,0,0:0:0
208,240,53895,1,2,0:0:0
232,212,53994,1,0,0:0:0
264,196,54093,1,10,0:0:0
300,196,54191,1,0,0:0:0
332,216,54290,1,2,0:0:0
348,248,54389,1,0,0:0:0
348,284,54487,1,0,0:0:0
332,316,54586,1,0,0:0:0
300,332,54685,1,2,0:0:0
264,324,54783,1,0,0:0:0
232,300,54882,1,10,0:0:0
200,288,54981,1,0,0:0:0
164,288,55079,1,2,0:0:0
132,304,55178,1,0,0:0:0
112,332,55277,5,4,0:0:0
112,332,55375,5,0,0:0:0
96,300,55474,1,2,0:0:0
76,268,55573,1,0,0:0:0
52,240,55671,1,8,0:0:0
20,224,55770,1,0,0:0:0
44,196,55869,1,2,0:0:0
64,164,55968,1,0,0:0:0
72,128,56066,1,0,0:0:0
72,88,56165,1,0,0:0:0
56,52,56264,1,2,0:0:0
32,24,56362,1,0,0:0:0
68,16,56461,1,10,0:0:0
104,24,56560,1,0,0:0:0
136,36,56658,1,2,0:0:0
176,48,56757,1,0,0:0:0
212,48,56856,5,4,0:0:0
212,48,56954,5,0,0:0:0
240,76,57053,1,2,0:0:0
260,108,57152,1,0,0:0:0
268,144,57250,1,10,0:0:0
264,180,57349,1,0,0:0:0
252,212,57448,1,2,0:0:0
228,240,57546,1,0,0:0:0
192,248,57645,1,0,0:0:0
156,240,57744,1,0,0:0:0
120,228,57843,1,2,0:0:0
84,216,57941,1,0,0:0:0
48,212,58040,1,10,0:0:0
16,228,58139,1,0,0:0:0
0,260,58237,1,2,0:0:0
4,296,58336,1,0,0:0:0
4,332,58435,5,4,0:0:0
4,332,58533,5,0,0:0:0
40,328,58632,1,2,0:0:0
76,324,58731,1,0,0:0:0
112,320,58829,1,8,0:0:0
148,316,58928,1,0,0:0:0
184,312,59027,1,2,0:0:0
220,308,59125,1,0,0:0:0
256,304,59224,1,0,0:0:0
292,300,59323,1,0,0:0:0
328,296,59421,1,2,0:0:0
364,292,59520,1,0,0:0:0
400,288,59619,1,10,0:0:0
436,284,59718,1,0,0:0:0
472,280,59816,1,2,0:0:0
508,276,59915,1,0,0:0:0
512,316,60014,5,4,0:0:0
512,316,60112,5,0,0:0:0
480,332,60211,1,2,0:0:0
444,328,60310,1,0,0:0:0
416,304,60408,1,10,0:0:0
400,272,60507,1,0,0:0:0
400,236,60606,1,2,0:0:0
420,204,60704,1,0,0:0:0
456,192,60803,5,4,0:0:0
456,192,60902,5,0,0:0:0
420,184,61000,1,2,0:0:0
392,160,61099,1,0,0:0:0
372,128,61198,1,10,0:0:0
368,92,61296,1,0,0:0:0
384,60,61395,1,2,0:0:0
416,40,61494,1,0,0:0:0
452,36,61593,5,4,0:0:0
452,36,61691,5,0,0:0:0
472,64,61790,1,2,0:0:0
484,96,61889,1,0,0:0:0
488,132,61987,1,0,0:0:0
480,164,62086,1,0,0:0:0
456,192,62185,1,2,0:0:0
424,212,62283,1,0,0:0:0
388,216,62382,1,2,0:0:0
352,208,62481,1,0,0:0:0
316,192,62579,1,2,0:0:0
280,172,62678,1,0,0:0:0
248,152,62777,1,2,0:0:0
212,144,62875,1,0,0:0:0
176,148,62974,1,2,0:0:0
140,164,63073,1,0,0:0:0
112,184,63171,5,4,0:0:0
112,184,63270,5,0,0:0:0
124,220,63369,1,2,0:0:0
156,240,63468,1,0,0:0:0
192,240,63566,1,0,0:0:0
228,228,63665,1,0,0:0:0
256,204,63764,1,2,0:0:0
268,168,63862,1,0,0:0:0
264,132,63961,1,2,0:0:0
240,104,64060,1,0,0:0:0
208,88,64158,1,2,0:0:0
172,84,64257,1,0,0:0:0
136,96,64356,1,2,0:0:0
108,116,64454,1,0,0:0:0
88,148,64553,1,2,0:0:0
80,184,64652,1,0,0:0:0
88,220,64750,5,0,0:0:0
28,348,64948,1,2,0:0:0
57,365,65046,1,0,0:0:0
91,349,65145,1,2,0:0:0
123,367,65244,1,0,0:0:0
154,347,65343,1,2,0:0:0
188,357,65441,1,0,0:0:0
216,331,65540,1,0,0:0:0
251,341,65639,1,0,0:0:0
272,310,65737,1,2,0:0:0
308,316,65836,1,0,0:0:0
312,276,65935,1,2,0:0:0
348,276,66033,1,0,0:0:0
335,237,66132,1,2,0:0:0
372,228,66231,1,0,0:0:0
347,194,66329,1,0,0:0:0
384,180,66428,1,0,0:0:0
347,152,66527,1,2,0:0:0
380,132,66625,1,0,0:0:0
337,112,66724,1,2,0:0:0
364,92,66823,1,0,0:0:0
320,76,66921,1,2,0:0:0
340,56,67020,1,0,0:0:0
288,52,67119,1,0,0:0:0
304,32,67218,1,0,0:0:0
248,44,67316,1,2,0:0:0
260,24,67415,1,0,0:0:0
208,44,67514,1,2,0:0:0
216,24,67612,1,0,0:0:0
168,52,67711,1,2,0:0:0
176,32,67810,1,0,0:0:0
136,64,67908,6,0,B|76:72|24:116,1,112
120,160,68303,6,0,B|48:240|112:368,1,168,4|0,0:0|0:0,0:0:0
384,304,68698,2,0,B|456:224|392:96,1,168
160,216,69093,2,0,B|136:336|232:392,1,168
344,240,69487,2,0,B|368:120|272:64,1,168,4|0,0:0|0:0,0:0:0
224,272,69882,2,0,B|272:352|376:352,1,168
280,184,70277,2,0,B|232:104|128:104,1,168,4|0,0:0|0:0,0:0:0
64,112,70671,2,0,B|104:280,1,168
440,336,71066,2,0,B|400:168,1,168,4|0,0:0|0:0,0:0:0
152,336,71461,6,0,B|232:264|192:144,1,168,4|0,0:0|0:0,0:0:0
360,104,71856,2,0,B|280:176|320:296,1,168
248,120,72250,2,0,B|160:120|80:64,1,168
256,320,72645,2,0,B|344:320|424:376,1,168,4|0,0:0|0:0,0:0:0
160,224,73040,2,0,B|144:312|24:368,1,168,4|0,0:0|0:0,0:0:0
352,208,73435,2,0,B|368:120|488:64,1,168
256,96,73829,2,0,B|208:120|168:104|168:104|128:88|64:120,1,168
104,288,75014,5,4,0:0:0
104,288,75803,2,0,B|168:344|248:280,1,140,8|0,0:0|0:0,0:0:0
304,80,76592,5,0,0:0:0
336,112,76724,5,0,0:0:0
356,152,76856,5,0,0:0:0
352,196,76987,5,0,0:0:0
332,236,77119,5,0,0:0:0
296,260,77250,5,0,0:0:0
252,272,77382,5,8,0:0:0
208,264,77514,5,0,0:0:0
176,236,77645,5,0,0:0:0
156,196,77777,6,0,B|164:124,1,70
163,126,78171,1,0,0:0:0
408,96,78961,2,0,B|328:56|272:128,1,140,8|0,0:0|0:0,0:0:0
184,304,79750,5,0,0:0:0
224,324,79882,5,0,0:0:0
268,320,80014,5,0,0:0:0
304,296,80145,5,0,0:0:0
324,256,80277,5,0,0:0:0
324,212,80408,5,0,0:0:0
304,172,80540,5,8,0:0:0
190,84,80737,1,0,0:0:0
166,92,80836,1,0,0:0:0
144,108,80935,1,0,0:0:0
128,128,81033,1,0,0:0:0
112,148,81132,1,0,0:0:0
92,164,81231,1,0,0:0:0
68,176,81329,1,0,0:0:0
8,332,82119,2,0,B|48:316|48:316|104:324|104:324|168:296,1,140,8|0,0:0|0:0,0:0:0
328,328,82908,5,0,0:0:0
356,292,83040,5,0,0:0:0
368,248,83171,5,0,0:0:0
360,204,83303,5,0,0:0:0
328,172,83435,5,0,0:0:0
288,156,83566,5,0,0:0:0
244,160,83698,5,8,0:0:0
204,180,83829,5,0,0:0:0
180,216,83961,5,0,0:0:0
176,260,84092,6,0,B|256:248,1,70
245,249,84487,1,0,0:0:0
464,112,85277,2,0,B|432:128|432:128|392:108|392:108|316:124,1,140,8|0,0:0|0:0,0:0:0
132,64,86066,5,0,0:0:0
152,88,86165,1,0,0:0:0
164,116,86264,1,2,0:0:0
168,148,86362,1,0,0:0:0
164,180,86461,1,0,0:0:0
152,208,86560,1,0,0:0:0
132,232,86658,1,2,0:0:0
104,244,86757,1,0,0:0:0
72,248,86856,1,0,0:0:0
48,228,86954,1,0,0:0:0
32,196,87053,1,2,0:0:0
32,160,87152,1,0,0:0:0
44,128,87250,1,2,0:0:0
68,104,87349,1,0,0:0:0
100,92,87448,1,2,0:0:0
372,60,87645,5,0,0:0:0
352,84,87744,1,0,0:0:0
340,112,87843,1,2,0:0:0
336,144,87941,1,0,0:0:0
340,176,88040,1,0,0:0:0
352,204,88139,1,0,0:0:0
372,228,88237,1,2,0:0:0
400,240,88336,1,0,0:0:0
432,244,88435,1,8,0:0:0
456,224,88533,1,0,0:0:0
472,192,88632,1,2,0:0:0
472,156,88731,1,0,0:0:0
460,124,88829,1,2,0:0:0
436,100,88928,1,0,0:0:0
404,88,89027,1,2,0:0:0
236,144,89224,5,0,0:0:0
272,172,89356,5,0,0:0:0
292,212,89487,5,0,0:0:0
300,260,89619,5,0,0:0:0
288,304,89750,5,0,0:0:0
264,344,89882,5,0,0:0:0
225,364,90014,5,8,0:0:0
194,359,90112,1,0,0:0:0
164,340,90211,1,2,0:0:0
145,309,90310,1,0,0:0:0
139,276,90408,1,2,0:0:0
147,243,90507,1,0,0:0:0
168,216,90606,1,2,0:0:0
280,164,90803,5,0,0:0:0
280,164,91592,2,0,B|344:220|424:148,1,140,8|0,0:0|0:0,0:0:0
128,56,92382,5,0,0:0:0
128,56,92481,5,0,0:0:0
148,80,92580,1,2,0:0:0
160,108,92678,1,0,0:0:0
164,140,92777,1,0,0:0:0
152,172,92876,1,0,0:0:0
132,196,92974,1,2,0:0:0
104,212,93073,1,0,0:0:0
72,216,93172,1,10,0:0:0
44,232,93270,1,0,0:0:0
24,260,93369,1,2,0:0:0
16,292,93468,1,0,0:0:0
24,324,93566,1,2,0:0:0
48,348,93665,1,0,0:0:0
80,356,93764,1,2,0:0:0
112,348,93862,1,0,0:0:0
140,328,93961,5,0,0:0:0
140,328,94060,5,0,0:0:0
120,300,94159,1,2,0:0:0
108,268,94257,1,0,0:0:0
116,236,94356,1,0,0:0:0
140,212,94455,1,0,0:0:0
172,208,94553,1,2,0:0:0
204,220,94652,1,0,0:0:0
232,236,94751,1,8,0:0:0
264,244,94849,1,0,0:0:0
296,240,94948,1,2,0:0:0
324,220,95047,1,0,0:0:0
344,192,95145,1,2,0:0:0
352,160,95244,1,0,0:0:0
344,128,95343,1,2,0:0:0
324,100,95441,1,0,0:0:0
292,80,95540,5,0,0:0:0
252,100,95671,5,0,0:0:0
212,120,95803,5,0,0:0:0
168,120,95935,5,0,0:0:0
124,100,96066,5,0,0:0:0
92,72,96198,5,0,0:0:0
68,36,96329,5,0,0:0:0
40,68,96461,5,0,0:0:0
0,88,96592,5,0,0:0:0
16,128,96724,5,2,0:0:0
24,160,96823,1,0,0:0:0
28,192,96922,1,2,0:0:0
24,228,97020,1,0,0:0:0
8,264,97119,5,0,0:0:0
56,280,97250,5,0,0:0:0
104,296,97382,5,0,0:0:0
152,312,97514,6,0,B|216:280|300:284,1,140
344,80,98303,1,0,0:0:0
64,208,98698,5,0,0:0:0
96,200,98797,1,0,0:0:0
128,196,98896,1,2,0:0:0
160,200,98994,1,0,0:0:0
192,212,99093,1,0,0:0:0
224,224,99192,1,0,0:0:0
256,232,99290,1,2,0:0:0
288,232,99389,1,2,0:0:0
320,224,99488,1,2,0:0:0
352,212,99586,1,0,0:0:0
380,192,99685,1,2,0:0:0
412,176,99784,1,0,0:0:0
444,168,99882,1,2,0:0:0
476,168,99981,1,0,0:0:0
504,184,100080,1,2,0:0:0
512,216,100178,1,0,0:0:0
504,252,100277,6,0,B|480:280,3,35,0|0|2|0,0:0|0:0|0:0|0:0,0:0:0
376,264,100671,2,0,B|360:312,3,35,0|0|2|0,0:0|0:0|0:0|0:0,0:0:0
252,280,101066,2,0,B|248:340,3,35,0|0|2|0,0:0|0:0|0:0|0:0,0:0:0
128,312,101461,2,0,B|136:360,3,35,0|0|2|0,0:0|0:0|0:0|0:0,0:0:0
32,248,101856,6,0,B|48:208,1,35
104,240,102053,2,0,B|120:200,1,35,2|0,0:0|0:0,0:0:0
176,232,102250,2,0,B|188:192,1,35
248,224,102448,2,0,B|264:184,1,35,2|0,0:0|0:0,0:0:0
320,216,102645,2,0,B|336:256,1,35
388,176,102842,2,0,B|404:216,1,35,2|0,0:0|0:0,0:0:0
400,288,103040,2,0,B|416:328,1,35
468,244,103237,2,0,B|484:284,1,35,2|0,0:0|0:0,0:0:0
488,152,103435,6,0,B|496:104,3,35,0|0|2|0,0:0|0:0|0:0|0:0,0:0:0
376,112,103829,2,0,B|376:56,3,35,0|0|2|0,0:0|0:0|0:0|0:0,0:0:0
240,104,104224,2,0,B|216:56,3,35,0|0|2|0,0:0|0:0|0:0|0:0,0:0:0
104,128,104619,2,0,B|64:96,3,35,0|0|2|0,0:0|0:0|0:0|0:0,0:0:0
48,240,105013,6,0,B|0:248,3,35,0|0|2|0,0:0|0:0|0:0|0:0,0:0:0
176,304,105408,2,0,B|224:320,3,35,0|0|2|0,0:0|0:0|0:0|0:0,0:0:0
320,208,105803,2,0,B|272:232,3,35,0|0|2|0,0:0|0:0|0:0|0:0,0:0:0
440,272,106198,2,0,B|480:280,3,35,0|0|2|0,0:0|0:0|0:0|0:0,0:0:0
440,144,106592,6,0,B|464:96,1,35,4|0,0:0|0:0,0:0:0
408,64,106790,2,0,B|353:38,1,35,2|0,0:0|0:0,0:0:0
272,80,106987,2,0,B|312:96,1,35,8|0,0:0|0:0,0:0:0
320,168,107185,2,0,B|296:216,1,35,2|0,0:0|0:0,0:0:0
224,208,107382,2,0,B|168:184,1,35
80,216,107579,2,0,B|128:240,1,35,2|0,0:0|0:0,0:0:0
152,328,107777,2,0,B|176:280,1,35,8|0,0:0|0:0,0:0:0
288,256,107974,2,0,B|264:296,1,35,2|0,0:0|0:0,0:0:0
384,336,108171,6,0,B|344:312,1,35
376,224,108369,2,0,B|400:184,1,35,2|0,0:0|0:0,0:0:0
328,88,108566,2,0,B|368:112,1,35,8|0,0:0|0:0,0:0:0
240,120,108763,2,0,B|192:96,1,35,2|0,0:0|0:0,0:0:0
256,208,108961,2,0,B|232:256,1,35,2|0,0:0|0:0,0:0:0
112,240,109158,2,0,B|152:264,1,35,2|0,0:0|0:0,0:0:0
272,352,109356,2,0,B|296:312,1,35,10|0,0:0|0:0,0:0:0
384,248,109553,2,0,B|424:272,1,35,2|0,0:0|0:0,0:0:0
352,152,109750,6,0,B|376:112,1,35
240,120,109948,2,0,B|208:168,1,35,2|0,0:0|0:0,0:0:0
80,144,110145,2,0,B|128:168,1,35,8|0,0:0|0:0,0:0:0
96,304,110342,2,0,B|120:272,1,35,2|0,0:0|0:0,0:0:0
256,280,110540,2,0,B|216:256,1,35
352,240,110737,2,0,B|400:264,1,35,2|0,0:0|0:0,0:0:0
474,192,110935,2,0,B|490:152,1,35,8|0,0:0|0:0,0:0:0
392,72,111132,2,0,B|368:128,1,35,2|0,0:0|0:0,0:0:0
272,140,111329,5,0,0:0:0
252,116,111428,1,0,0:0:0
224,96,111527,1,2,0:0:0
192,88,111625,1,0,0:0:0
159,83,111724,1,8,0:0:0
124,88,111823,1,0,0:0:0
92,104,111921,1,2,0:0:0
68,128,112020,1,0,0:0:0
50,158,112119,1,2,0:0:0
44,192,112217,1,0,0:0:0
49,226,112316,1,2,0:0:0
64,256,112415,1,0,0:0:0
88,280,112513,1,10,0:0:0
116,292,112612,1,0,0:0:0
148,296,112711,1,2,0:0:0
180,288,112810,1,0,0:0:0
208,272,112908,5,0,0:0:0
372,200,113106,1,0,0:0:0
368,232,113204,1,0,0:0:0
364,264,113303,2,0,B|352:340,1,70
353,333,113698,1,8,0:0:0
256,192,116066,12,0,118829,0:0:0
40,112,119224,6,0,B|96:160|72:256,1,125.999993991852,4|0,0:0|0:0,0:0:0
208,344,119619,1,8,0:0:0
232,312,119717,1,0,0:0:0
256,280,119816,1,2,0:0:0
432,280,120013,1,0,0:0:0
400,256,120112,1,0,0:0:0
368,232,120211,1,2,0:0:0
464,80,120408,1,8,0:0:0
424,88,120507,1,0,0:0:0
384,96,120606,1,2,0:0:0
176,56,120803,1,0,0:0:0
216,72,120902,1,0,0:0:0
256,88,121000,1,2,0:0:0
144,184,121198,1,8,0:0:0
128,224,121296,1,0,0:0:0
112,264,121395,1,2,0:0:0
304,208,121592,2,0,B|240:272|272:352,1,125.999993991852,8|0,0:0|0:0,0:0:0
432,360,121987,2,0,B|496:296|464:216,1,125.999993991852,8|0,0:0|0:0,0:0:0
400,120,122382,5,0,0:0:0
248,48,122579,1,0,0:0:0
232,208,122777,2,0,B|160:184|88:216,1,125.999993991852,8|2,0:0|0:0,0:0:0
64,352,123171,2,0,B|136:376|208:344,1,125.999993991852,0|2,0:0|0:0,0:0:0
200,112,123566,2,0,B|128:120|96:192,1,125.999993991852,8|2,0:0|0:0,0:0:0
240,320,123961,2,0,B|312:312|344:240,1,125.999993991852,0|2,0:0|0:0,0:0:0
112,56,124356,2,0,B|120:200,1,125.999993991852,8|2,0:0|0:0,0:0:0
400,312,124750,2,0,B|392:168,1,125.999993991852
248,88,125145,2,0,B|256:120|256:120|248:152|248:152|240:184|240:184|248:232,1,125.999993991852,8|0,0:0|0:0,0:0:0
112,312,125540,5,0,0:0:0
112,312,125737,1,0,0:0:0
48,160,125935,1,8,0:0:0
48,160,126033,1,0,0:0:0
48,160,126132,1,2,0:0:0
312,256,126329,1,0,0:0:0
312,256,126428,1,0,0:0:0
312,256,126527,1,2,0:0:0
16,288,126724,1,8,0:0:0
16,288,126823,1,0,0:0:0
16,288,126921,1,2,0:0:0
256,128,127119,1,0,0:0:0
256,128,127217,1,0,0:0:0
256,128,127316,1,2,0:0:0
152,352,127513,1,8,0:0:0
152,352,127612,1,0,0:0:0
152,352,127711,1,2,0:0:0
152,64,127908,2,0,B|112:88|112:88|70:78|70:78|16:88,1,125.999993991852,8|0,0:0|0:0,0:0:0
296,216,128303,2,0,B|328:200|328:200|368:208|368:208|432:200,1,125.999993991852,8|0,0:0|0:0,0:0:0
176,288,128698,5,0,0:0:0
88,136,128895,1,0,0:0:0
280,128,129092,2,0,B|312:112|312:112|368:120|368:120|432:88,1,125.999993991852,8|2,0:0|0:0,0:0:0
160,216,129487,2,0,B|120:208|120:208|80:232|80:232|8:240,1,125.999993991852,0|2,0:0|0:0,0:0:0
304,224,129882,2,0,B|336:256|336:256|328:296|328:296|376:352,1,125.999993991852,8|2,0:0|0:0,0:0:0
160,112,130277,2,0,B|120:96|120:96|88:64|88:64|40:72,1,125.999993991852,0|2,0:0|0:0,0:0:0
352,104,130671,2,0,B|384:88|384:88|432:96|432:96|488:88,1,125.999993991852,8|0,0:0|0:0,0:0:0
248,168,131066,1,0,0:0:0
248,168,131263,1,0,0:0:0
64,272,131461,5,2,0:0:0
96,280,131560,1,2,0:0:0
128,288,131658,1,2,0:0:0
160,296,131757,1,2,0:0:0
192,304,131856,5,0,0:0:0
328,348,132053,1,2,0:0:0
308,316,132152,1,0,0:0:0
300,280,132250,1,8,0:0:0
312,244,132349,1,0,0:0:0
340,216,132448,1,2,0:0:0
472,147,132645,1,0,0:0:0
444,172,132744,1,0,0:0:0
408,184,132842,1,2,0:0:0
368,176,132941,1,0,0:0:0
336,156,133040,1,8,0:0:0
312,124,133138,1,0,0:0:0
304,84,133237,1,2,0:0:0
184,40,133435,5,0,0:0:0
172,76,133533,1,0,0:0:0
140,104,133632,1,2,0:0:0
32,228,133829,1,8,0:0:0
68,208,133928,1,0,0:0:0
108,204,134027,1,2,0:0:0
284,340,134224,1,0,0:0:0
252,316,134323,1,0,0:0:0
228,284,134421,1,0,0:0:0
216,248,134520,1,0,0:0:0
216,208,134619,1,8,0:0:0
228,172,134717,1,0,0:0:0
256,144,134816,1,0,0:0:0
452,256,135013,5,0,0:0:0
412,248,135112,1,0,0:0:0
372,248,135211,1,2,0:0:0
332,256,135310,1,0,0:0:0
292,260,135408,1,8,0:0:0
128,264,135606,1,2,0:0:0
64,128,135803,1,0,0:0:0
104,136,135902,1,0,0:0:0
144,132,136000,1,2,0:0:0
180,112,136099,1,0,0:0:0
208,80,136198,1,8,0:0:0
232,52,136296,1,0,0:0:0
268,36,136395,1,2,0:0:0
444,120,136592,5,0,0:0:0
404,108,136691,1,0,0:0:0
364,116,136790,1,2,0:0:0
332,140,136888,1,0,0:0:0
304,168,136987,1,8,0:0:0
272,192,137086,1,0,0:0:0
228,200,137185,1,2,0:0:0
120,312,137382,1,0,0:0:0
156,296,137481,1,0,0:0:0
196,288,137579,1,0,0:0:0
396,320,137777,1,8,0:0:0
360,336,137875,1,0,0:0:0
319,345,137974,1,0,0:0:0
128,212,138171,5,0,0:0:0
144,176,138270,1,0,0:0:0
156,140,138369,1,2,0:0:0
152,100,138467,1,0,0:0:0
136,64,138566,2,0,B|208:40|272:48,1,125.999993991852,8|2,0:0|0:0,0:0:0
456,136,138961,1,0,0:0:0
424,160,139060,1,0,0:0:0
384,172,139158,1,2,0:0:0
208,280,139356,1,8,0:0:0
244,256,139454,1,0,0:0:0
284,248,139553,1,2,0:0:0
444,312,139750,5,0,0:0:0
408,332,139849,1,0,0:0:0
368,344,139948,1,2,0:0:0
328,344,140046,1,0,0:0:0
288,332,140145,2,0,B|220:320|152:332,1,125.999993991852,8|2,0:0|0:0,0:0:0
28,200,140539,1,0,0:0:0
64,180,140638,1,0,0:0:0
92,152,140737,1,0,0:0:0
300,144,140935,1,8,0:0:0
264,128,141033,1,0,0:0:0
236,100,141132,1,0,0:0:0
192,284,141329,5,0,0:0:0
220,256,141428,1,0,0:0:0
256,240,141527,1,2,0:0:0
296,232,141625,1,0,0:0:0
332,236,141724,1,8,0:0:0
368,248,141823,1,0,0:0:0
400,268,141921,1,2,0:0:0
456,60,142119,1,0,0:0:0
436,96,142217,1,0,0:0:0
408,124,142316,1,2,0:0:0
148,224,142513,1,8,0:0:0
172,192,142612,1,0,0:0:0
180,152,142711,1,2,0:0:0
172,112,142810,1,0,0:0:0
152,76,142908,6,0,B|112:24,2,48.999998831749
440,216,143303,2,0,B|484:272,2,48.999998831749
264,248,143698,1,0,0:0:0
264,248,143895,1,0,0:0:0
104,296,144092,1,0,0:0:0
76,268,144191,1,0,0:0:0
56,232,144290,1,0,0:0:0
48,192,144388,1,0,0:0:0
49,152,144487,6,0,B|77:80|157:52,1,140
