osu file format v14

[General]
AudioFilename: Chinese Restaurant.mp3
AudioLeadIn: 2000
PreviewTime: 72696
Countdown: 0
SampleSet: Normal
StackLeniency: 0.7
Mode: 0
LetterboxInBreaks: 0
WidescreenStoryboard: 0

[Editor]
DistanceSpacing: 1.3
BeatDivisor: 4
GridSize: 32
TimelineZoom: 5.199998

[Metadata]
Title:Chinese Restaurant
TitleUnicode:Chinese Restaurant
Artist:Memme
ArtistUnicode:Memme
Creator:Muya
Version:Hyper
Source:Pump It Up Prime
Tags:PIU ParkMemme dance simulation arcade
BeatmapID:568565
BeatmapSetID:244799

[Difficulty]
HPDrainRate:7
CircleSize:4
OverallDifficulty:8
ApproachRate:9
SliderMultiplier:1.6
SliderTickRate:2

[Events]
//Background and Video events
0,0,"Chinese Restaurant.jpg",0,0
//Break Periods
2,51038,59838
//Storyboard Layer 0 (Background)
//Storyboard Layer 1 (Fail)
//Storyboard Layer 2 (Pass)
//Storyboard Layer 3 (Foreground)
//Storyboard Sound Samples

[TimingPoints]
96,342.857142857143,4,1,0,70,1,0
11153,-100,4,2,0,70,0,0
11410,-100,4,1,0,70,0,0
11496,-100,4,2,0,70,0,0
11753,-100,4,1,0,70,0,0
11838,-100,4,2,0,70,0,0
12010,-100,4,1,2,70,0,0
28381,-200,4,1,0,70,0,0
28896,-100,4,1,0,70,0,0
37038,-100,4,2,0,70,0,0
37467,-100,4,1,0,70,0,0
37553,-100,4,2,0,70,0,0
37810,-100,4,1,0,70,0,0
37896,-100,4,2,0,70,0,0
38153,-100,4,1,0,70,0,0
38410,-100,4,2,0,70,0,0
38667,-100,4,1,0,50,0,0
38753,-100,4,2,0,70,0,0
38838,-100,4,1,0,70,0,0
38924,-100,4,2,0,70,0,0
39010,-100,4,1,0,70,0,0
39353,-100,4,2,0,70,0,0
39867,-133.333333333333,4,1,0,70,0,0
39953,-133.333333333333,4,2,0,70,0,0
40467,-133.333333333333,4,1,2,70,0,0
40638,-133.333333333333,4,2,0,70,0,0
40981,-133.333333333333,4,1,0,70,0,0
41153,-133.333333333333,4,2,0,70,0,0
41496,-133.333333333333,4,1,2,70,0,0
42010,-133.333333333333,4,2,0,70,0,0
42438,-100,4,1,0,70,0,0
42524,-133.333333333333,4,1,0,70,0,0
42696,-133.333333333333,4,2,0,70,0,0
43210,-133.333333333333,4,1,2,70,0,0
43381,-133.333333333333,4,2,0,70,0,0
43724,-133.333333333333,4,1,2,70,0,0
45438,-133.333333333333,4,2,0,70,0,0
46038,-133.333333333333,4,1,2,70,0,0
46124,-133.333333333333,4,2,0,70,0,0
46467,-133.333333333333,4,1,0,70,0,0
46638,-133.333333333333,4,2,0,70,0,0
47067,-133.333333333333,4,1,2,70,0,0
47496,-133.333333333333,4,2,0,70,0,0
47924,-133.333333333333,4,1,2,70,0,0
49381,-133.333333333333,4,1,0,50,0,0
49810,-133.333333333333,4,1,0,70,0,0
49896,-133.333333333333,4,1,0,50,0,0
50153,-133.333333333333,4,1,0,70,0,0
50496,-100,4,1,0,70,0,0
60524,-100,4,2,0,70,0,0
60781,-100,4,1,0,70,0,0
60867,-100,4,2,0,70,0,0
61810,-100,4,1,0,70,0,0
61896,-100,4,2,0,70,0,0
62153,-100,4,1,0,70,0,0
62238,-100,4,2,0,70,0,0
62496,-100,4,1,0,70,0,0
62581,-100,4,2,0,70,0,0
62838,-100,4,1,0,70,0,0
62924,-100,4,2,0,70,0,0
63181,-100,4,1,0,70,0,0
63267,-100,4,2,0,70,0,0
63524,-100,4,1,0,70,0,0
63610,-100,4,2,0,70,0,0
63867,-100,4,1,0,70,0,0
63953,-100,4,2,0,70,0,0
64210,-100,4,1,0,70,0,0
64296,-100,4,2,0,70,0,0
64553,-100,4,1,0,70,0,0
64638,-100,4,2,0,70,0,0
64896,-100,4,1,0,70,0,0
64981,-100,4,2,0,70,0,0
65238,-100,4,1,0,70,0,0
65324,-100,4,2,0,70,0,0
65581,-100,4,1,0,70,0,0
65667,-100,4,2,0,70,0,0
65924,-100,4,1,0,70,0,0
66010,-100,4,2,0,70,0,0
66267,-100,4,1,0,70,0,0
66353,-100,4,2,0,70,0,0
66610,-100,4,1,0,70,0,0
66696,-100,4,2,0,70,0,0
66953,-100,4,1,0,70,0,0
67038,-100,4,2,0,70,0,0
67296,-100,4,1,0,70,0,0
67381,-100,4,2,0,70,0,0
67638,-100,4,1,0,70,0,0
67724,-100,4,2,0,70,0,0
67981,-100,4,1,0,70,0,0
68067,-100,4,2,0,70,0,0
68324,-100,4,1,0,70,0,0
68410,-100,4,2,0,70,0,0
68667,-100,4,1,0,70,0,0
68753,-100,4,2,0,70,0,0
69010,-100,4,1,0,70,0,0
69096,-100,4,2,0,70,0,0
69353,-100,4,1,0,70,0,0
69438,-100,4,2,0,70,0,0
69696,-100,4,1,0,70,0,0
69781,-100,4,2,0,70,0,0
70038,-100,4,1,0,70,0,0
70124,-100,4,2,0,70,0,0
70381,-100,4,1,0,70,0,0
70467,-100,4,2,0,70,0,0
70724,-100,4,1,0,70,0,0
70810,-100,4,2,0,70,0,0
71067,-100,4,1,0,70,0,0
71153,-100,4,2,0,70,0,0
71410,-100,4,1,0,70,0,0
72781,-100,4,1,0,70,0,1
74238,-100,4,2,0,70,0,1
74496,-100,4,1,0,70,0,1
74581,-100,4,2,0,70,0,1
74838,-100,4,1,0,70,0,1
74924,-100,4,2,0,70,0,1
75181,-100,4,1,0,70,0,1
75267,-100,4,2,0,70,0,1
75524,-100,4,1,0,70,0,1
79724,-100,4,2,0,70,0,1
79896,-100,4,1,0,70,0,1
80067,-100,4,2,0,70,0,1
80324,-100,4,1,0,70,0,1
80410,-100,4,2,0,70,0,1
80667,-100,4,1,0,70,0,1
80753,-100,4,2,0,70,0,1
81010,-100,4,1,0,70,0,1
83667,-100,4,1,0,70,0,0
83753,-100,4,1,0,70,0,1
85210,-100,4,2,0,70,0,1
85467,-100,4,1,0,70,0,1
85553,-100,4,2,0,70,0,1
85810,-100,4,1,0,70,0,1
85896,-100,4,2,0,70,0,1
86153,-100,4,1,0,70,0,1
86238,-100,4,2,0,70,0,1
86496,-100,4,1,0,70,0,1
90696,-100,4,2,0,70,0,1
90953,-100,4,1,0,70,0,1
91038,-100,4,2,0,70,0,1
91296,-100,4,1,0,70,0,1
91381,-100,4,2,0,70,0,1
91638,-100,4,1,0,70,0,1
91724,-100,4,2,0,70,0,1
91981,-100,4,1,0,70,0,1
94724,-100,4,1,0,70,0,0
98924,-100,4,2,0,70,0,0
99181,-100,4,1,0,70,0,0
99267,-100,4,2,0,70,0,0
99524,-100,4,1,0,70,0,0
99610,-100,4,2,0,70,0,0
99781,-100,4,1,2,70,0,0
105696,-100,4,2,0,70,0,0
106038,-100,4,1,0,70,0,0
106124,-100,4,2,0,70,0,0
106381,-100,4,1,0,70,0,0
106467,-100,4,2,0,70,0,0
107410,-100,4,2,0,5,0,0
107581,-100,4,2,0,70,0,0
107753,-100,4,2,0,65,0,0
107924,-100,4,2,0,60,0,0
108096,-100,4,2,0,55,0,0
108267,-100,4,2,0,50,0,0
108438,-100,4,2,0,45,0,0
108610,-100,4,2,0,40,0,0
108781,-100,4,2,0,35,0,0
108953,-100,4,2,0,30,0,0
109124,-100,4,2,0,25,0,0
109296,-100,4,2,0,20,0,0
109467,-100,4,2,0,15,0,0
109638,-100,4,2,0,10,0,0
109810,-100,4,2,0,5,0,0

[Colours]
Combo1 : 255,253,170
Combo2 : 255,170,255
Combo3 : 170,255,255
Combo4 : 185,255,170

[HitObjects]
0,140,1467,5,4,0:0:0:0:
24,216,1638,1,0,0:0:0:0:
40,220,1724,1,0,0:0:0:0:
56,224,1810,1,0,0:0:0:0:
120,176,1981,1,4,0:0:0:0:
144,100,2153,1,0,0:0:0:0:
160,96,2239,1,0,0:0:0:0:
176,92,2325,1,0,0:0:0:0:
240,140,2496,1,4,0:0:0:0:
264,216,2667,1,0,0:0:0:0:
280,220,2753,1,0,0:0:0:0:
296,224,2839,5,0,0:0:0:0:
360,176,3010,1,4,0:0:0:0:
384,100,3182,1,0,0:0:0:0:
400,96,3268,1,0,0:0:0:0:
416,92,3354,1,0,0:0:0:0:
480,140,3524,1,4,0:0:0:0:
476,156,3610,1,0,0:0:0:0:
472,172,3696,1,0,0:0:0:0:
468,188,3782,1,0,0:0:0:0:
464,204,3867,1,0,0:0:0:0:
480,344,4038,6,0,P|404:312|308:328,1,160,4|0,0:0|0:0,0:0:0:0:
192,372,4553,2,0,P|232:380|272:376,1,80
320,240,4896,2,0,P|280:232|240:236,1,80,0|0,0:0|0:0,0:0:0:0:
120,276,5238,1,0,0:0:0:0:
44,248,5410,6,0,L|36:88,1,160,4|0,0:0|0:0,0:0:0:0:
180,112,5924,2,0,L|184:192,1,80,4|0,0:0|0:0,0:0:0:0:
112,156,6267,1,4,0:0:0:0:
180,32,6438,1,0,0:0:0:0:
180,32,6524,1,0,0:0:0:0:
180,32,6610,1,8,0:0:0:0:
324,44,6781,1,0,0:0:0:0:
324,44,6867,1,0,0:0:0:0:
324,44,6953,6,0,P|332:84|296:160,1,120,4|0,0:0|0:0,0:0:0:0:
288,164,7296,2,0,P|318:137|402:130,1,120
410,136,7638,2,0,P|371:122|323:53,1,120
324,44,7981,1,0,0:0:0:0:
452,68,8153,6,0,P|488:164|424:212,1,160
380,208,8667,2,0,L|300:196,1,80,0|0,0:0|0:0,0:0:0:0:
228,356,9010,2,0,L|308:344,1,80,0|0,0:0|0:0,0:0:0:0:
307,344,9267,1,0,0:0:0:0:
307,344,9353,1,0,0:0:0:0:
216,256,9524,1,0,0:0:0:0:
92,284,9696,6,0,P|84:244|120:168,1,120,0|0,0:0|0:0,0:0:0:0:
128,164,10039,2,0,P|98:191|14:198,1,120
6,192,10381,2,0,P|45:206|93:275,1,120
92,284,10724,1,0,0:0:0:0:
140,348,10896,1,0,0:0:0:0:
172,276,11067,5,0,0:0:0:0:
220,340,11238,1,2,0:0:0:0:
232,332,11324,1,2,0:0:0:0:
244,324,11410,1,2,0:2:0:0:
256,316,11496,1,0,0:0:0:0:
268,308,11581,1,2,0:0:0:0:
280,300,11667,1,2,0:0:0:0:
292,292,11753,1,2,0:2:0:0:
348,176,11924,1,2,0:0:0:0:
256,88,12096,1,2,0:2:0:0:
188,44,12267,1,0,0:0:0:0:
188,44,12353,1,0,0:0:0:0:
188,44,12439,6,0,P|180:84|216:160,1,120,4|0,0:0|0:0,0:0:0:0:
224,164,12782,2,0,P|194:137|110:130,1,120
102,136,13124,2,0,P|141:122|189:53,1,120
188,44,13467,1,0,0:0:0:0:
60,68,13639,6,0,P|24:164|88:212,1,160
132,208,14153,2,0,L|212:196,1,80,0|0,0:0|0:0,0:0:0:0:
284,356,14496,2,0,L|204:344,1,80,0|0,0:0|0:0,0:0:0:0:
188,348,14753,1,0,0:0:0:0:
172,352,14838,1,0,0:0:0:0:
156,356,14924,1,0,0:0:0:0:
140,360,15010,1,0,0:0:0:0:
44,276,15181,6,0,P|36:236|44:196,1,80,4|0,0:0|0:0,0:0:0:0:
52,184,15438,1,0,0:0:0:0:
60,172,15524,2,0,L|140:164,1,80
252,228,15867,2,0,P|260:268|252:308,1,80,4|0,0:0|0:0,0:0:0:0:
244,320,16124,1,0,0:0:0:0:
236,332,16210,1,0,0:0:0:0:
108,324,16381,6,0,L|96:156,1,160,4|0,0:0|0:0,0:0:0:0:
100,148,16810,1,0,0:0:0:0:
104,132,16896,1,4,0:0:0:0:
56,68,17067,1,0,0:0:0:0:
60,52,17152,1,0,0:0:0:0:
64,36,17238,1,4,0:0:0:0:
236,120,17496,1,8,0:0:0:0:
240,104,17582,1,8,0:0:0:0:
192,40,17753,6,0,P|272:32|352:40,1,160,4|0,0:0|0:0,0:0:0:0:
364,48,18181,1,0,0:0:0:0:
376,56,18267,1,0,0:0:0:0:
452,84,18438,1,0,0:0:0:0:
416,156,18610,2,0,P|412:196|416:236,1,80
452,308,18953,1,0,0:0:0:0:
340,368,19124,6,0,P|244:340|212:264,1,160,4|0,0:0|0:0,0:0:0:0:
104,228,19638,2,0,P|141:214|181:218,1,80
291,153,19981,2,0,P|283:192|261:224,1,80
262,352,20324,2,0,P|231:326|216:288,1,80
100,344,20667,5,4,0:0:0:0:
68,272,20838,1,0,0:0:0:0:
72,256,20924,1,0,0:0:0:0:
76,240,21010,1,0,0:0:0:0:
148,204,21181,1,0,0:0:0:0:
152,188,21267,1,0,0:0:0:0:
156,172,21353,1,0,0:0:0:0:
228,136,21524,1,0,0:0:0:0:
232,120,21610,1,0,0:0:0:0:
236,104,21696,1,0,0:0:0:0:
240,88,21782,1,0,0:0:0:0:
244,72,21867,1,0,0:0:0:0:
316,36,22038,5,0,0:0:0:0:
332,40,22124,1,0,0:0:0:0:
348,44,22210,1,0,0:0:0:0:
364,48,22296,1,0,0:0:0:0:
380,52,22381,1,0,0:0:0:0:
392,132,22553,1,0,0:0:0:0:
408,136,22638,1,0,0:0:0:0:
424,140,22725,1,0,0:0:0:0:
440,144,22811,1,0,0:0:0:0:
456,148,22896,1,0,0:0:0:0:
472,152,22981,1,0,0:0:0:0:
488,156,23067,1,0,0:0:0:0:
500,236,23238,6,0,P|420:252|344:236,1,160,4|0,0:0|0:0,0:0:0:0:
332,224,23667,1,0,0:0:0:0:
320,212,23753,1,0,0:0:0:0:
272,148,23924,1,0,0:0:0:0:
200,112,24096,2,0,P|160:108|120:112,1,80,0|0,0:0|0:0,0:0:0:0:
48,148,24438,1,0,0:0:0:0:
36,276,24610,6,0,P|132:248|164:172,1,160,4|0,0:0|0:0,0:0:0:0:
272,136,25124,2,0,P|235:122|195:126,1,80
85,61,25467,2,0,P|93:100|115:132,1,80
113,264,25811,2,0,P|142:237|159:202,1,80
84,60,26153,5,4,0:0:0:0:
160,36,26324,1,0,0:0:0:0:
176,40,26410,1,0,0:0:0:0:
192,44,26496,1,0,0:0:0:0:
208,48,26581,1,0,0:0:0:0:
224,52,26667,1,0,0:0:0:0:
276,112,26838,1,0,0:0:0:0:
352,88,27009,1,0,0:0:0:0:
368,92,27095,1,0,0:0:0:0:
384,96,27181,1,0,0:0:0:0:
400,100,27266,1,0,0:0:0:0:
416,104,27353,6,0,P|440:184|364:252,1,160,4|0,0:0|0:0,0:0:0:0:
272,216,27867,1,0,0:0:0:0:
248,344,28038,1,0,0:0:0:0:
376,368,28210,1,0,0:0:0:0:
372,352,28296,1,0,0:0:0:0:
368,336,28381,6,0,L|376:236,1,100,8|0,0:0|0:0,0:0:0:0:
372,220,28896,6,0,L|292:228,1,80,4|0,0:0|0:0,0:0:0:0:
224,120,29238,2,0,L|304:112,1,80
284,240,29581,2,0,L|204:248,1,80
136,204,29924,1,0,0:0:0:0:
132,76,30096,6,0,P|228:104|260:180,1,160,0|0,0:0|0:0,0:0:0:0:
368,216,30610,2,0,P|331:230|291:226,1,80
181,291,30953,2,0,P|189:252|211:220,1,80
209,92,31297,2,0,P|238:118|255:153,1,80
332,52,31638,5,4,0:0:0:0:
396,100,31810,1,0,0:0:0:0:
392,116,31896,1,0,0:0:0:0:
388,132,31981,1,0,0:0:0:0:
324,180,32153,1,0,0:0:0:0:
328,196,32239,1,0,0:0:0:0:
332,212,32324,1,0,0:0:0:0:
396,260,32496,1,0,0:0:0:0:
392,276,32582,1,0,0:0:0:0:
388,292,32667,1,0,0:0:0:0:
324,340,32839,1,0,0:0:0:0:
328,356,32925,1,0,0:0:0:0:
332,372,33010,5,0,0:0:0:0:
412,368,33181,1,0,0:0:0:0:
428,372,33267,1,0,0:0:0:0:
444,372,33353,1,0,0:0:0:0:
460,368,33438,1,0,0:0:0:0:
476,360,33524,1,0,0:0:0:0:
488,348,33610,1,0,0:0:0:0:
496,332,33696,1,0,0:0:0:0:
500,316,33781,1,0,0:0:0:0:
500,300,33867,1,0,0:0:0:0:
496,284,33953,1,0,0:0:0:0:
492,268,34038,1,0,0:0:0:0:
488,252,34124,1,0,0:0:0:0:
488,236,34210,1,0,0:0:0:0:
492,220,34295,1,4,0:0:0:0:
504,208,34381,5,4,0:0:0:0:
472,136,34553,1,0,0:0:0:0:
456,132,34638,1,0,0:0:0:0:
440,128,34724,1,0,0:0:0:0:
368,164,34896,1,4,0:0:0:0:
336,236,35068,1,0,0:0:0:0:
320,240,35153,1,0,0:0:0:0:
304,244,35239,1,0,0:0:0:0:
232,208,35410,1,4,0:0:0:0:
200,136,35582,1,0,0:0:0:0:
184,132,35667,1,0,0:0:0:0:
168,128,35753,5,0,0:0:0:0:
96,164,35925,1,4,0:0:0:0:
64,236,36097,1,0,0:0:0:0:
48,240,36182,1,0,0:0:0:0:
32,244,36268,1,0,0:0:0:0:
0,76,36438,1,0,0:0:0:0:
16,80,36523,1,0,0:0:0:0:
32,84,36610,1,0,0:0:0:0:
48,88,36695,1,0,0:0:0:0:
64,92,36781,1,0,0:0:0:0:
96,164,36953,6,0,P|164:172|272:112,1,160,4|0,0:0|0:0,0:0:0:0:
268,60,37467,2,0,P|224:60|184:84,1,80
224,216,37810,2,0,P|268:216|308:192,1,80
392,108,38153,1,0,0:0:0:0:
471,121,38324,1,4,0:0:0:0:
420,184,38496,5,0,0:0:0:0:
416,200,38581,1,0,0:0:0:0:
412,216,38667,1,0,0:0:0:0:
408,232,38753,1,0,0:0:0:0:
404,248,38838,1,0,0:0:0:0:
400,264,38924,1,0,0:0:0:0:
396,280,39010,1,0,0:0:0:0:
392,296,39096,1,0,0:0:0:0:
388,312,39181,1,8,0:0:0:0:
168,328,39524,1,0,0:0:0:0:
100,372,39696,1,0,0:0:0:0:
24,348,39867,6,0,P|16:284|24:228,1,120.000004577637,4|0,0:0|0:0,0:0:0:0:
104,140,40553,2,0,P|112:204|104:260,1,120.000004577637,8|0,0:0|0:0,0:0:0:0:
152,296,41067,6,0,L|272:304,1,120.000004577637
320,340,41581,1,0,0:0:0:0:
420,276,41924,1,8,0:0:0:0:
392,220,42096,1,0,0:0:0:0:
396,208,42181,1,0,0:0:0:0:
400,196,42267,1,0,0:0:0:0:
376,140,42438,1,0,0:0:0:0:
400,84,42610,6,0,P|340:72|284:88,1,120.000004577637
248,200,43296,2,0,L|264:320,1,120.000004577637,8|0,0:0|0:0,0:0:0:0:
224,364,43810,1,0,0:0:0:0:
56,300,44324,5,0,0:0:0:0:
0,192,44667,1,8,0:0:0:0:
56,84,45010,1,0,0:0:0:0:
108,56,45181,1,0,0:0:0:0:
168,68,45353,6,0,P|232:76|312:64,1,120.000004577637,4|0,0:0|0:0,0:0:0:0:
376,152,46038,2,0,P|312:144|232:156,1,120.000004577637,8|0,0:0|0:0,0:0:0:0:
216,196,46553,6,0,L|224:332,1,120.000004577637
184,364,47067,1,0,0:0:0:0:
76,312,47410,1,8,0:0:0:0:
100,256,47581,1,0,0:0:0:0:
96,244,47667,1,0,0:0:0:0:
92,232,47753,1,0,0:0:0:0:
88,220,47838,1,0,0:0:0:0:
84,208,47925,1,0,0:0:0:0:
108,152,48096,5,0,0:0:0:0:
316,32,48781,1,8,0:0:0:0:
484,100,49296,1,0,0:0:0:0:
408,192,49638,5,0,0:0:0:0:
412,204,49724,1,0,0:0:0:0:
416,216,49810,1,0,0:0:0:0:
420,228,49896,1,0,0:0:0:0:
424,240,49981,1,0,0:0:0:0:
428,252,50067,1,0,0:0:0:0:
432,264,50153,1,0,0:0:0:0:
404,340,50324,1,0,0:0:0:0:
408,352,50410,1,0,0:0:0:0:
412,364,50496,2,0,P|320:364|252:324,1,160,8|4,0:0|0:0,0:0:0:0:
8,352,60438,6,0,P|48:344|88:348,1,80
100,356,60696,1,0,0:0:0:0:
112,364,60781,2,0,P|152:368|192:360,1,80
256,312,61124,1,0,0:0:0:0:
376,268,61296,1,0,0:0:0:0:
468,356,61467,1,0,0:0:0:0:
468,356,61810,5,4,0:0:0:0:
472,340,61896,1,0,0:0:0:0:
476,324,61981,1,0,0:0:0:0:
480,308,62067,1,0,0:0:0:0:
484,292,62153,2,0,L|476:212,1,80
408,168,62496,2,0,L|400:88,1,80
332,44,62838,1,0,0:0:0:0:
256,68,63010,6,0,L|176:68,1,80
140,192,63353,2,0,L|220:192,1,80
332,292,63696,1,0,0:0:0:0:
256,316,63868,2,0,L|176:316,1,80
100,340,64210,1,0,0:0:0:0:
96,324,64296,1,0,0:0:0:0:
92,308,64381,1,0,0:0:0:0:
32,256,64553,5,0,0:0:0:0:
36,240,64639,1,0,0:0:0:0:
40,224,64724,1,0,0:0:0:0:
44,208,64810,1,0,0:0:0:0:
48,192,64896,1,0,0:0:0:0:
52,176,64981,1,0,0:0:0:0:
56,160,65067,1,0,0:0:0:0:
116,108,65238,2,0,P|156:100|196:108,1,80
256,160,65581,1,0,0:0:0:0:
312,216,65752,6,0,P|352:224|392:216,1,80
392,80,66096,2,0,P|365:110|352:149,1,80
390,216,66438,1,0,0:0:0:0:
469,217,66610,2,0,P|455:178|429:147,2,80,0|0|0,0:0|0:0|0:0,0:0:0:0:
256,364,67296,5,4,0:0:0:0:
240,368,67381,1,0,0:0:0:0:
224,372,67467,1,0,0:0:0:0:
208,372,67553,1,0,0:0:0:0:
192,372,67638,1,0,0:0:0:0:
176,368,67724,1,0,0:0:0:0:
160,360,67810,1,0,0:0:0:0:
144,352,67896,1,0,0:0:0:0:
132,340,67981,2,0,L|120:288,7,40,0|0|0|0|0|0|0|0,0:0|0:0|0:0|0:0|0:0|0:0|0:0|0:0,0:0:0:0:
112,288,68667,5,4,0:0:0:0:
108,272,68753,1,0,0:0:0:0:
104,256,68838,1,0,0:0:0:0:
100,240,68924,1,0,0:0:0:0:
96,224,69010,1,0,0:0:0:0:
92,208,69096,1,0,0:0:0:0:
88,192,69181,1,0,0:0:0:0:
84,176,69267,1,0,0:0:0:0:
80,160,69353,2,4,L|84:120,7,40,0|0|0|0|0|0|0|0,0:0|0:0|0:0|0:0|0:0|0:0|0:0|0:0,0:0:0:0:
80,104,70038,5,4,0:0:0:0:
92,96,70124,1,0,0:0:0:0:
104,88,70210,1,0,0:0:0:0:
116,80,70296,1,0,0:0:0:0:
128,72,70381,2,0,L|168:68,3,40,0|0|0|0,0:0|0:0|0:0|0:0,0:0:0:0:
180,60,70724,1,4,0:0:0:0:
192,68,70810,1,0,0:0:0:0:
204,76,70896,1,0,0:0:0:0:
216,84,70982,1,0,0:0:0:0:
228,92,71067,2,0,L|268:96,3,40,0|0|0|0,0:0|0:0|0:0|0:0,0:0:0:0:
280,92,71410,6,0,P|344:56|412:56,2,120,4|4|4,0:0|0:0|0:0,0:0:0:0:
256,168,72096,1,4,0:0:0:0:
288,324,72438,1,8,0:0:0:0:
440,376,72781,6,0,P|448:336|444:296,1,80,4|0,0:0|0:0,0:0:0:0:
436,284,73038,1,0,0:0:0:0:
428,272,73124,1,0,0:0:0:0:
376,212,73296,2,0,P|372:172|380:132,1,80
388,120,73553,1,0,0:0:0:0:
396,108,73639,1,0,0:0:0:0:
440,40,73810,2,0,P|400:36|360:28,1,80
344,32,74067,1,0,0:0:0:0:
328,36,74153,5,0,0:0:0:0:
256,72,74324,1,2,0:0:0:0:
240,68,74410,1,2,0:0:0:0:
224,64,74496,1,2,0:2:0:0:
208,60,74581,1,0,0:0:0:0:
192,56,74667,1,2,0:0:0:0:
176,52,74753,1,2,0:0:0:0:
160,48,74838,2,0,L|120:52,3,40,2|0|2|2,0:2|0:0|0:0|0:0,0:0:0:0:
108,64,75181,2,0,L|68:68,3,40,2|0|2|2,0:2|0:0|0:0|0:0,0:0:0:0:
56,80,75524,6,0,P|48:120|52:160,1,80
60,172,75781,1,0,0:0:0:0:
68,184,75867,1,0,0:0:0:0:
128,236,76038,2,0,P|131:275|123:314,1,80
116,328,76296,1,0,0:0:0:0:
108,340,76381,1,0,0:0:0:0:
180,376,76553,2,0,P|224:376|260:368,1,80
272,360,76810,1,0,0:0:0:0:
284,352,76896,5,0,0:0:0:0:
324,284,77067,2,0,P|332:192|312:124,1,160
408,40,77581,2,0,P|400:132|424:192,2,120,0|0|0,0:0|0:0|0:0,0:0:0:0:
328,48,78267,6,0,P|288:52|248:48,1,80,0|0,0:0|0:0,0:0:0:0:
236,40,78524,1,0,0:0:0:0:
224,32,78610,1,0,0:0:0:0:
176,96,78781,2,0,P|172:136|176:176,1,80,0|0,0:0|0:0,0:0:0:0:
184,188,79038,1,0,0:0:0:0:
192,200,79124,1,0,0:0:0:0:
264,236,79296,2,0,P|304:232|344:236,1,80,0|0,0:0|0:0,0:0:0:0:
356,244,79553,1,0,0:0:0:0:
368,252,79639,5,0,0:0:0:0:
392,328,79810,1,0,0:0:0:0:
320,364,79981,1,0,0:0:0:0:
304,360,80067,1,0,0:0:0:0:
288,356,80153,1,0,0:0:0:0:
224,308,80324,1,0,0:0:0:0:
208,312,80410,1,0,0:0:0:0:
192,316,80496,1,0,0:0:0:0:
176,320,80581,1,0,0:0:0:0:
160,324,80667,1,0,0:0:0:0:
88,360,80838,1,0,0:0:0:0:
24,312,81010,6,0,P|20:272|24:232,1,80
36,224,81267,1,0,0:0:0:0:
48,216,81353,1,0,0:0:0:0:
128,220,81524,2,0,P|132:180|128:140,1,80
116,132,81781,1,0,0:0:0:0:
104,124,81867,1,0,0:0:0:0:
60,56,82038,2,0,L|140:52,1,80
152,40,82296,1,0,0:0:0:0:
164,28,82381,5,0,0:0:0:0:
244,40,82553,1,0,0:0:0:0:
260,44,82638,1,0,0:0:0:0:
276,48,82724,1,0,0:0:0:0:
292,52,82810,1,0,0:0:0:0:
308,56,82896,1,0,0:0:0:0:
324,60,82981,1,0,0:0:0:0:
340,64,83067,2,0,L|348:104,3,40
364,108,83410,2,0,L|372:148,3,40,8|0|0|0,0:0|0:0|0:0|0:0,0:0:0:0:
388,152,83753,6,0,P|392:192|388:232,1,80,4|0,0:0|0:0,0:0:0:0:
380,244,84010,1,0,0:0:0:0:
372,256,84096,1,0,0:0:0:0:
304,216,84267,2,0,P|264:212|224:216,1,80
212,224,84524,1,0,0:0:0:0:
200,232,84610,1,0,0:0:0:0:
136,280,84781,2,0,P|132:320|136:360,1,80
144,372,85038,1,0,0:0:0:0:
152,384,85124,5,0,0:0:0:0:
228,356,85296,1,2,0:0:0:0:
244,360,85381,1,2,0:0:0:0:
260,364,85467,1,2,0:2:0:0:
276,368,85553,1,0,0:0:0:0:
292,372,85638,1,2,0:0:0:0:
308,376,85724,1,2,0:0:0:0:
324,380,85810,2,0,L|360:364,3,40,2|0|2|2,0:2|0:0|0:0|0:0,0:0:0:0:
376,368,86153,2,0,L|412:352,3,40,2|0|2|2,0:2|0:0|0:0|0:0,0:0:0:0:
428,356,86496,6,0,P|432:316|428:276,1,80
420,264,86753,1,0,0:0:0:0:
412,252,86838,1,0,0:0:0:0:
344,208,87010,2,0,P|340:168|344:128,1,80
352,116,87267,1,0,0:0:0:0:
360,104,87352,1,0,0:0:0:0:
404,36,87524,2,0,L|324:28,1,80
308,32,87781,1,0,0:0:0:0:
292,36,87867,5,0,0:0:0:0:
264,112,88038,2,0,P|184:116|120:72,1,160
36,172,88553,2,0,P|116:168|180:208,2,120,0|0|0,0:0|0:0|0:0,0:0:0:0:
84,236,89238,6,0,P|120:260|156:264,1,80
172,260,89496,1,0,0:0:0:0:
188,256,89581,1,0,0:0:0:0:
232,188,89753,2,0,P|268:164|304:160,1,80
320,164,90011,1,0,0:0:0:0:
336,168,90096,1,0,0:0:0:0:
412,192,90267,2,0,L|420:272,1,80
432,280,90524,1,0,0:0:0:0:
444,288,90610,5,0,0:0:0:0:
408,360,90781,1,2,0:0:0:0:
392,356,90867,1,2,0:0:0:0:
376,352,90953,1,2,0:2:0:0:
360,348,91038,1,0,0:0:0:0:
344,344,91124,1,2,0:0:0:0:
328,340,91210,1,2,0:0:0:0:
312,336,91296,2,0,L|272:336,3,40,2|0|2|2,0:2|0:0|0:0|0:0,0:0:0:0:
256,332,91638,2,0,L|216:332,3,40,0|0|2|2,0:2|0:0|0:0|0:0,0:0:0:0:
200,328,91981,6,0,P|196:288|200:248,1,80,4|0,0:0|0:0,0:0:0:0:
212,240,92238,1,0,0:0:0:0:
224,232,92324,1,0,0:0:0:0:
296,196,92496,2,0,P|300:156|296:116,1,80
284,108,92753,1,0,0:0:0:0:
272,100,92839,1,0,0:0:0:0:
204,60,93010,2,0,L|124:68,1,80,4|4,0:0|0:0,0:0:0:0:
56,27,93353,5,0,0:0:0:0:
52,44,93438,1,0,0:0:0:0:
48,60,93524,1,0,0:0:0:0:
44,76,93610,1,0,0:0:0:0:
40,92,93696,1,4,0:0:0:0:
36,108,93781,1,0,0:0:0:0:
32,124,93867,1,0,0:0:0:0:
28,140,93953,1,0,0:0:0:0:
24,156,94038,2,0,P|8:244|24:312,1,160,4|8,0:0|0:0,0:0:0:0:
144,364,94553,1,0,0:0:0:0:
144,364,94639,1,0,0:0:0:0:
144,364,94725,6,0,P|152:324|116:248,1,120,4|0,0:0|0:0,0:0:0:0:
108,244,95068,2,0,P|138:271|222:278,1,120
230,272,95410,2,0,P|191:286|143:355,1,120
144,364,95753,1,0,0:0:0:0:
224,352,95924,6,0,L|384:360,1,160
440,208,96438,2,0,L|360:204,1,80
332,280,96781,2,0,L|412:284,1,80
424,292,97038,1,0,0:0:0:0:
436,300,97124,1,0,0:0:0:0:
512,196,97296,1,0,0:0:0:0:
408,120,97467,6,0,P|368:112|292:148,1,120,0|0,0:0|0:0,0:0:0:0:
288,156,97810,2,0,P|315:126|322:42,1,120
316,34,98152,2,0,P|330:73|399:121,1,120
408,120,98496,1,0,0:0:0:0:
420,200,98667,1,0,0:0:0:0:
484,152,98838,5,0,0:0:0:0:
496,232,99009,1,2,0:0:0:0:
492,248,99096,1,2,0:0:0:0:
488,264,99181,1,2,0:2:0:0:
484,280,99267,1,0,0:0:0:0:
480,296,99353,1,2,0:0:0:0:
476,312,99438,1,2,0:0:0:0:
472,328,99524,1,2,0:2:0:0:
344,312,99696,1,2,0:0:0:0:
256,220,99867,1,2,0:2:0:0:
212,152,100038,1,0,0:0:0:0:
212,152,100124,1,0,0:0:0:0:
212,152,100210,6,0,P|252:144|328:180,1,120,4|0,0:0|0:0,0:0:0:0:
332,188,100553,2,0,P|305:158|298:74,1,120
304,66,100895,2,0,P|290:105|221:153,1,120
212,152,101238,1,0,0:0:0:0:
132,164,101410,6,0,L|116:324,1,160
44,284,101924,2,0,L|52:204,1,80
204,204,102267,2,0,L|196:284,1,80
200,300,102524,1,0,0:0:0:0:
204,316,102610,1,0,0:0:0:0:
208,332,102696,1,0,0:0:0:0:
212,348,102781,1,0,0:0:0:0:
340,368,102953,6,0,P|380:376|420:368,1,80,4|0,0:0|0:0,0:0:0:0:
432,360,103210,1,0,0:0:0:0:
444,352,103296,2,0,L|452:272,1,80
388,160,103638,2,0,P|348:152|308:160,1,80,4|0,0:0|0:0,0:0:0:0:
296,168,103896,1,0,0:0:0:0:
284,176,103982,1,0,0:0:0:0:
300,304,104153,6,0,L|460:296,1,160,4|0,0:0|0:0,0:0:0:0:
472,288,104581,1,0,0:0:0:0:
484,280,104667,1,4,0:0:0:0:
460,204,104838,1,0,0:0:0:0:
472,196,104924,1,0,0:0:0:0:
484,188,105010,1,4,0:0:0:0:
308,112,105267,1,8,0:0:0:0:
320,104,105353,1,8,0:0:0:0:
296,28,105524,1,4,0:0:0:0:
68,144,105867,5,2,0:0:0:0:
72,160,105953,1,2,0:0:0:0:
76,176,106038,1,2,0:2:0:0:
80,192,106124,1,2,0:0:0:0:
84,208,106210,1,0,0:0:0:0:
88,224,106296,1,2,0:0:0:0:
92,240,106381,1,4,0:0:0:0:
256,192,106467,12,0,107410,0:0:0:0:
256,192,107581,5,2,0:0:0:0:
256,192,107667,12,0,109810,0:0:0:0:
