osu file format v14

[General]
AudioFilename: Chinese Restaurant.mp3
AudioLeadIn: 2000
PreviewTime: 72696
Countdown: 0
SampleSet: Normal
StackLeniency: 0.7
Mode: 0
LetterboxInBreaks: 0
WidescreenStoryboard: 0

[Editor]
DistanceSpacing: 1
BeatDivisor: 4
GridSize: 4
TimelineZoom: 5.099998

[Metadata]
Title:Chinese Restaurant
TitleUnicode:Chinese Restaurant
Artist:Memme
ArtistUnicode:Memme
Creator:Muya
Version:Beginner
Source:Pump It Up Prime
Tags:PIU ParkMemme dance simulation arcade
BeatmapID:567614
BeatmapSetID:244799

[Difficulty]
HPDrainRate:2
CircleSize:3
OverallDifficulty:2
ApproachRate:3
SliderMultiplier:0.9
SliderTickRate:2

[Events]
//Background and Video events
0,0,"Chinese Restaurant.jpg",0,0
//Break Periods
2,51038,58998
//Storyboard Layer 0 (Background)
//Storyboard Layer 1 (Fail)
//Storyboard Layer 2 (Pass)
//Storyboard Layer 3 (Foreground)
//Storyboard Sound Samples

[TimingPoints]
96,342.857142857143,4,1,0,70,1,0
39781,-100,4,1,2,70,0,0
50410,-100,4,1,0,70,0,0
72781,-100,4,1,0,70,0,1
83667,-100,4,1,0,70,0,0
83753,-100,4,1,0,70,0,1
94724,-100,4,1,0,70,0,0
106467,-100,4,2,0,70,0,0
107753,-100,4,2,0,65,0,0
107924,-100,4,2,0,60,0,0
108096,-100,4,2,0,55,0,0
108267,-100,4,2,0,50,0,0
108438,-100,4,2,0,45,0,0
108610,-100,4,2,0,40,0,0
108781,-100,4,2,0,35,0,0
108953,-100,4,2,0,30,0,0
109124,-100,4,2,0,25,0,0
109296,-100,4,2,0,20,0,0
109467,-100,4,2,0,15,0,0
109638,-100,4,2,0,10,0,0
109810,-100,4,2,0,5,0,0

[Colours]
Combo1 : 255,253,170
Combo2 : 255,170,255
Combo3 : 170,255,255
Combo4 : 185,255,170

[HitObjects]
24,64,1467,6,0,P|-12:192|24:320,2,270,4|4|4,0:0|0:0|0:0,0:0:0:0:
152,24,4038,1,4,0:0:0:0:
288,40,4553,5,0,0:0:0:0:
336,116,4896,2,0,P|348:172|336:248,1,135,0|4,0:0|0:0,0:0:0:0:
200,260,5924,5,4,0:0:0:0:
180,348,6267,1,4,0:0:0:0:
360,364,6953,6,0,P|448:356|496:284,1,180,4|0,0:0|0:0,0:0:0:0:
488,104,8324,6,0,P|400:112|352:184,1,180
320,268,9353,1,0,0:0:0:0:
240,312,9696,5,0,0:0:0:0:
84,224,10381,1,0,0:0:0:0:
240,136,11067,5,0,0:0:0:0:
84,48,11753,2,0,P|40:60|4:88,1,90
4,176,12438,6,0,P|-4:236|4:360,1,180,4|0,0:0|0:0,0:0:0:0:
184,376,13810,2,0,P|192:316|184:192,1,180
112,144,14838,1,0,0:0:0:0:
164,72,15181,6,0,P|224:36|328:56,1,180,4|4,0:0|0:0,0:0:0:0:
304,188,16381,2,0,P|284:244|284:324,1,135,4|4,0:0|0:0,0:0:0:0:
356,372,17238,1,4,0:0:0:0:
488,344,17753,6,0,P|508:288|508:208,1,135,4|0,0:0|0:0,0:0:0:0:
436,160,18610,1,0,0:0:0:0:
380,36,19124,6,0,L|244:40,1,135,4|0,0:0|0:0,0:0:0:0:
168,88,19981,1,0,0:0:0:0:
248,248,20667,6,0,P|156:340|20:348,1,270,4|0,0:0|0:0,0:0:0:0:
52,172,22381,6,0,P|56:128|52:80,1,90
172,144,23238,6,0,P|224:148|296:104,1,135,4|0,0:0|0:0,0:0:0:0:
344,32,24096,1,0,0:0:0:0:
480,44,24610,6,0,P|492:112|484:180,1,135,4|0,0:0|0:0,0:0:0:0:
412,228,25467,1,0,0:0:0:0:
512,380,26153,6,0,P|396:344|208:380,1,315,4|4,0:0|0:0,0:0:0:0:
76,376,27867,5,4,0:0:0:0:
4,324,28210,1,0,0:0:0:0:
176,272,28896,6,0,P|184:228|176:184,1,90,4|0,0:0|0:0,0:0:0:0:
92,152,29581,2,0,P|84:108|92:64,1,90
172,24,30267,6,0,P|224:56|336:36,1,180
508,88,31638,6,0,P|512:136|508:180,1,90,4|0,0:0|0:0,0:0:0:0:
420,184,32324,2,0,P|416:232|420:276,1,90
472,348,33010,6,0,P|376:372|284:356,1,180
256,184,34381,6,0,P|136:120|8:184,2,270,4|4|4,0:0|0:0|0:0,0:0:0:0:
176,296,36953,1,4,0:0:0:0:
296,360,37467,6,0,P|383:375|504:320,1,225,0|4,0:0|0:0,0:0:0:0:
464,192,38838,6,0,P|460:148|464:100,1,90,0|8,0:0|0:0,0:0:0:0:
300,28,39867,6,0,P|228:36|156:112,1,180,4|8,0:0|0:0,0:0:0:0:
48,32,41067,6,0,P|56:84|48:172,1,135
0,240,41924,1,8,0:0:0:0:
132,360,42610,6,0,P|228:356|292:304,1,180,0|8,0:0|0:0,0:0:0:0:
356,188,43810,5,0,0:0:0:0:
220,192,44324,2,0,P|216:140|220:100,1,90,0|8,0:0|0:0,0:0:0:0:
384,32,45353,6,0,P|464:68|496:156,1,180,4|8,0:0|0:0,0:0:0:0:
388,228,46553,5,0,0:0:0:0:
460,344,47067,2,0,P|416:340|364:344,1,90,0|8,0:0|0:0,0:0:0:0:
192,372,48096,6,0,P|184:300|192:192,1,180,0|8,0:0|0:0,0:0:0:0:
308,124,49296,5,0,0:0:0:0:
192,56,49810,2,0,P|148:52|100:56,1,90
8,208,50838,5,4,0:0:0:0:
452,320,60438,6,0,P|408:308|356:316,1,90
284,356,61124,1,0,0:0:0:0:
104,348,61810,6,0,P|108:304|100:260,1,90,4|0,0:0|0:0,0:0:0:0:
44,188,62496,1,0,0:0:0:0:
104,68,63010,2,0,P|152:80|236:68,1,135
316,28,63867,1,0,0:0:0:0:
496,44,64553,6,0,P|504:88|500:136,1,90
420,172,65238,2,0,P|412:216|416:264,1,90
464,336,65924,1,0,0:0:0:0:
284,312,66610,2,0,L|192:312,1,90
104,328,67296,6,0,P|60:256|104:180,1,180,4|0,0:0|0:0,0:0:0:0:
192,196,68324,1,0,0:0:0:0:
280,212,68667,6,0,P|324:140|280:64,1,180,4|0,0:0|0:0,0:0:0:0:
192,80,69695,1,0,0:0:0:0:
104,64,70038,5,4,0:0:0:0:
8,216,70724,1,4,0:0:0:0:
120,356,71410,6,0,P|208:368|296:336,1,180,4|4,0:0|0:0,0:0:0:0:
472,356,72781,6,0,P|468:308|472:264,1,90,4|0,0:0|0:0,0:0:0:0:
504,180,73467,2,0,P|508:132|504:88,1,90
436,32,74153,5,0,0:0:0:0:
364,88,74496,2,0,P|280:112|192:84,1,180
120,32,75524,6,0,P|76:32|32:48,1,90
0,132,76210,2,0,P|12:176|12:224,1,90
0,308,76896,5,0,0:0:0:0:
168,372,77581,2,0,P|212:360|256:360,1,90
332,308,78267,6,0,P|340:264|332:220,1,90
256,168,78953,2,0,P|248:124|256:80,1,90
336,36,79638,5,0,0:0:0:0:
416,80,79981,1,0,0:0:0:0:
496,36,80324,2,0,P|504:80|496:124,1,90
420,172,81010,6,0,P|412:216|420:260,1,90
496,312,81696,2,0,P|464:340|416:352,1,90
344,300,82381,5,0,0:0:0:0:
168,256,83067,1,0,0:0:0:0:
128,336,83410,1,8,0:0:0:0:
40,356,83753,6,0,P|44:308|40:264,1,90,4|0,0:0|0:0,0:0:0:0:
8,180,84439,2,0,P|4:132|8:88,1,90
76,32,85125,5,0,0:0:0:0:
148,88,85468,2,0,P|232:112|320:84,1,180
392,32,86496,6,0,P|436:32|480:48,1,90
512,132,87182,2,0,P|500:176|500:224,1,90
512,308,87868,5,0,0:0:0:0:
344,372,88553,2,0,P|300:360|256:360,1,90
180,308,89239,6,0,P|172:264|180:220,1,90
256,168,89925,2,0,P|264:124|256:80,1,90
176,36,90610,5,0,0:0:0:0:
96,80,90953,1,0,0:0:0:0:
16,36,91296,2,0,P|8:80|16:124,1,90
92,172,91982,6,0,P|100:216|92:260,1,90
16,312,92667,1,0,0:0:0:0:
96,356,93010,2,0,P|188:368|260:324,1,180,0|4,0:0|0:0,0:0:0:0:
312,252,94038,1,4,0:0:0:0:
472,336,94724,6,0,P|480:248|472:156,1,180,4|0,0:0|0:0,0:0:0:0:
312,72,96096,6,0,P|304:160|312:252,1,180
256,324,97124,1,0,0:0:0:0:
172,356,97467,5,0,0:0:0:0:
0,300,98153,1,0,0:0:0:0:
172,248,98838,5,0,0:0:0:0:
0,192,99524,2,0,P|-4:144|0:100,1,90
68,44,100210,6,0,P|156:32|248:44,1,180,4|0,0:0|0:0,0:0:0:0:
348,192,101581,6,0,P|260:204|168:192,1,180,4|0,0:0|0:0,0:0:0:0:
120,268,102610,1,0,0:0:0:0:
168,344,102953,6,0,P|256:332|348:344,1,180,4|4,0:0|0:0,0:0:0:0:
460,268,104153,1,4,0:0:0:0:
416,140,104667,6,0,P|412:96|416:48,1,90,4|4,0:0|0:0,0:0:0:0:
301,125,105524,1,4,0:0:0:0:
345,253,106038,6,0,P|349:297|345:345,1,90,4|4,0:0|0:0,0:0:0:0:
256,192,106467,12,2,107581,0:0:0:0:
256,192,107667,12,0,109810,0:0:0:0:
