osu file format v14

[General]
AudioFilename: cr.mp3
AudioLeadIn: 0
PreviewTime: 71410
Countdown: 0
SampleSet: Normal
StackLeniency: 0.7
Mode: 1
LetterboxInBreaks: 0
WidescreenStoryboard: 0

[Editor]
DistanceSpacing: 1
BeatDivisor: 4
GridSize: 32
TimelineZoom: 1

[Metadata]
Title:Chinese Restaurant
TitleUnicode:Chinese Restaurant
Artist:Memme
ArtistUnicode:Memme
Creator:Love
Version:Muzukashii
Source:Pump It Up Prime
Tags:parkmemme TKS TKSalt
BeatmapID:563862
BeatmapSetID:243893

[Difficulty]
HPDrainRate:5
CircleSize:5
OverallDifficulty:5
ApproachRate:5
SliderMultiplier:1.4
SliderTickRate:1

[Events]
//Background and Video events
0,0,"kekcr.jpg",0,50
//Break Periods
//Storyboard Layer 0 (Background)
//Storyboard Layer 1 (Fail)
//Storyboard Layer 2 (Pass)
//Storyboard Layer 3 (Foreground)
//Storyboard Sound Samples

[TimingPoints]
96,342.857142857143,4,1,0,80,1,0
51010,-100,4,1,0,40,0,0
51696,-100,4,1,0,60,0,0
52038,-100,4,1,0,40,0,0
53067,-100,4,1,0,80,0,0
53581,-100,4,1,0,40,0,0
54438,-100,4,1,0,60,0,0
54781,-100,4,1,0,40,0,0
56324,-100,4,1,0,60,0,0
56496,-100,4,1,0,40,0,0
57181,-100,4,1,0,60,0,0
57524,-100,4,1,0,40,0,0
58553,-100,4,1,0,60,0,0
59067,-100,4,1,0,40,0,0
60438,-100,4,1,0,60,0,0
72781,-100,4,1,0,80,0,1
94724,-100,4,1,0,80,0,0

[HitObjects]
256,192,781,5,8,0:0:0:0:
256,192,1124,1,0,0:0:0:0:
256,192,1296,1,8,0:0:0:0:
256,192,1467,1,4,0:0:0:0:
256,192,1981,1,0,0:0:0:0:
256,192,2496,1,0,0:0:0:0:
256,192,3010,1,0,0:0:0:0:
256,192,3524,1,8,0:0:0:0:
256,192,4038,1,4,0:0:0:0:
256,192,4381,1,8,0:0:0:0:
256,192,4553,1,0,0:0:0:0:
256,192,4896,1,0,0:0:0:0:
256,192,5238,1,8,0:0:0:0:
256,192,5410,1,0,0:0:0:0:
256,192,5924,1,0,0:0:0:0:
256,192,6267,1,0,0:0:0:0:
256,192,6610,1,12,0:0:0:0:
256,192,6953,1,4,0:0:0:0:
256,192,7296,1,8,0:0:0:0:
256,192,7638,1,0,0:0:0:0:
256,192,7981,1,8,0:0:0:0:
256,192,8153,1,0,0:0:0:0:
256,192,8496,1,8,0:0:0:0:
256,192,8667,1,8,0:0:0:0:
256,192,9010,1,0,0:0:0:0:
256,192,9181,1,8,0:0:0:0:
256,192,9267,1,8,0:0:0:0:
256,192,9353,1,8,0:0:0:0:
256,192,9524,1,8,0:0:0:0:
256,192,9696,1,0,0:0:0:0:
256,192,10038,1,8,0:0:0:0:
256,192,10381,1,0,0:0:0:0:
256,192,10724,1,8,0:0:0:0:
256,192,10896,1,0,0:0:0:0:
256,192,11410,1,8,0:0:0:0:
256,192,12096,1,8,0:0:0:0:
256,192,12438,1,4,0:0:0:0:
256,192,12782,1,8,0:0:0:0:
256,192,13124,1,0,0:0:0:0:
256,192,13467,1,8,0:0:0:0:
256,192,13639,1,0,0:0:0:0:
256,192,13982,1,8,0:0:0:0:
256,192,14153,1,8,0:0:0:0:
256,192,14496,1,0,0:0:0:0:
256,192,14838,1,8,0:0:0:0:
256,192,14924,1,8,0:0:0:0:
256,192,15010,1,8,0:0:0:0:
256,192,15182,1,0,0:0:0:0:
256,192,15867,1,0,0:0:0:0:
256,192,16210,1,8,0:0:0:0:
256,192,16381,1,0,0:0:0:0:
256,192,16896,1,8,0:0:0:0:
256,192,17238,1,8,0:0:0:0:
256,192,17581,1,8,0:0:0:0:
256,192,17753,1,4,0:0:0:0:
256,192,18267,1,8,0:0:0:0:
256,192,18953,1,8,0:0:0:0:
256,192,19124,1,4,0:0:0:0:
256,192,19638,1,8,0:0:0:0:
256,192,19981,1,8,0:0:0:0:
256,192,20324,1,0,0:0:0:0:
256,192,20496,1,0,0:0:0:0:
256,192,20667,1,4,0:0:0:0:
256,192,21010,1,8,0:0:0:0:
256,192,21353,1,8,0:0:0:0:
256,192,21696,1,8,0:0:0:0:
256,192,21867,1,0,0:0:0:0:
256,192,22210,1,8,0:0:0:0:
256,192,22381,1,0,0:0:0:0:
256,192,22724,1,0,0:0:0:0:
256,192,22896,1,0,0:0:0:0:
256,192,22981,1,0,0:0:0:0:
256,192,23067,1,0,0:0:0:0:
256,192,23238,1,4,0:0:0:0:
256,192,23752,1,8,0:0:0:0:
256,192,24095,1,0,0:0:0:0:
256,192,24438,1,8,0:0:0:0:
256,192,24609,1,4,0:0:0:0:
256,192,25123,1,8,0:0:0:0:
256,192,25467,1,8,0:0:0:0:
256,192,25809,1,0,0:0:0:0:
256,192,25981,1,8,0:0:0:0:
256,192,26152,1,4,0:0:0:0:
256,192,26496,1,8,0:0:0:0:
256,192,26838,1,0,0:0:0:0:
256,192,27181,1,8,0:0:0:0:
256,192,27353,1,4,0:0:0:0:
256,192,27867,1,8,0:0:0:0:
256,192,28210,1,0,0:0:0:0:
256,192,28296,1,0,0:0:0:0:
256,192,28381,1,0,0:0:0:0:
256,192,28896,1,4,0:0:0:0:
256,192,29238,1,8,0:0:0:0:
256,192,29410,1,8,0:0:0:0:
256,192,29581,1,0,0:0:0:0:
256,192,29924,1,8,0:0:0:0:
256,192,30096,1,0,0:0:0:0:
256,192,30610,1,8,0:0:0:0:
256,192,30953,1,0,0:0:0:0:
256,192,31124,1,8,0:0:0:0:
256,192,31210,1,8,0:0:0:0:
256,192,31296,1,8,0:0:0:0:
256,192,31467,1,8,0:0:0:0:
256,192,31638,1,4,0:0:0:0:
256,192,32324,1,8,0:0:0:0:
256,192,32667,1,0,0:0:0:0:
256,192,32838,1,0,0:0:0:0:
256,192,33010,1,0,0:0:0:0:
256,192,33353,1,8,0:0:0:0:
256,192,33696,1,0,0:0:0:0:
256,192,34038,1,8,0:0:0:0:
256,192,34210,1,0,0:0:0:0:
256,192,34381,1,4,0:0:0:0:
256,192,34896,1,4,0:0:0:0:
256,192,35410,1,4,0:0:0:0:
256,192,35924,1,4,0:0:0:0:
256,192,36438,1,12,0:0:0:0:
256,192,36953,1,4,0:0:0:0:
256,192,37467,1,8,0:0:0:0:
256,192,37810,1,0,0:0:0:0:
256,192,38153,1,8,0:0:0:0:
256,192,38324,1,4,0:0:0:0:
256,192,38838,1,0,0:0:0:0:
256,192,39010,1,0,0:0:0:0:
256,192,39181,1,12,0:0:0:0:
256,192,39524,1,8,0:0:0:0:
256,192,39696,1,8,0:0:0:0:
256,192,39867,1,4,0:0:0:0:
256,192,40553,1,8,0:0:0:0:
256,192,41067,1,0,0:0:0:0:
256,192,41581,1,0,0:0:0:0:
256,192,41924,1,8,0:0:0:0:
256,192,42438,1,0,0:0:0:0:
256,192,42610,1,0,0:0:0:0:
256,192,42953,1,0,0:0:0:0:
256,192,43296,1,8,0:0:0:0:
256,192,43638,1,8,0:0:0:0:
256,192,43810,1,0,0:0:0:0:
256,192,44324,1,0,0:0:0:0:
256,192,44667,1,8,0:0:0:0:
256,192,45010,1,8,0:0:0:0:
256,192,45353,1,4,0:0:0:0:
256,192,46038,1,8,0:0:0:0:
256,192,46381,1,8,0:0:0:0:
256,192,46553,1,0,0:0:0:0:
256,192,47067,1,0,0:0:0:0:
256,192,47410,1,8,0:0:0:0:
256,192,47753,1,8,0:0:0:0:
256,192,47924,1,8,0:0:0:0:
256,192,48096,1,0,0:0:0:0:
256,192,48781,1,8,0:0:0:0:
256,192,49124,1,8,0:0:0:0:
256,192,49296,1,0,0:0:0:0:
256,192,49810,1,0,0:0:0:0:
256,192,50153,1,0,0:0:0:0:
256,192,50324,1,0,0:0:0:0:
256,192,50496,1,12,0:0:0:0:
256,192,50838,1,4,0:0:0:0:
256,192,51524,1,0,0:0:0:0:
256,192,51867,1,0,0:0:0:0:
256,192,52210,1,0,0:0:0:0:
256,192,52896,1,0,0:0:0:0:
256,192,53067,1,0,0:0:0:0:
256,192,53153,1,0,0:0:0:0:
256,192,53238,1,0,0:0:0:0:
256,192,53410,1,8,0:0:0:0:
256,192,53581,1,0,0:0:0:0:
256,192,54267,1,0,0:0:0:0:
256,192,54610,1,0,0:0:0:0:
256,192,54781,1,8,0:0:0:0:
256,192,54953,1,0,0:0:0:0:
256,192,55638,1,8,0:0:0:0:
256,192,55981,1,8,0:0:0:0:
256,192,56324,1,4,0:0:0:0:
256,192,57010,1,0,0:0:0:0:
256,192,57353,1,0,0:0:0:0:
256,192,57696,1,0,0:0:0:0:
256,192,58381,1,0,0:0:0:0:
256,192,58553,1,0,0:0:0:0:
256,192,58638,1,0,0:0:0:0:
256,192,58724,1,0,0:0:0:0:
256,192,58896,1,8,0:0:0:0:
256,192,59067,1,0,0:0:0:0:
256,192,59753,1,0,0:0:0:0:
256,192,59924,1,8,0:0:0:0:
256,192,60096,1,0,0:0:0:0:
256,192,60438,1,0,0:0:0:0:
256,192,60781,1,8,0:0:0:0:
256,192,61124,1,8,0:0:0:0:
256,192,61296,1,8,0:0:0:0:
256,192,61467,1,12,0:0:0:0:
256,192,61810,1,4,0:0:0:0:
256,192,62153,1,8,0:0:0:0:
256,192,62324,1,0,0:0:0:0:
256,192,62667,1,8,0:0:0:0:
256,192,62838,1,0,0:0:0:0:
256,192,63181,1,0,0:0:0:0:
256,192,63353,1,0,0:0:0:0:
256,192,63696,1,0,0:0:0:0:
256,192,63867,1,8,0:0:0:0:
256,192,64381,1,8,0:0:0:0:
256,192,65067,1,8,0:0:0:0:
256,192,65410,1,8,0:0:0:0:
256,192,65581,1,0,0:0:0:0:
256,192,65753,1,8,0:0:0:0:
256,192,66096,1,0,0:0:0:0:
256,192,66438,1,8,0:0:0:0:
256,192,66781,1,8,0:0:0:0:
256,192,66867,1,8,0:0:0:0:
256,192,66953,1,8,0:0:0:0:
256,192,67124,1,8,0:0:0:0:
256,192,67296,1,4,0:0:0:0:
256,192,67638,1,8,0:0:0:0:
256,192,67810,1,0,0:0:0:0:
256,192,68153,1,8,0:0:0:0:
256,192,68324,1,0,0:0:0:0:
256,192,68667,1,0,0:0:0:0:
256,192,68838,1,8,0:0:0:0:
256,192,69353,1,8,0:0:0:0:
256,192,69696,1,0,0:0:0:0:
256,192,69867,1,8,0:0:0:0:
256,192,70038,1,4,0:0:0:0:
256,192,70724,1,4,0:0:0:0:
256,192,71410,1,0,0:0:0:0:
256,192,71667,1,0,0:0:0:0:
256,192,71924,1,0,0:0:0:0:
256,192,72096,1,0,0:0:0:0:
256,192,72438,1,12,0:0:0:0:
256,192,72781,1,4,0:0:0:0:
256,192,73124,1,8,0:0:0:0:
256,192,73296,1,8,0:0:0:0:
256,192,73638,1,8,0:0:0:0:
256,192,73810,1,8,0:0:0:0:
256,192,73981,1,0,0:0:0:0:
256,192,74067,1,0,0:0:0:0:
256,192,74153,1,0,0:0:0:0:
256,192,74496,1,8,0:0:0:0:
256,192,74667,1,0,0:0:0:0:
256,192,74838,1,8,0:0:0:0:
256,192,75096,1,8,0:0:0:0:
256,192,75353,1,8,0:0:0:0:
256,192,75524,1,0,0:0:0:0:
256,192,75867,1,0,0:0:0:0:
256,192,76038,1,8,0:0:0:0:
256,192,76381,1,0,0:0:0:0:
256,192,76553,1,8,0:0:0:0:
256,192,76896,1,0,0:0:0:0:
256,192,77238,1,0,0:0:0:0:
256,192,77324,1,0,0:0:0:0:
256,192,77410,1,0,0:0:0:0:
256,192,77581,1,8,0:0:0:0:
256,192,77838,1,8,0:0:0:0:
256,192,78096,1,8,0:0:0:0:
256,192,78267,1,0,0:0:0:0:
256,192,78610,1,8,0:0:0:0:
256,192,78781,1,0,0:0:0:0:
256,192,79124,1,8,0:0:0:0:
256,192,79296,1,0,0:0:0:0:
256,192,79638,1,8,0:0:0:0:
256,192,79981,1,8,0:0:0:0:
256,192,80324,1,0,0:0:0:0:
256,192,80496,1,0,0:0:0:0:
256,192,80581,1,0,0:0:0:0:
256,192,80667,1,0,0:0:0:0:
256,192,80838,1,8,0:0:0:0:
256,192,81010,1,0,0:0:0:0:
256,192,81353,1,8,0:0:0:0:
256,192,81524,1,8,0:0:0:0:
256,192,81867,1,8,0:0:0:0:
256,192,82038,1,8,0:0:0:0:
256,192,82553,1,0,0:0:0:0:
256,192,83067,1,0,0:0:0:0:
256,192,83410,1,12,0:0:0:0:
256,192,83753,1,4,0:0:0:0:
256,192,84096,1,8,0:0:0:0:
256,192,84268,1,8,0:0:0:0:
256,192,84610,1,8,0:0:0:0:
256,192,84782,1,8,0:0:0:0:
256,192,84953,1,0,0:0:0:0:
256,192,85039,1,0,0:0:0:0:
256,192,85125,1,0,0:0:0:0:
256,192,85467,1,8,0:0:0:0:
256,192,85639,1,0,0:0:0:0:
256,192,85810,1,8,0:0:0:0:
256,192,86067,1,8,0:0:0:0:
256,192,86325,1,8,0:0:0:0:
256,192,86496,1,0,0:0:0:0:
256,192,86839,1,0,0:0:0:0:
256,192,87010,1,8,0:0:0:0:
256,192,87353,1,0,0:0:0:0:
256,192,87525,1,8,0:0:0:0:
256,192,87868,1,0,0:0:0:0:
256,192,88210,1,0,0:0:0:0:
256,192,88296,1,0,0:0:0:0:
256,192,88382,1,0,0:0:0:0:
256,192,88553,1,8,0:0:0:0:
256,192,88810,1,8,0:0:0:0:
256,192,89068,1,8,0:0:0:0:
256,192,89239,1,0,0:0:0:0:
256,192,89582,1,8,0:0:0:0:
256,192,89753,1,0,0:0:0:0:
256,192,90096,1,8,0:0:0:0:
256,192,90268,1,0,0:0:0:0:
256,192,90610,1,8,0:0:0:0:
256,192,90953,1,8,0:0:0:0:
256,192,91296,1,0,0:0:0:0:
256,192,91468,1,8,0:0:0:0:
256,192,91553,1,8,0:0:0:0:
256,192,91639,1,8,0:0:0:0:
256,192,91810,1,8,0:0:0:0:
256,192,91982,1,0,0:0:0:0:
256,192,92325,1,8,0:0:0:0:
256,192,92496,1,8,0:0:0:0:
256,192,92839,1,8,0:0:0:0:
256,192,93010,1,8,0:0:0:0:
256,192,93181,1,0,0:0:0:0:
256,192,93696,1,0,0:0:0:0:
256,192,94038,1,0,0:0:0:0:
256,192,94381,1,12,0:0:0:0:
256,192,94724,1,4,0:0:0:0:
256,192,95067,1,8,0:0:0:0:
256,192,95409,1,0,0:0:0:0:
256,192,95752,1,8,0:0:0:0:
256,192,95924,1,0,0:0:0:0:
256,192,96438,1,8,0:0:0:0:
256,192,96781,1,0,0:0:0:0:
256,192,96952,1,8,0:0:0:0:
256,192,97038,1,8,0:0:0:0:
256,192,97124,1,8,0:0:0:0:
256,192,97295,1,8,0:0:0:0:
256,192,97467,1,0,0:0:0:0:
256,192,97809,1,8,0:0:0:0:
256,192,98152,1,0,0:0:0:0:
256,192,98495,1,8,0:0:0:0:
256,192,98667,1,0,0:0:0:0:
256,192,99181,1,8,0:0:0:0:
256,192,99867,1,8,0:0:0:0:
256,192,100209,1,4,0:0:0:0:
256,192,100553,1,8,0:0:0:0:
256,192,100895,1,0,0:0:0:0:
256,192,101238,1,8,0:0:0:0:
256,192,101410,1,0,0:0:0:0:
256,192,101753,1,8,0:0:0:0:
256,192,101924,1,8,0:0:0:0:
256,192,102267,1,0,0:0:0:0:
256,192,102438,1,0,0:0:0:0:
256,192,102609,1,8,0:0:0:0:
256,192,102695,1,8,0:0:0:0:
256,192,102781,1,8,0:0:0:0:
256,192,102953,1,0,0:0:0:0:
256,192,103295,1,8,0:0:0:0:
256,192,103638,1,0,0:0:0:0:
256,192,103981,1,8,0:0:0:0:
256,192,104152,1,0,0:0:0:0:
256,192,104667,1,8,0:0:0:0:
256,192,105009,1,8,0:0:0:0:
256,192,105352,1,8,0:0:0:0:
256,192,105524,1,4,0:0:0:0:
256,192,106038,1,0,0:0:0:0:
256,192,106381,1,4,0:0:0:0:
