osu file format v14

[General]
AudioFilename: cr.mp3
AudioLeadIn: 0
PreviewTime: 71410
Countdown: 0
SampleSet: Normal
StackLeniency: 0.7
Mode: 1
LetterboxInBreaks: 0
WidescreenStoryboard: 0

[Editor]
Bookmarks: 95062
DistanceSpacing: 1
BeatDivisor: 4
GridSize: 32
TimelineZoom: 1

[Metadata]
Title:Chinese Restaurant
TitleUnicode:Chinese Restaurant
Artist:Memme
ArtistUnicode:Memme
Creator:Love
Version:Kantan
Source:Pump It Up Prime
Tags:parkmemme TKS TKSalt
BeatmapID:564286
BeatmapSetID:243893

[Difficulty]
HPDrainRate:5
CircleSize:5
OverallDifficulty:4
ApproachRate:5
SliderMultiplier:1.4
SliderTickRate:1

[Events]
//Background and Video events
0,0,"kekcr.jpg",0,50
//Break Periods
//Storyboard Layer 0 (Background)
//Storyboard Layer 1 (Fail)
//Storyboard Layer 2 (Pass)
//Storyboard Layer 3 (Foreground)
//Storyboard Sound Samples

[TimingPoints]
96,342.857142857143,4,1,0,80,1,0
52210,-100,4,1,0,40,0,0
60438,-100,4,1,0,60,0,0
72781,-100,4,1,0,80,0,1
94724,-100,4,1,0,80,0,0

[HitObjects]
256,192,1467,5,4,0:0:0:0:
256,192,2496,1,8,0:0:0:0:
256,192,3524,1,0,0:0:0:0:
256,192,4038,1,4,0:0:0:0:
256,192,5410,1,0,0:0:0:0:
256,192,6953,1,4,0:0:0:0:
256,192,7638,1,8,0:0:0:0:
256,192,8153,1,0,0:0:0:0:
256,192,9010,1,8,0:0:0:0:
256,192,9696,1,0,0:0:0:0:
256,192,10381,1,0,0:0:0:0:
256,192,10896,1,0,0:0:0:0:
256,192,12096,1,8,0:0:0:0:
256,192,12438,1,4,0:0:0:0:
256,192,13124,1,8,0:0:0:0:
256,192,13639,1,0,0:0:0:0:
256,192,14496,1,8,0:0:0:0:
256,192,14838,1,8,0:0:0:0:
256,192,15182,1,12,0:0:0:0:
256,192,16381,1,12,0:0:0:0:
256,192,17753,1,4,0:0:0:0:
256,192,19124,1,4,0:0:0:0:
256,192,19981,1,8,0:0:0:0:
256,192,20667,1,4,0:0:0:0:
256,192,21353,1,8,0:0:0:0:
256,192,21867,1,0,0:0:0:0:
256,192,23238,1,4,0:0:0:0:
256,192,24610,1,12,0:0:0:0:
256,192,25467,1,8,0:0:0:0:
256,192,26152,1,4,0:0:0:0:
256,192,27353,1,4,0:0:0:0:
256,192,28896,1,4,0:0:0:0:
256,192,30096,1,0,0:0:0:0:
256,192,30953,1,8,0:0:0:0:
256,192,31296,1,8,0:0:0:0:
256,192,31638,1,4,0:0:0:0:
256,192,32324,1,8,0:0:0:0:
256,192,33010,1,0,0:0:0:0:
256,192,34038,1,8,0:0:0:0:
256,192,34381,1,4,0:0:0:0:
256,192,35410,1,4,0:0:0:0:
256,192,36438,1,12,0:0:0:0:
256,192,36953,1,4,0:0:0:0:
256,192,38324,1,4,0:0:0:0:
256,192,39867,1,4,0:0:0:0:
256,192,40553,1,8,0:0:0:0:
256,192,41581,1,0,0:0:0:0:
256,192,41924,1,8,0:0:0:0:
256,192,42610,1,0,0:0:0:0:
256,192,43296,1,8,0:0:0:0:
256,192,43810,1,0,0:0:0:0:
256,192,45353,1,4,0:0:0:0:
256,192,46038,1,8,0:0:0:0:
256,192,47067,1,0,0:0:0:0:
256,192,47410,1,8,0:0:0:0:
256,192,48096,1,0,0:0:0:0:
256,192,48781,1,8,0:0:0:0:
256,192,49296,1,0,0:0:0:0:
256,192,50496,1,12,0:0:0:0:
256,192,50838,1,4,0:0:0:0:
256,192,52210,1,0,0:0:0:0:
256,192,53581,1,0,0:0:0:0:
256,192,54953,1,0,0:0:0:0:
256,192,55638,1,8,0:0:0:0:
256,192,56324,1,4,0:0:0:0:
256,192,57696,1,0,0:0:0:0:
256,192,59067,1,0,0:0:0:0:
256,192,60438,1,8,0:0:0:0:
256,192,61467,1,8,0:0:0:0:
256,192,61810,1,4,0:0:0:0:
256,192,62838,1,8,0:0:0:0:
256,192,63867,1,0,0:0:0:0:
256,192,64553,1,0,0:0:0:0:
256,192,65924,1,8,0:0:0:0:
256,192,66610,1,8,0:0:0:0:
256,192,67296,1,4,0:0:0:0:
256,192,68667,1,8,0:0:0:0:
256,192,69353,1,0,0:0:0:0:
256,192,70038,1,4,0:0:0:0:
256,192,71410,1,0,0:0:0:0:
256,192,72438,1,12,0:0:0:0:
256,192,72781,1,4,0:0:0:0:
256,192,73810,1,8,0:0:0:0:
256,192,74153,1,0,0:0:0:0:
256,192,74838,1,0,0:0:0:0:
256,192,75181,1,8,0:0:0:0:
256,192,75524,1,0,0:0:0:0:
256,192,76553,1,8,0:0:0:0:
256,192,76896,1,0,0:0:0:0:
256,192,77581,1,8,0:0:0:0:
256,192,77924,1,8,0:0:0:0:
256,192,78267,1,0,0:0:0:0:
256,192,79296,1,0,0:0:0:0:
256,192,79638,1,8,0:0:0:0:
256,192,80324,1,0,0:0:0:0:
256,192,81010,1,0,0:0:0:0:
256,192,82038,1,8,0:0:0:0:
256,192,83067,1,0,0:0:0:0:
256,192,83753,1,4,0:0:0:0:
256,192,84782,1,8,0:0:0:0:
256,192,85125,1,0,0:0:0:0:
256,192,85810,1,0,0:0:0:0:
256,192,86153,1,8,0:0:0:0:
256,192,86496,1,0,0:0:0:0:
256,192,87525,1,8,0:0:0:0:
256,192,87868,1,0,0:0:0:0:
256,192,88553,1,8,0:0:0:0:
256,192,89239,1,0,0:0:0:0:
256,192,90268,1,0,0:0:0:0:
256,192,90610,1,8,0:0:0:0:
256,192,91296,1,0,0:0:0:0:
256,192,91982,1,0,0:0:0:0:
256,192,93181,1,4,0:0:0:0:
256,192,94724,1,4,0:0:0:0:
256,192,95410,1,8,0:0:0:0:
256,192,95925,1,0,0:0:0:0:
256,192,96782,1,8,0:0:0:0:
256,192,97125,1,8,0:0:0:0:
256,192,97468,1,0,0:0:0:0:
256,192,98153,1,0,0:0:0:0:
256,192,98668,1,0,0:0:0:0:
256,192,99867,1,8,0:0:0:0:
256,192,100210,1,4,0:0:0:0:
256,192,100896,1,8,0:0:0:0:
256,192,101411,1,0,0:0:0:0:
256,192,102268,1,8,0:0:0:0:
256,192,102610,1,8,0:0:0:0:
256,192,102953,1,4,0:0:0:0:
256,192,104153,1,4,0:0:0:0:
256,192,105525,1,0,0:0:0:0:
256,192,106381,1,4,0:0:0:0:
