osu file format v14

[General]
AudioFilename: cr.mp3
AudioLeadIn: 0
PreviewTime: 71410
Countdown: 0
SampleSet: Normal
StackLeniency: 0.7
Mode: 1
LetterboxInBreaks: 0
WidescreenStoryboard: 0

[Editor]
DistanceSpacing: 1
BeatDivisor: 6
GridSize: 32
TimelineZoom: 1.5

[Metadata]
Title:Chinese Restaurant
TitleUnicode:Chinese Restaurant
Artist:Memme
ArtistUnicode:Memme
Creator:Love
Version:Inner Oni
Source:Pump It Up Prime
Tags:parkmemme TKS TKSalt
BeatmapID:562332
BeatmapSetID:243893

[Difficulty]
HPDrainRate:6.9
CircleSize:5
OverallDifficulty:6.9
ApproachRate:5
SliderMultiplier:1.4
SliderTickRate:1

[Events]
//Background and Video events
0,0,"kekcr.jpg",0,50
//Break Periods
//Storyboard Layer 0 (Background)
//Storyboard Layer 1 (Fail)
//Storyboard Layer 2 (Pass)
//Storyboard Layer 3 (Foreground)
//Storyboard Sound Samples

[TimingPoints]
96,342.857142857143,4,1,0,80,1,0
51010,-100,4,1,0,40,0,0
51696,-100,4,1,0,60,0,0
52038,-100,4,1,0,40,0,0
53067,-100,4,1,0,80,0,0
53581,-100,4,1,0,40,0,0
54438,-100,4,1,0,60,0,0
54781,-100,4,1,0,40,0,0
56324,-100,4,1,0,60,0,0
56496,-100,4,1,0,40,0,0
57181,-100,4,1,0,60,0,0
57524,-100,4,1,0,40,0,0
58553,-100,4,1,0,60,0,0
59067,-100,4,1,0,40,0,0
60438,-100,4,1,0,60,0,0
72781,-100,4,1,0,80,0,1
94724,-100,4,1,0,80,0,0

[HitObjects]
256,192,781,5,8,0:0:0:0:
256,192,953,1,8,0:0:0:0:
256,192,1038,1,8,0:0:0:0:
256,192,1124,1,0,0:0:0:0:
256,192,1181,1,0,0:0:0:0:
256,192,1238,1,0,0:0:0:0:
256,192,1296,1,8,0:0:0:0:
256,192,1467,1,4,0:0:0:0:
256,192,1638,1,8,0:0:0:0:
256,192,1724,1,8,0:0:0:0:
256,192,1810,1,8,0:0:0:0:
256,192,1981,1,0,0:0:0:0:
256,192,2153,1,8,0:0:0:0:
256,192,2238,1,8,0:0:0:0:
256,192,2324,1,8,0:0:0:0:
256,192,2496,1,0,0:0:0:0:
256,192,2667,1,8,0:0:0:0:
256,192,2753,1,0,0:0:0:0:
256,192,2838,1,8,0:0:0:0:
256,192,3010,1,0,0:0:0:0:
256,192,3181,1,0,0:0:0:0:
256,192,3267,1,0,0:0:0:0:
256,192,3353,1,8,0:0:0:0:
256,192,3524,1,0,0:0:0:0:
256,192,3610,1,8,0:0:0:0:
256,192,3696,1,8,0:0:0:0:
256,192,3781,1,0,0:0:0:0:
256,192,3867,1,8,0:0:0:0:
256,192,4038,1,4,0:0:0:0:
256,192,4381,1,8,0:0:0:0:
256,192,4553,1,0,0:0:0:0:
256,192,4724,1,8,0:0:0:0:
256,192,4810,1,8,0:0:0:0:
256,192,4896,1,0,0:0:0:0:
256,192,5067,1,8,0:0:0:0:
256,192,5238,1,0,0:0:0:0:
256,192,5410,1,0,0:0:0:0:
256,192,5753,1,0,0:0:0:0:
256,192,5838,1,0,0:0:0:0:
256,192,5924,1,8,0:0:0:0:
256,192,6096,1,8,0:0:0:0:
256,192,6267,1,0,0:0:0:0:
256,192,6438,1,8,0:0:0:0:
256,192,6524,1,8,0:0:0:0:
256,192,6610,1,8,0:0:0:0:
256,192,6781,1,8,0:0:0:0:
256,192,6953,1,4,0:0:0:0:
256,192,7124,1,0,0:0:0:0:
256,192,7210,1,0,0:0:0:0:
256,192,7296,1,8,0:0:0:0:
256,192,7467,1,8,0:0:0:0:
256,192,7638,1,0,0:0:0:0:
256,192,7724,1,8,0:0:0:0:
256,192,7810,1,0,0:0:0:0:
256,192,7896,1,0,0:0:0:0:
256,192,7981,1,8,0:0:0:0:
256,192,8153,1,8,0:0:0:0:
256,192,8496,1,8,0:0:0:0:
256,192,8581,1,8,0:0:0:0:
256,192,8667,1,0,0:0:0:0:
256,192,8838,1,8,0:0:0:0:
256,192,9010,1,0,0:0:0:0:
256,192,9181,1,8,0:0:0:0:
256,192,9267,1,0,0:0:0:0:
256,192,9353,1,8,0:0:0:0:
256,192,9524,1,8,0:0:0:0:
256,192,9696,1,0,0:0:0:0:
256,192,9867,1,0,0:0:0:0:
256,192,9953,1,0,0:0:0:0:
256,192,10038,1,8,0:0:0:0:
256,192,10210,1,8,0:0:0:0:
256,192,10381,1,0,0:0:0:0:
256,192,10467,1,8,0:0:0:0:
256,192,10553,1,0,0:0:0:0:
256,192,10638,1,0,0:0:0:0:
256,192,10724,1,8,0:0:0:0:
256,192,10896,1,0,0:0:0:0:
256,192,11238,1,8,0:0:0:0:
256,192,11324,1,0,0:0:0:0:
256,192,11410,1,8,0:0:0:0:
256,192,11496,1,8,0:0:0:0:
256,192,11581,1,0,0:0:0:0:
256,192,11667,1,0,0:0:0:0:
256,192,11753,1,8,0:0:0:0:
256,192,11924,1,0,0:0:0:0:
256,192,12096,1,8,0:0:0:0:
256,192,12267,1,8,0:0:0:0:
256,192,12438,1,4,0:0:0:0:
256,192,12610,1,0,0:0:0:0:
256,192,12696,1,0,0:0:0:0:
256,192,12781,1,8,0:0:0:0:
256,192,12953,1,8,0:0:0:0:
256,192,13124,1,0,0:0:0:0:
256,192,13210,1,8,0:0:0:0:
256,192,13296,1,8,0:0:0:0:
256,192,13381,1,0,0:0:0:0:
256,192,13467,1,8,0:0:0:0:
256,192,13638,1,8,0:0:0:0:
256,192,13810,1,0,0:0:0:0:
256,192,13981,1,8,0:0:0:0:
256,192,14153,1,0,0:0:0:0:
256,192,14238,1,0,0:0:0:0:
256,192,14324,1,8,0:0:0:0:
256,192,14496,1,0,0:0:0:0:
256,192,14667,1,0,0:0:0:0:
256,192,14753,1,0,0:0:0:0:
256,192,14838,1,8,0:0:0:0:
256,192,14924,1,0,0:0:0:0:
256,192,15010,1,8,0:0:0:0:
256,192,15181,1,0,0:0:0:0:
256,192,15353,1,8,0:0:0:0:
256,192,15438,1,8,0:0:0:0:
256,192,15524,1,8,0:0:0:0:
256,192,15696,1,0,0:0:0:0:
256,192,15867,1,0,0:0:0:0:
256,192,16038,1,8,0:0:0:0:
256,192,16124,1,0,0:0:0:0:
256,192,16210,1,8,0:0:0:0:
256,192,16381,1,0,0:0:0:0:
256,192,16724,1,8,0:0:0:0:
256,192,16810,1,0,0:0:0:0:
256,192,16896,1,8,0:0:0:0:
256,192,16981,1,8,0:0:0:0:
256,192,17067,1,0,0:0:0:0:
256,192,17153,1,0,0:0:0:0:
256,192,17238,1,8,0:0:0:0:
256,192,17496,1,0,0:0:0:0:
256,192,17581,1,8,0:0:0:0:
256,192,17753,1,4,0:0:0:0:
256,192,18096,1,8,0:0:0:0:
256,192,18181,1,8,0:0:0:0:
256,192,18267,1,8,0:0:0:0:
256,192,18438,1,8,0:0:0:0:
256,192,18610,1,0,0:0:0:0:
256,192,18781,1,8,0:0:0:0:
256,192,18953,1,8,0:0:0:0:
256,192,19124,1,4,0:0:0:0:
256,192,19467,1,8,0:0:0:0:
256,192,19553,1,8,0:0:0:0:
256,192,19638,1,8,0:0:0:0:
256,192,19810,1,0,0:0:0:0:
256,192,19981,1,8,0:0:0:0:
256,192,20153,1,8,0:0:0:0:
256,192,20210,1,8,0:0:0:0:
256,192,20267,1,8,0:0:0:0:
256,192,20324,1,0,0:0:0:0:
256,192,20496,1,0,0:0:0:0:
256,192,20667,1,4,0:0:0:0:
256,192,20838,1,0,0:0:0:0:
256,192,20924,1,0,0:0:0:0:
256,192,21010,1,8,0:0:0:0:
256,192,21096,1,0,0:0:0:0:
256,192,21181,1,8,0:0:0:0:
256,192,21267,1,8,0:0:0:0:
256,192,21353,1,0,0:0:0:0:
256,192,21524,1,8,0:0:0:0:
256,192,21610,1,0,0:0:0:0:
256,192,21696,1,0,0:0:0:0:
256,192,21781,1,8,0:0:0:0:
256,192,21867,1,0,0:0:0:0:
256,192,21953,1,0,0:0:0:0:
256,192,22038,1,8,0:0:0:0:
256,192,22124,1,0,0:0:0:0:
256,192,22210,1,8,0:0:0:0:
256,192,22296,1,8,0:0:0:0:
256,192,22381,1,0,0:0:0:0:
256,192,22553,1,8,0:0:0:0:
256,192,22638,1,8,0:0:0:0:
256,192,22724,1,0,0:0:0:0:
256,192,22810,1,0,0:0:0:0:
256,192,22896,1,8,0:0:0:0:
256,192,22981,1,0,0:0:0:0:
256,192,23067,1,8,0:0:0:0:
256,192,23238,1,4,0:0:0:0:
256,192,23581,1,8,0:0:0:0:
256,192,23667,1,8,0:0:0:0:
256,192,23753,1,8,0:0:0:0:
256,192,23924,1,8,0:0:0:0:
256,192,24096,1,0,0:0:0:0:
256,192,24267,1,8,0:0:0:0:
256,192,24438,1,8,0:0:0:0:
256,192,24610,1,4,0:0:0:0:
256,192,24953,1,8,0:0:0:0:
256,192,25038,1,8,0:0:0:0:
256,192,25124,1,8,0:0:0:0:
256,192,25296,1,8,0:0:0:0:
256,192,25467,1,0,0:0:0:0:
256,192,25638,1,8,0:0:0:0:
256,192,25696,1,8,0:0:0:0:
256,192,25753,1,8,0:0:0:0:
256,192,25810,1,0,0:0:0:0:
256,192,25981,1,0,0:0:0:0:
256,192,26153,1,4,0:0:0:0:
256,192,26324,1,0,0:0:0:0:
256,192,26410,1,0,0:0:0:0:
256,192,26496,1,8,0:0:0:0:
256,192,26581,1,0,0:0:0:0:
256,192,26667,1,8,0:0:0:0:
256,192,26753,1,8,0:0:0:0:
256,192,26838,1,0,0:0:0:0:
256,192,27010,1,0,0:0:0:0:
256,192,27096,1,0,0:0:0:0:
256,192,27181,1,8,0:0:0:0:
256,192,27353,1,4,0:0:0:0:
256,192,27696,1,0,0:0:0:0:
256,192,27781,1,0,0:0:0:0:
256,192,27867,1,8,0:0:0:0:
256,192,28038,1,8,0:0:0:0:
256,192,28210,1,8,0:0:0:0:
256,192,28296,1,0,0:0:0:0:
256,192,28381,1,8,0:0:0:0:
256,192,28896,1,4,0:0:0:0:
256,192,29067,1,8,0:0:0:0:
256,192,29153,1,0,0:0:0:0:
256,192,29238,1,8,0:0:0:0:
256,192,29410,1,8,0:0:0:0:
256,192,29581,1,0,0:0:0:0:
256,192,29753,1,8,0:0:0:0:
256,192,29838,1,8,0:0:0:0:
256,192,29924,1,8,0:0:0:0:
256,192,30096,1,0,0:0:0:0:
256,192,30438,1,0,0:0:0:0:
256,192,30524,1,0,0:0:0:0:
256,192,30610,1,8,0:0:0:0:
256,192,30781,1,8,0:0:0:0:
256,192,30953,1,0,0:0:0:0:
256,192,31124,1,8,0:0:0:0:
256,192,31181,1,8,0:0:0:0:
256,192,31238,1,8,0:0:0:0:
256,192,31296,1,0,0:0:0:0:
256,192,31467,1,8,0:0:0:0:
256,192,31638,1,4,0:0:0:0:
256,192,31810,1,8,0:0:0:0:
256,192,31896,1,8,0:0:0:0:
256,192,31981,1,0,0:0:0:0:
256,192,32067,1,0,0:0:0:0:
256,192,32153,1,8,0:0:0:0:
256,192,32238,1,0,0:0:0:0:
256,192,32324,1,8,0:0:0:0:
256,192,32496,1,8,0:0:0:0:
256,192,32581,1,8,0:0:0:0:
256,192,32667,1,0,0:0:0:0:
256,192,32838,1,0,0:0:0:0:
256,192,32924,1,0,0:0:0:0:
256,192,33010,1,8,0:0:0:0:
256,192,33181,1,8,0:0:0:0:
256,192,33267,1,0,0:0:0:0:
256,192,33353,1,8,0:0:0:0:
256,192,33438,1,8,0:0:0:0:
256,192,33524,1,0,0:0:0:0:
256,192,33610,1,8,0:0:0:0:
256,192,33696,1,0,0:0:0:0:
256,192,33781,1,8,0:0:0:0:
256,192,33867,1,8,0:0:0:0:
256,192,33953,1,0,0:0:0:0:
256,192,34038,1,8,0:0:0:0:
256,192,34210,1,0,0:0:0:0:
256,192,34381,1,4,0:0:0:0:
256,192,34553,1,8,0:0:0:0:
256,192,34638,1,8,0:0:0:0:
256,192,34724,1,8,0:0:0:0:
256,192,34896,1,4,0:0:0:0:
256,192,35067,1,8,0:0:0:0:
256,192,35153,1,8,0:0:0:0:
256,192,35238,1,8,0:0:0:0:
256,192,35410,1,4,0:0:0:0:
256,192,35581,1,8,0:0:0:0:
256,192,35667,1,0,0:0:0:0:
256,192,35753,1,8,0:0:0:0:
256,192,35924,1,4,0:0:0:0:
256,192,36096,1,0,0:0:0:0:
256,192,36181,1,8,0:0:0:0:
256,192,36267,1,0,0:0:0:0:
256,192,36438,1,12,0:0:0:0:
256,192,36610,1,8,0:0:0:0:
256,192,36696,1,8,0:0:0:0:
256,192,36781,1,8,0:0:0:0:
256,192,36953,1,4,0:0:0:0:
256,192,37296,1,0,0:0:0:0:
256,192,37381,1,0,0:0:0:0:
256,192,37467,1,8,0:0:0:0:
256,192,37638,1,8,0:0:0:0:
256,192,37810,1,0,0:0:0:0:
256,192,37981,1,0,0:0:0:0:
256,192,38153,1,8,0:0:0:0:
256,192,38324,1,4,0:0:0:0:
256,192,38667,1,0,0:0:0:0:
256,192,38753,1,8,0:0:0:0:
256,192,38838,1,0,0:0:0:0:
256,192,38924,1,0,0:0:0:0:
256,192,39010,1,8,0:0:0:0:
256,192,39096,1,0,0:0:0:0:
256,192,39181,1,8,0:0:0:0:
256,192,39524,1,8,0:0:0:0:
256,192,39696,1,8,0:0:0:0:
256,192,39867,1,4,0:0:0:0:
256,192,40210,1,0,0:0:0:0:
256,192,40553,1,8,0:0:0:0:
256,192,40896,1,8,0:0:0:0:
256,192,41067,1,0,0:0:0:0:
256,192,41410,1,8,0:0:0:0:
256,192,41581,1,0,0:0:0:0:
256,192,41753,1,0,0:0:0:0:
256,192,41838,1,0,0:0:0:0:
256,192,41924,1,8,0:0:0:0:
256,192,42096,1,0,0:0:0:0:
256,192,42181,1,8,0:0:0:0:
256,192,42267,1,0,0:0:0:0:
256,192,42438,1,0,0:0:0:0:
256,192,42610,1,0,0:0:0:0:
256,192,42953,1,0,0:0:0:0:
256,192,43296,1,8,0:0:0:0:
256,192,43638,1,8,0:0:0:0:
256,192,43810,1,0,0:0:0:0:
256,192,44153,1,8,0:0:0:0:
256,192,44238,1,0,0:0:0:0:
256,192,44324,1,8,0:0:0:0:
256,192,44410,1,8,0:0:0:0:
256,192,44496,1,0,0:0:0:0:
256,192,44581,1,0,0:0:0:0:
256,192,44667,1,8,0:0:0:0:
256,192,44838,1,8,0:0:0:0:
256,192,44924,1,0,0:0:0:0:
256,192,45010,1,8,0:0:0:0:
256,192,45181,1,8,0:0:0:0:
256,192,45353,1,4,0:0:0:0:
256,192,45696,1,0,0:0:0:0:
256,192,46038,1,8,0:0:0:0:
256,192,46381,1,8,0:0:0:0:
256,192,46553,1,0,0:0:0:0:
256,192,46896,1,8,0:0:0:0:
256,192,47067,1,0,0:0:0:0:
256,192,47238,1,0,0:0:0:0:
256,192,47324,1,0,0:0:0:0:
256,192,47410,1,8,0:0:0:0:
256,192,47581,1,8,0:0:0:0:
256,192,47667,1,0,0:0:0:0:
256,192,47753,1,8,0:0:0:0:
256,192,47838,1,8,0:0:0:0:
256,192,47924,1,0,0:0:0:0:
256,192,48096,1,0,0:0:0:0:
256,192,48267,1,0,0:0:0:0:
256,192,48353,1,0,0:0:0:0:
256,192,48438,1,0,0:0:0:0:
256,192,48610,1,0,0:0:0:0:
256,192,48781,1,8,0:0:0:0:
256,192,48953,1,8,0:0:0:0:
256,192,49038,1,8,0:0:0:0:
256,192,49124,1,8,0:0:0:0:
256,192,49296,1,0,0:0:0:0:
256,192,49638,1,0,0:0:0:0:
256,192,49724,1,0,0:0:0:0:
256,192,49810,1,8,0:0:0:0:
256,192,49896,1,8,0:0:0:0:
256,192,49981,1,0,0:0:0:0:
256,192,50067,1,8,0:0:0:0:
256,192,50153,1,0,0:0:0:0:
256,192,50324,1,8,0:0:0:0:
256,192,50410,1,0,0:0:0:0:
256,192,50496,1,8,0:0:0:0:
256,192,50838,1,4,0:0:0:0:
256,192,51010,1,8,0:0:0:0:
256,192,51181,1,0,0:0:0:0:
256,192,51353,1,8,0:0:0:0:
256,192,51524,1,0,0:0:0:0:
256,192,51696,1,8,0:0:0:0:
256,192,51781,1,8,0:0:0:0:
256,192,51867,1,0,0:0:0:0:
256,192,52038,1,8,0:0:0:0:
256,192,52210,1,0,0:0:0:0:
256,192,52381,1,8,0:0:0:0:
256,192,52553,1,0,0:0:0:0:
256,192,52724,1,8,0:0:0:0:
256,192,52896,1,0,0:0:0:0:
256,192,53067,1,8,0:0:0:0:
256,192,53153,1,8,0:0:0:0:
256,192,53238,1,0,0:0:0:0:
256,192,53410,1,8,0:0:0:0:
256,192,53581,1,0,0:0:0:0:
256,192,53753,1,8,0:0:0:0:
256,192,53924,1,0,0:0:0:0:
256,192,54096,1,8,0:0:0:0:
256,192,54267,1,0,0:0:0:0:
256,192,54438,1,8,0:0:0:0:
256,192,54524,1,8,0:0:0:0:
256,192,54610,1,0,0:0:0:0:
256,192,54781,1,8,0:0:0:0:
256,192,54953,1,0,0:0:0:0:
256,192,55124,1,8,0:0:0:0:
256,192,55296,1,0,0:0:0:0:
256,192,55467,1,8,0:0:0:0:
256,192,55553,1,8,0:0:0:0:
256,192,55638,1,0,0:0:0:0:
256,192,55724,1,0,0:0:0:0:
256,192,55810,1,8,0:0:0:0:
256,192,55981,1,0,0:0:0:0:
256,192,56067,1,0,0:0:0:0:
256,192,56153,1,8,0:0:0:0:
256,192,56324,1,4,0:0:0:0:
256,192,56496,1,8,0:0:0:0:
256,192,56667,1,0,0:0:0:0:
256,192,56838,1,8,0:0:0:0:
256,192,57010,1,0,0:0:0:0:
256,192,57181,1,8,0:0:0:0:
256,192,57267,1,8,0:0:0:0:
256,192,57353,1,0,0:0:0:0:
256,192,57524,1,8,0:0:0:0:
256,192,57696,1,0,0:0:0:0:
256,192,57867,1,8,0:0:0:0:
256,192,58038,1,0,0:0:0:0:
256,192,58210,1,8,0:0:0:0:
256,192,58381,1,0,0:0:0:0:
256,192,58553,1,8,0:0:0:0:
256,192,58638,1,8,0:0:0:0:
256,192,58724,1,0,0:0:0:0:
256,192,58896,1,8,0:0:0:0:
256,192,59067,1,0,0:0:0:0:
256,192,59238,1,8,0:0:0:0:
256,192,59410,1,0,0:0:0:0:
256,192,59581,1,8,0:0:0:0:
256,192,59753,1,0,0:0:0:0:
256,192,59924,1,8,0:0:0:0:
256,192,60010,1,8,0:0:0:0:
256,192,60096,1,0,0:0:0:0:
256,192,60267,1,0,0:0:0:0:
256,192,60438,1,0,0:0:0:0:
256,192,60610,1,8,0:0:0:0:
256,192,60696,1,0,0:0:0:0:
256,192,60781,1,8,0:0:0:0:
256,192,60953,1,8,0:0:0:0:
256,192,61038,1,8,0:0:0:0:
256,192,61124,1,0,0:0:0:0:
256,192,61296,1,0,0:0:0:0:
256,192,61467,1,8,0:0:0:0:
256,192,61553,1,8,0:0:0:0:
256,192,61638,1,8,0:0:0:0:
256,192,61810,1,4,0:0:0:0:
256,192,61981,1,0,0:0:0:0:
256,192,62067,1,0,0:0:0:0:
256,192,62153,1,8,0:0:0:0:
256,192,62324,1,0,0:0:0:0:
256,192,62496,1,8,0:0:0:0:
256,192,62667,1,8,0:0:0:0:
256,192,62838,1,0,0:0:0:0:
256,192,63010,1,8,0:0:0:0:
256,192,63096,1,8,0:0:0:0:
256,192,63181,1,8,0:0:0:0:
256,192,63353,1,0,0:0:0:0:
256,192,63524,1,8,0:0:0:0:
256,192,63696,1,8,0:0:0:0:
256,192,63867,1,0,0:0:0:0:
256,192,64038,1,0,0:0:0:0:
256,192,64124,1,0,0:0:0:0:
256,192,64210,1,0,0:0:0:0:
256,192,64381,1,8,0:0:0:0:
256,192,64553,1,0,0:0:0:0:
256,192,64724,1,0,0:0:0:0:
256,192,64896,1,8,0:0:0:0:
256,192,65067,1,8,0:0:0:0:
256,192,65153,1,8,0:0:0:0:
256,192,65238,1,0,0:0:0:0:
256,192,65410,1,8,0:0:0:0:
256,192,65581,1,0,0:0:0:0:
256,192,65753,1,8,0:0:0:0:
256,192,65838,1,8,0:0:0:0:
256,192,65924,1,0,0:0:0:0:
256,192,66096,1,8,0:0:0:0:
256,192,66181,1,0,0:0:0:0:
256,192,66267,1,0,0:0:0:0:
256,192,66438,1,8,0:0:0:0:
256,192,66524,1,8,0:0:0:0:
256,192,66610,1,0,0:0:0:0:
256,192,66781,1,8,0:0:0:0:
256,192,66867,1,8,0:0:0:0:
256,192,66953,1,8,0:0:0:0:
256,192,67124,1,8,0:0:0:0:
256,192,67296,1,4,0:0:0:0:
256,192,67467,1,8,0:0:0:0:
256,192,67553,1,8,0:0:0:0:
256,192,67638,1,8,0:0:0:0:
256,192,67810,1,0,0:0:0:0:
256,192,67981,1,8,0:0:0:0:
256,192,68153,1,8,0:0:0:0:
256,192,68238,1,8,0:0:0:0:
256,192,68324,1,0,0:0:0:0:
256,192,68496,1,8,0:0:0:0:
256,192,68667,1,4,0:0:0:0:
256,192,68838,1,8,0:0:0:0:
256,192,68924,1,8,0:0:0:0:
256,192,69010,1,8,0:0:0:0:
256,192,69181,1,0,0:0:0:0:
256,192,69353,1,8,0:0:0:0:
256,192,69438,1,0,0:0:0:0:
256,192,69524,1,8,0:0:0:0:
256,192,69610,1,8,0:0:0:0:
256,192,69696,1,0,0:0:0:0:
256,192,69867,1,8,0:0:0:0:
256,192,70038,1,4,0:0:0:0:
256,192,70210,1,8,0:0:0:0:
256,192,70296,1,8,0:0:0:0:
256,192,70381,1,0,0:0:0:0:
256,192,70553,1,8,0:0:0:0:
256,192,70724,1,0,0:0:0:0:
256,192,70810,1,0,0:0:0:0:
256,192,70896,1,8,0:0:0:0:
256,192,70981,1,8,0:0:0:0:
256,192,71067,1,0,0:0:0:0:
256,192,71238,1,8,0:0:0:0:
256,192,71410,1,0,0:0:0:0:
256,192,71496,1,8,0:0:0:0:
256,192,71581,1,8,0:0:0:0:
256,192,71667,1,0,0:0:0:0:
256,192,71753,1,8,0:0:0:0:
256,192,71838,1,8,0:0:0:0:
256,192,71924,1,0,0:0:0:0:
256,192,72010,1,8,0:0:0:0:
256,192,72096,1,0,0:0:0:0:
256,192,72181,1,0,0:0:0:0:
256,192,72267,1,8,0:0:0:0:
256,192,72353,1,0,0:0:0:0:
256,192,72438,1,8,0:0:0:0:
256,192,72781,1,4,0:0:0:0:
256,192,72953,1,0,0:0:0:0:
256,192,73038,1,0,0:0:0:0:
256,192,73124,1,8,0:0:0:0:
256,192,73296,1,8,0:0:0:0:
256,192,73467,1,0,0:0:0:0:
256,192,73553,1,0,0:0:0:0:
256,192,73638,1,8,0:0:0:0:
256,192,73810,1,8,0:0:0:0:
256,192,73981,1,8,0:0:0:0:
256,192,74067,1,0,0:0:0:0:
256,192,74153,1,8,0:0:0:0:
256,192,74324,1,0,0:0:0:0:
256,192,74410,1,0,0:0:0:0:
256,192,74496,1,8,0:0:0:0:
256,192,74581,1,0,0:0:0:0:
256,192,74667,1,8,0:0:0:0:
256,192,74753,1,8,0:0:0:0:
256,192,74838,1,0,0:0:0:0:
256,192,74924,1,8,0:0:0:0:
256,192,75010,1,0,0:0:0:0:
256,192,75096,1,0,0:0:0:0:
256,192,75181,1,8,0:0:0:0:
256,192,75267,1,0,0:0:0:0:
256,192,75353,1,8,0:0:0:0:
256,192,75524,1,0,0:0:0:0:
256,192,75696,1,8,0:0:0:0:
256,192,75781,1,0,0:0:0:0:
256,192,75867,1,8,0:0:0:0:
256,192,76038,1,8,0:0:0:0:
256,192,76210,1,0,0:0:0:0:
256,192,76296,1,8,0:0:0:0:
256,192,76381,1,0,0:0:0:0:
256,192,76553,1,8,0:0:0:0:
256,192,76724,1,8,0:0:0:0:
256,192,76810,1,8,0:0:0:0:
256,192,76896,1,0,0:0:0:0:
256,192,77067,1,8,0:0:0:0:
256,192,77238,1,0,0:0:0:0:
256,192,77324,1,0,0:0:0:0:
256,192,77410,1,0,0:0:0:0:
256,192,77496,1,0,0:0:0:0:
256,192,77581,1,8,0:0:0:0:
256,192,77753,1,0,0:0:0:0:
256,192,77838,1,8,0:0:0:0:
256,192,78010,1,0,0:0:0:0:
256,192,78096,1,8,0:0:0:0:
256,192,78267,1,0,0:0:0:0:
256,192,78438,1,8,0:0:0:0:
256,192,78524,1,8,0:0:0:0:
256,192,78610,1,0,0:0:0:0:
256,192,78781,1,0,0:0:0:0:
256,192,78953,1,8,0:0:0:0:
256,192,79038,1,8,0:0:0:0:
256,192,79124,1,0,0:0:0:0:
256,192,79296,1,0,0:0:0:0:
256,192,79467,1,8,0:0:0:0:
256,192,79553,1,0,0:0:0:0:
256,192,79638,1,0,0:0:0:0:
256,192,79810,1,0,0:0:0:0:
256,192,79981,1,8,0:0:0:0:
256,192,80067,1,8,0:0:0:0:
256,192,80153,1,8,0:0:0:0:
256,192,80324,1,0,0:0:0:0:
256,192,80410,1,8,0:0:0:0:
256,192,80496,1,0,0:0:0:0:
256,192,80581,1,0,0:0:0:0:
256,192,80667,1,8,0:0:0:0:
256,192,80838,1,8,0:0:0:0:
256,192,81010,1,0,0:0:0:0:
256,192,81181,1,8,0:0:0:0:
256,192,81267,1,0,0:0:0:0:
256,192,81353,1,8,0:0:0:0:
256,192,81524,1,8,0:0:0:0:
256,192,81696,1,0,0:0:0:0:
256,192,81781,1,0,0:0:0:0:
256,192,81867,1,8,0:0:0:0:
256,192,82038,1,8,0:0:0:0:
256,192,82210,1,8,0:0:0:0:
256,192,82296,1,8,0:0:0:0:
256,192,82381,1,0,0:0:0:0:
256,192,82553,1,0,0:0:0:0:
256,192,82638,1,8,0:0:0:0:
256,192,82724,1,0,0:0:0:0:
256,192,82810,1,0,0:0:0:0:
256,192,82896,1,8,0:0:0:0:
256,192,82981,1,0,0:0:0:0:
256,192,83067,1,8,0:0:0:0:
256,192,83153,1,8,0:0:0:0:
256,192,83238,1,0,0:0:0:0:
256,192,83324,1,8,0:0:0:0:
256,192,83410,1,8,0:0:0:0:
256,192,83496,1,0,0:0:0:0:
256,192,83581,1,8,0:0:0:0:
256,192,83753,1,4,0:0:0:0:
256,192,83924,1,0,0:0:0:0:
256,192,84010,1,0,0:0:0:0:
256,192,84096,1,8,0:0:0:0:
256,192,84267,1,8,0:0:0:0:
256,192,84438,1,0,0:0:0:0:
256,192,84524,1,0,0:0:0:0:
256,192,84610,1,8,0:0:0:0:
256,192,84781,1,8,0:0:0:0:
256,192,84953,1,8,0:0:0:0:
256,192,85038,1,0,0:0:0:0:
256,192,85124,1,8,0:0:0:0:
256,192,85296,1,8,0:0:0:0:
256,192,85381,1,0,0:0:0:0:
256,192,85467,1,8,0:0:0:0:
256,192,85553,1,8,0:0:0:0:
256,192,85638,1,0,0:0:0:0:
256,192,85724,1,8,0:0:0:0:
256,192,85810,1,0,0:0:0:0:
256,192,85896,1,8,0:0:0:0:
256,192,85981,1,0,0:0:0:0:
256,192,86067,1,0,0:0:0:0:
256,192,86153,1,8,0:0:0:0:
256,192,86238,1,0,0:0:0:0:
256,192,86324,1,8,0:0:0:0:
256,192,86496,1,0,0:0:0:0:
256,192,86667,1,8,0:0:0:0:
256,192,86753,1,0,0:0:0:0:
256,192,86838,1,8,0:0:0:0:
256,192,87010,1,8,0:0:0:0:
256,192,87181,1,0,0:0:0:0:
256,192,87267,1,8,0:0:0:0:
256,192,87353,1,0,0:0:0:0:
256,192,87524,1,8,0:0:0:0:
256,192,87696,1,8,0:0:0:0:
256,192,87781,1,8,0:0:0:0:
256,192,87867,1,0,0:0:0:0:
256,192,88038,1,8,0:0:0:0:
256,192,88124,1,8,0:0:0:0:
256,192,88210,1,0,0:0:0:0:
256,192,88296,1,0,0:0:0:0:
256,192,88381,1,0,0:0:0:0:
256,192,88467,1,0,0:0:0:0:
256,192,88553,1,8,0:0:0:0:
256,192,88724,1,0,0:0:0:0:
256,192,88810,1,8,0:0:0:0:
256,192,88981,1,0,0:0:0:0:
256,192,89067,1,8,0:0:0:0:
256,192,89238,1,0,0:0:0:0:
256,192,89410,1,8,0:0:0:0:
256,192,89496,1,8,0:0:0:0:
256,192,89581,1,0,0:0:0:0:
256,192,89753,1,0,0:0:0:0:
256,192,89924,1,8,0:0:0:0:
256,192,90010,1,8,0:0:0:0:
256,192,90096,1,0,0:0:0:0:
256,192,90267,1,0,0:0:0:0:
256,192,90438,1,8,0:0:0:0:
256,192,90524,1,0,0:0:0:0:
256,192,90610,1,8,0:0:0:0:
256,192,90781,1,0,0:0:0:0:
256,192,90867,1,0,0:0:0:0:
256,192,90953,1,8,0:0:0:0:
256,192,91038,1,8,0:0:0:0:
256,192,91124,1,8,0:0:0:0:
256,192,91210,1,8,0:0:0:0:
256,192,91296,1,0,0:0:0:0:
256,192,91381,1,8,0:0:0:0:
256,192,91467,1,0,0:0:0:0:
256,192,91553,1,0,0:0:0:0:
256,192,91638,1,8,0:0:0:0:
256,192,91724,1,0,0:0:0:0:
256,192,91810,1,8,0:0:0:0:
256,192,91981,1,4,0:0:0:0:
256,192,92153,1,8,0:0:0:0:
256,192,92238,1,0,0:0:0:0:
256,192,92324,1,8,0:0:0:0:
256,192,92496,1,8,0:0:0:0:
256,192,92667,1,0,0:0:0:0:
256,192,92753,1,8,0:0:0:0:
256,192,92838,1,8,0:0:0:0:
256,192,93010,1,8,0:0:0:0:
256,192,93181,1,4,0:0:0:0:
256,192,93524,1,8,0:0:0:0:
256,192,93610,1,8,0:0:0:0:
256,192,93696,1,0,0:0:0:0:
256,192,93781,1,0,0:0:0:0:
256,192,93867,1,8,0:0:0:0:
256,192,93953,1,0,0:0:0:0:
256,192,94038,1,8,0:0:0:0:
256,192,94210,1,8,0:0:0:0:
256,192,94296,1,8,0:0:0:0:
256,192,94381,1,8,0:0:0:0:
256,192,94553,1,8,0:0:0:0:
256,192,94638,1,8,0:0:0:0:
256,192,94724,1,0,0:0:0:0:
256,192,94896,1,0,0:0:0:0:
256,192,94981,1,0,0:0:0:0:
256,192,95067,1,8,0:0:0:0:
256,192,95238,1,8,0:0:0:0:
256,192,95410,1,0,0:0:0:0:
256,192,95496,1,8,0:0:0:0:
256,192,95581,1,0,0:0:0:0:
256,192,95667,1,0,0:0:0:0:
256,192,95753,1,8,0:0:0:0:
256,192,95924,1,0,0:0:0:0:
256,192,96267,1,8,0:0:0:0:
256,192,96353,1,8,0:0:0:0:
256,192,96438,1,0,0:0:0:0:
256,192,96610,1,8,0:0:0:0:
256,192,96781,1,0,0:0:0:0:
256,192,96953,1,8,0:0:0:0:
256,192,97038,1,8,0:0:0:0:
256,192,97124,1,0,0:0:0:0:
256,192,97296,1,0,0:0:0:0:
256,192,97467,1,0,0:0:0:0:
256,192,97638,1,0,0:0:0:0:
256,192,97724,1,0,0:0:0:0:
256,192,97810,1,8,0:0:0:0:
256,192,97981,1,8,0:0:0:0:
256,192,98153,1,0,0:0:0:0:
256,192,98238,1,8,0:0:0:0:
256,192,98324,1,8,0:0:0:0:
256,192,98410,1,0,0:0:0:0:
256,192,98496,1,8,0:0:0:0:
256,192,98667,1,8,0:0:0:0:
256,192,99010,1,8,0:0:0:0:
256,192,99096,1,0,0:0:0:0:
256,192,99181,1,8,0:0:0:0:
256,192,99267,1,8,0:0:0:0:
256,192,99353,1,0,0:0:0:0:
256,192,99438,1,0,0:0:0:0:
256,192,99524,1,8,0:0:0:0:
256,192,99696,1,0,0:0:0:0:
256,192,99867,1,8,0:0:0:0:
256,192,99953,1,8,0:0:0:0:
256,192,100038,1,8,0:0:0:0:
256,192,100210,1,4,0:0:0:0:
256,192,100381,1,0,0:0:0:0:
256,192,100467,1,0,0:0:0:0:
256,192,100553,1,8,0:0:0:0:
256,192,100724,1,8,0:0:0:0:
256,192,100896,1,0,0:0:0:0:
256,192,100981,1,8,0:0:0:0:
256,192,101067,1,0,0:0:0:0:
256,192,101153,1,0,0:0:0:0:
256,192,101238,1,8,0:0:0:0:
256,192,101410,1,8,0:0:0:0:
256,192,101753,1,8,0:0:0:0:
256,192,101838,1,8,0:0:0:0:
256,192,101924,1,0,0:0:0:0:
256,192,102096,1,8,0:0:0:0:
256,192,102267,1,0,0:0:0:0:
256,192,102438,1,0,0:0:0:0:
256,192,102524,1,0,0:0:0:0:
256,192,102610,1,8,0:0:0:0:
256,192,102696,1,0,0:0:0:0:
256,192,102781,1,8,0:0:0:0:
256,192,102953,1,4,0:0:0:0:
256,192,103124,1,8,0:0:0:0:
256,192,103210,1,8,0:0:0:0:
256,192,103296,1,8,0:0:0:0:
256,192,103467,1,0,0:0:0:0:
256,192,103638,1,0,0:0:0:0:
256,192,103810,1,8,0:0:0:0:
256,192,103896,1,0,0:0:0:0:
256,192,103981,1,8,0:0:0:0:
256,192,104153,1,4,0:0:0:0:
256,192,104496,1,8,0:0:0:0:
256,192,104581,1,0,0:0:0:0:
256,192,104667,1,8,0:0:0:0:
256,192,104753,1,8,0:0:0:0:
256,192,104838,1,0,0:0:0:0:
256,192,104924,1,0,0:0:0:0:
256,192,105010,1,8,0:0:0:0:
256,192,105267,1,0,0:0:0:0:
256,192,105353,1,8,0:0:0:0:
256,192,105524,1,0,0:0:0:0:
256,192,105867,1,8,0:0:0:0:
256,192,105953,1,8,0:0:0:0:
256,192,106038,1,0,0:0:0:0:
256,192,106124,1,0,0:0:0:0:
256,192,106210,1,8,0:0:0:0:
256,192,106296,1,0,0:0:0:0:
256,192,106381,1,8,0:0:0:0:
