osu file format v12

[General]
AudioFilename: China Dress.mp3
AudioLeadIn: 1000
PreviewTime: 61811
Countdown: 0
SampleSet: Soft
StackLeniency: 0.7
Mode: 0
LetterboxInBreaks: 0
WidescreenStoryboard: 0

[Editor]
DistanceSpacing: 1.7
BeatDivisor: 4
GridSize: 32
TimelineZoom: 2.1

[Metadata]
Title:China Dress
TitleUnicode:China Dress
Artist:Memme
ArtistUnicode:Memme
Creator:iyasine
Version:Another
Source:O2Jam U
Tags:guy umi kloyd oriental core
BeatmapID:369938
BeatmapSetID:149749

[Difficulty]
HPDrainRate:6
CircleSize:4
OverallDifficulty:8
ApproachRate:9
SliderMultiplier:1.8
SliderTickRate:1

[Events]
//Background and Video events
0,0,"1.jpg",0,0
//Break Periods
//Storyboard Layer 0 (Background)
//Storyboard Layer 1 (Fail)
//Storyboard Layer 2 (Pass)
//Storyboard Layer 3 (Foreground)
//Storyboard Sound Samples
//Background Colour Transformations
3,100,163,162,255

[TimingPoints]
97,342.857142857143,4,2,1,40,1,0
1125,-83.3333333333333,4,2,1,60,0,0
1468,-100,4,2,1,70,0,0
3525,-90.9090909090909,4,2,1,70,0,0
3868,-55.5555555555556,4,2,1,70,0,0
4211,-100,4,2,1,70,0,0
4214,-100,4,2,1,70,0,0
11068,-100,4,2,1,80,0,0
11154,-100,4,2,1,70,0,0
11411,-100,4,2,1,80,0,0
11497,-100,4,2,1,70,0,0
11754,-100,4,2,1,80,0,0
11839,-100,4,2,1,70,0,0
12439,-100,4,2,1,80,0,0
28897,-100,4,2,1,70,0,0
29668,-100,4,2,1,60,0,0
30097,-100,4,2,1,70,0,0
32497,-100,4,2,1,60,0,0
32839,-100,4,2,1,70,0,0
34639,-100,4,2,1,15,0,0
34725,-100,4,2,1,70,0,0
39525,-100,4,2,1,60,0,0
39868,-100,4,2,1,80,0,0
49297,-83.3333333333333,4,2,1,80,0,0
50325,-200,4,2,1,70,0,0
50839,-125,4,2,1,70,0,0
60611,-100,4,2,1,70,0,0
61811,-100,4,2,1,90,0,1
72782,-100,4,2,1,80,0,0
83411,-100,4,2,1,70,0,0
83754,-83.3333333333333,4,2,1,80,0,0
84097,-100,4,2,1,80,0,0
89239,-100,4,2,1,90,0,1
99868,-100,4,2,1,80,0,0
100211,-100,4,2,1,60,0,0
100554,-76.9230769230769,4,2,1,90,0,1
100897,-100,4,2,1,90,0,1
111011,-100,4,2,1,80,0,0
111182,-100,4,2,1,80,0,1
111354,-100,4,2,1,80,0,0

[Colours]
Combo1 : 191,128,255
Combo2 : 255,91,91
Combo3 : 255,255,128
Combo4 : 106,181,255

[HitObjects]
310,363,782,6,0,P|325:345|334:324,1,45,0|0,1:0|1:0,0:0:0:0:
358,247,954,1,8,0:0:0:0:
228,278,1125,6,2,B|176:297|129:231|72:247,1,161.999995056153,2|0,0:0|0:0,0:0:0:0:
1,268,1468,5,6,3:2:0:0:
58,146,1639,1,0,0:0:0:0:
193,164,1811,2,0,P|181:117|184:73,1,90,2|2,0:0|0:0,0:0:0:0:
252,32,2068,1,0,0:0:0:0:
252,32,2154,2,0,P|260:55|264:83,2,45,0|0|2,0:0|0:0|3:2,0:0:0:0:
274,205,2497,1,8,0:0:0:0:
85,359,2668,6,0,P|109:322|149:300,1,90,6|0,0:0|0:0,0:0:0:0:
354,246,3011,1,0,0:0:0:0:
193,164,3182,1,2,0:0:0:0:
418,110,3354,1,0,0:0:0:0:
274,205,3525,2,0,L|269:105,1,99.0000030212403,2|0,0:0|0:0,0:0:0:0:
252,32,3868,6,0,L|259:194,1,161.999995056153,10|2,3:2|0:0,0:0:0:0:
169,363,4211,6,0,P|148:325|149:280,1,90,6|0,0:0|0:0,0:0:0:0:
348,161,4554,1,2,0:0:0:0:
223,305,4725,2,0,L|312:314,1,90,2|0,3:2|0:0,0:0:0:0:
392,301,4982,1,0,0:0:0:0:
404,296,5068,1,2,0:0:0:0:
169,363,5239,2,0,P|124:348|80:341,1,90,8|6,0:0|0:0,0:0:0:0:
82,341,5582,5,0,0:0:0:0:
137,258,5754,1,0,0:0:0:0:
223,305,5925,1,2,0:0:0:0:
130,232,6097,1,0,0:0:0:0:
82,341,6268,1,2,0:0:0:0:
124,203,6439,1,0,0:0:0:0:
223,305,6611,1,10,0:0:0:0:
82,341,6782,1,2,0:0:0:0:
204,176,6954,6,0,P|211:127|211:82,1,90,6|0,0:0|0:0,0:0:0:0:
44,224,7297,2,0,P|45:248|52:273,2,45,2|0|0,0:0|0:0|0:0,0:0:0:0:
137,121,7639,2,0,L|45:113,1,90,2|0,0:0|0:0,0:0:0:0:
47,113,7982,1,10,0:0:0:0:
257,110,8154,6,0,L|349:102,1,90,0|6,0:0|0:0,0:0:0:0:
346,102,8497,1,0,0:0:0:0:
148,36,8668,1,2,0:0:0:0:
44,224,8839,1,0,0:0:0:0:
204,176,9011,1,6,0:0:0:0:
148,57,9182,1,0,0:0:0:0:
32,238,9354,1,10,0:0:0:0:
194,201,9525,1,0,0:0:0:0:
47,113,9697,6,0,L|37:107,1,11.25,6|0,0:0|0:0,0:0:0:0:
117,171,9868,2,0,L|121:154,1,11.25,2|0,0:0|0:0,0:0:0:0:
131,261,10039,2,0,L|146:252,1,11.25,2|0,0:0|0:0,0:0:0:0:
93,342,10211,2,0,L|108:343,1,11.25,2|0,0:0|0:0,0:0:0:0:
194,201,10382,5,2,0:0:0:0:
277,167,10554,1,2,0:0:0:0:
366,164,10725,1,2,0:0:0:0:
451,193,10897,1,2,0:0:0:0:
320,326,11068,5,2,1:2:0:0:
288,330,11154,1,0,0:0:0:0:
258,323,11239,1,0,0:0:0:0:
231,307,11325,1,0,0:0:0:0:
159,276,11411,5,0,1:0:0:0:
131,261,11497,1,0,0:0:0:0:
100,256,11582,1,0,0:0:0:0:
69,261,11668,1,0,0:0:0:0:
42,279,11754,5,0,1:0:0:0:
36,243,11839,1,0,0:0:0:0:
31,207,11925,1,0,0:0:0:0:
26,172,12011,1,0,0:0:0:0:
22,136,12097,5,2,0:0:0:0:
25,138,12182,1,0,0:0:0:0:
28,140,12268,1,2,0:0:0:0:
31,142,12354,1,0,0:0:0:0:
34,144,12439,6,0,P|50:104|65:48,1,90,6|0,0:0|0:0,0:0:0:0:
203,26,12782,1,2,1:2:0:0:
162,164,12954,1,0,0:0:0:0:
63,59,13125,1,2,0:0:0:0:
245,111,13297,1,0,0:0:0:0:
270,118,13382,1,0,0:0:0:0:
295,126,13468,1,2,1:2:0:0:
159,247,13639,1,0,0:0:0:0:
159,247,13811,5,2,0:0:0:0:
353,294,13982,1,0,0:0:0:0:
374,287,14068,1,0,0:0:0:0:
395,280,14154,1,2,1:2:0:0:
213,347,14325,2,0,P|170:333|126:324,1,90,0|2,0:0|0:0,0:0:0:0:
44,320,14582,1,0,0:0:0:0:
44,320,14668,2,0,P|20:323|1:330,2,45,0|0|2,0:0|0:0|1:2,0:0:0:0:
271,289,15011,1,0,0:0:0:0:
111,173,15182,6,0,P|123:124|130:80,1,90,6|0,0:0|0:0,0:0:0:0:
134,49,15439,1,0,0:0:0:0:
134,49,15525,1,2,1:2:0:0:
30,228,15697,1,0,0:0:0:0:
295,174,15868,1,2,0:0:0:0:
127,296,16039,1,0,0:0:0:0:
125,274,16125,1,0,0:0:0:0:
123,251,16211,1,2,1:2:0:0:
216,110,16382,2,0,L|212:134,3,22.5
208,155,16554,5,2,3:2:0:0:
134,49,16725,1,2,3:2:0:0:
111,173,16897,1,2,3:2:0:0:
412,263,17239,5,2,0:0:0:0:
407,293,17325,1,0,0:0:0:0:
391,320,17411,1,0,0:0:0:0:
365,338,17497,1,0,0:0:0:0:
335,344,17582,2,0,L|276:330,1,45,2|0,0:0|0:0,0:0:0:0:
193,297,17754,2,0,L|147:302,1,45
47,312,17925,5,6,1:2:0:0:
115,129,18097,1,0,0:0:0:0:
113,151,18182,1,0,0:0:0:0:
111,173,18268,1,2,1:2:0:0:
68,31,18439,1,0,0:0:0:0:
212,73,18611,1,2,1:2:0:0:
31,165,18782,1,0,0:0:0:0:
240,177,18954,1,2,1:2:0:0:
103,254,19125,1,0,0:0:0:0:
274,276,19297,6,0,L|364:265,1,90,6|0,0:0|0:0,0:0:0:0:
435,289,19554,1,0,0:0:0:0:
435,289,19639,2,0,L|475:317,1,45,2|0,0:0|0:0,0:0:0:0:
360,188,19811,2,0,P|359:142|372:90,1,90,2|0,3:2|0:0,0:0:0:0:
387,58,20068,1,0,0:0:0:0:
387,58,20154,1,2,0:0:0:0:
387,58,20239,1,0,0:0:0:0:
387,58,20325,1,2,3:2:0:0:
455,141,20497,1,0,0:0:0:0:
277,98,20668,5,6,1:2:0:0:
274,276,20839,1,0,0:0:0:0:
282,250,20925,1,0,0:0:0:0:
290,224,21011,1,2,1:2:0:0:
238,379,21182,1,0,0:0:0:0:
103,254,21354,1,2,1:2:0:0:
30,303,21525,1,0,0:0:0:0:
191,248,21697,1,2,1:2:0:0:
139,123,21868,1,0,0:0:0:0:
29,200,22039,5,6,0:0:0:0:
118,43,22211,1,0,0:0:0:0:
149,41,22297,1,0,0:0:0:0:
178,51,22382,1,2,3:2:0:0:
202,72,22468,1,0,0:0:0:0:
216,100,22554,1,0,0:0:0:0:
220,131,22639,1,0,0:0:0:0:
212,161,22725,1,2,3:2:0:0:
207,191,22811,1,0,0:0:0:0:
213,221,22897,1,0,0:0:0:0:
233,244,22982,1,2,0:0:0:0:
265,261,23068,5,2,3:2:0:0:
430,156,23239,1,6,3:2:0:0:
362,357,23411,5,2,1:2:0:0:
290,184,23582,1,0,0:0:0:0:
290,184,23668,1,0,0:0:0:0:
290,184,23754,1,2,1:2:0:0:
430,156,23925,1,0,0:0:0:0:
265,261,24097,1,2,1:2:0:0:
313,105,24268,1,0,0:0:0:0:
209,199,24439,1,2,1:2:0:0:
345,245,24611,1,0,0:0:0:0:
233,122,24782,6,0,P|236:73|237:31,1,90,6|0,0:0|0:0,0:0:0:0:
224,36,25039,1,0,0:0:0:0:
211,40,25125,1,2,0:0:0:0:
198,44,25211,1,0,0:0:0:0:
185,48,25297,1,2,3:2:0:0:
0,140,25468,1,0,0:0:0:0:
13,144,25554,1,0,0:0:0:0:
26,148,25639,1,2,0:0:0:0:
39,152,25725,1,0,0:0:0:0:
51,156,25811,1,2,3:2:0:0:
209,199,25982,1,0,0:0:0:0:
224,36,26154,5,6,1:2:0:0:
313,105,26325,1,0,0:0:0:0:
313,105,26411,1,0,0:0:0:0:
313,105,26497,1,2,1:2:0:0:
149,121,26668,1,0,0:0:0:0:
189,296,26839,1,2,1:2:0:0:
209,199,27011,1,0,0:0:0:0:
105,349,27182,1,2,1:2:0:0:
282,265,27354,1,0,0:0:0:0:
106,257,27525,5,6,0:0:0:0:
281,355,27697,1,0,0:0:0:0:
289,353,27782,1,0,0:0:0:0:
298,351,27868,1,2,0:0:0:0:
307,349,27954,1,0,0:0:0:0:
316,347,28039,1,2,0:0:0:0:
325,346,28125,1,0,0:0:0:0:
334,345,28211,6,0,B|378:358|378:358|424:340|424:340|477:350,1,135,2|2,0:0|0:0,0:0:0:0:
510,270,28554,2,0,P|509:241|506:226,1,45,2|0,0:0|0:0,0:0:0:0:
458,148,28725,2,0,P|458:123|461:102,1,45,2|0,0:0|0:0,0:0:0:0:
473,12,28897,5,2,3:2:0:0:
473,12,29239,1,2,3:2:0:0:
301,65,29582,1,2,3:2:0:0:
302,87,29668,1,0,1:0:0:0:
304,109,29754,1,0,1:0:0:0:
306,132,29839,1,0,1:0:0:0:
308,154,29925,1,0,1:2:0:0:
202,358,30097,6,0,B|197:312|197:312|225:266|225:266|221:227,1,135,6|0,0:0|0:0,0:0:0:0:
209,142,30439,2,0,L|204:106,3,30,0|0|0|2,0:0|0:0|0:0|0:0,0:0:0:0:
58,129,30782,1,0,0:0:0:0:
35,132,30868,1,0,0:0:0:0:
12,136,30954,1,2,0:0:0:0:
173,22,31125,1,0,0:0:0:0:
254,211,31297,2,0,P|268:231|290:245,1,45,2|0,0:0|0:0,0:0:0:0:
380,272,31468,2,0,P|408:274|430:267,1,45,2|0,0:0|0:0,0:0:0:0:
512,224,31639,5,2,3:2:0:0:
512,224,31982,1,2,3:2:0:0:
202,358,32325,2,0,L|113:342,1,90,2|0,3:2|1:0,0:0:0:0:
34,322,32582,1,0,1:0:0:0:
20,319,32668,1,0,1:0:0:0:
276,291,32839,6,0,P|323:244|320:171,1,135,6|0,0:0|0:0,0:0:0:0:
289,95,33182,6,0,L|277:64,2,30
320,90,33354,5,2,0:0:0:0:
352,86,33439,1,0,0:0:0:0:
383,81,33525,1,0,0:0:0:0:
414,77,33611,1,0,0:0:0:0:
445,72,33697,1,2,0:0:0:0:
378,210,33868,1,2,0:0:0:0:
276,291,34039,2,0,L|235:269,1,45,2|0,3:2|0:0,0:0:0:0:
181,328,34211,2,0,P|162:337|139:343,1,45
370,287,34382,6,0,P|439:293|502:314,1,135,2|0,3:2|0:0,0:0:0:0:
501,313,34725,1,2,3:2:0:0:
276,291,34897,1,0,0:0:0:0:
328,370,35068,1,2,3:2:0:0:
370,287,35239,1,2,3:2:0:0:
370,287,35411,1,0,0:0:0:0:
155,234,35582,6,0,P|90:205|26:192,1,135,6|0,0:0|0:0,0:0:0:0:
22,290,35925,2,0,L|75:277,1,45
175,337,36097,2,0,L|226:343,1,45,2|0,0:0|0:0,0:0:0:0:
350,333,36268,1,0,0:0:0:0:
371,326,36354,1,0,0:0:0:0:
392,320,36439,1,2,3:2:0:0:
502,257,36611,1,2,0:0:0:0:
266,209,36782,1,2,3:2:0:0:
269,200,36868,1,0,0:0:0:0:
272,191,36954,1,0,0:0:0:0:
275,182,37039,1,0,0:0:0:0:
278,173,37125,5,2,3:2:0:0:
281,164,37468,2,0,P|325:169|374:172,1,90,2|0,3:2|0:0,0:0:0:0:
202,258,37811,2,0,P|156:260|111:266,1,90,2|2,3:2|3:2,0:0:0:0:
23,282,38154,1,0,0:0:0:0:
102,113,38325,6,0,P|185:107|278:83,1,180,6|0,0:0|0:0,0:0:0:0:
312,68,38754,1,0,0:0:0:0:
347,65,38839,1,2,0:0:0:0:
380,79,38925,1,0,0:0:0:0:
402,106,39011,1,0,0:0:0:0:
409,141,39097,1,0,0:0:0:0:
400,176,39182,1,2,0:0:0:0:
373,200,39268,1,0,0:0:0:0:
346,223,39354,1,2,0:0:0:0:
333,256,39439,1,0,0:0:0:0:
337,292,39525,1,2,1:2:0:0:
357,321,39611,1,0,1:2:0:0:
389,336,39697,1,0,1:2:0:0:
426,338,39782,1,0,1:2:0:0:
460,326,39868,6,0,P|483:284|475:241,1,90,6|0,0:0|0:0,0:0:0:0:
331,140,40211,2,0,L|239:145,1,90,2|0,1:2|0:0,0:0:0:0:
30,243,40554,1,2,0:0:0:0:
53,255,40639,1,0,0:0:0:0:
76,267,40725,2,0,L|123:265,1,45
217,260,40897,1,2,1:2:0:0:
389,336,41068,2,0,P|357:311|308:300,1,90,0|2,0:0|0:0,0:0:0:0:
100,342,41411,5,0,0:0:0:0:
100,342,41497,1,0,0:0:0:0:
100,342,41582,2,0,L|151:346,1,45,2|0,1:2|0:0,0:0:0:0:
217,260,41754,2,0,L|277:250,1,45
381,166,41925,2,0,L|293:150,1,90,2|0,0:0|0:0,0:0:0:0:
2,212,42268,1,2,1:2:0:0:
10,227,42354,1,0,0:0:0:0:
18,242,42439,1,0,0:0:0:0:
28,256,42525,1,0,0:0:0:0:
38,271,42611,6,0,P|84:264|124:239,1,90,6|0,0:0|0:0,0:0:0:0:
160,98,42954,1,2,1:2:0:0:
291,159,43125,2,0,L|390:167,1,90,0|2,0:0|0:0,0:0:0:0:
407,160,43382,1,0,0:0:0:0:
433,153,43468,1,0,0:0:0:0:
459,147,43554,1,0,0:0:0:0:
485,141,43639,1,2,1:2:0:0:
311,300,43811,2,0,L|221:292,1,90,0|2,0:0|0:0,0:0:0:0:
21,363,44154,5,0,0:0:0:0:
52,359,44239,1,0,0:0:0:0:
83,355,44325,1,2,1:2:0:0:
114,351,44411,1,0,0:0:0:0:
146,348,44497,1,0,0:0:0:0:
177,345,44582,1,0,0:0:0:0:
208,342,44668,2,0,P|172:312|130:295,1,90,2|0,0:0|0:0,0:0:0:0:
13,242,45011,2,0,L|23:293,1,45,2|0,1:2|0:0,0:0:0:0:
77,176,45182,2,0,L|92:122,1,45
169,90,45354,6,0,B|231:129|297:70|345:100,1,180,6|2,0:0|1:2,0:0:0:0:
371,115,45782,1,0,0:0:0:0:
393,136,45868,1,0,0:0:0:0:
404,165,45954,1,0,0:0:0:0:
401,196,46039,1,2,0:0:0:0:
384,223,46125,1,0,0:0:0:0:
360,244,46211,1,0,0:0:0:0:
383,265,46297,1,0,0:0:0:0:
394,294,46382,1,2,1:2:0:0:
393,326,46468,1,0,0:0:0:0:
379,354,46554,2,0,L|279:344,1,90,0|2,0:0|0:0,0:0:0:0:
13,242,46897,5,0,0:0:0:0:
30,205,46982,1,0,0:0:0:0:
57,176,47068,1,2,1:2:0:0:
93,159,47154,1,0,0:0:0:0:
133,153,47239,1,0,0:0:0:0:
173,162,47325,1,0,0:0:0:0:
205,187,47411,2,0,P|208:136|215:95,1,90,2|0,0:0|0:0,0:0:0:0:
324,256,47754,1,2,1:2:0:0:
357,281,47839,1,0,0:0:0:0:
394,294,47925,1,0,0:0:0:0:
434,292,48011,1,0,0:0:0:0:
472,278,48097,5,6,0:0:0:0:
203,384,48268,1,0,0:0:0:0:
208,357,48354,1,0,0:0:0:0:
212,330,48439,1,2,1:2:0:0:
217,302,48525,1,0,0:0:0:0:
245,288,48611,5,0,0:0:0:0:
240,261,48697,1,0,0:0:0:0:
236,234,48782,1,2,0:0:0:0:
231,206,48868,1,0,0:0:0:0:
205,187,48954,5,0,0:0:0:0:
210,160,49039,1,0,0:0:0:0:
214,133,49125,1,2,1:2:0:0:
219,105,49211,1,0,0:0:0:0:
223,77,49297,2,0,L|268:109,1,53.9999983520508,2|0,1:2|0:0,0:0:0:0:
365,152,49468,6,0,L|411:146,1,26.9999991760254,2|0,3:2|0:0,0:0:0:0:
124,117,49725,2,0,L|94:112,1,26.9999991760254,2|0,3:2|0:0,0:0:0:0:
369,66,49982,2,0,L|408:58,1,26.9999991760254,2|0,3:2|0:0,0:0:0:0:
132,205,50325,6,0,P|72:193|20:187,1,112.5,2|0,3:2|0:0,0:0:0:0:
21,187,50839,5,6,0:0:0:0:
124,117,51011,2,0,P|140:81|149:49,1,72
223,77,51354,1,0,0:0:0:0:
72,17,51525,1,8,0:0:0:0:
223,77,51697,2,0,L|300:71,1,72
410,110,52039,1,2,0:0:0:0:
270,223,52211,6,0,P|248:194|238:161,1,72
170,235,52468,2,0,L|95:230,1,72
62,308,52725,2,0,P|26:317|-4:341,1,72,0|8,0:0|0:0,0:0:0:0:
21,187,53068,1,0,0:0:0:0:
158,328,53239,1,2,0:0:0:0:
170,235,53411,1,0,0:0:0:0:
62,308,53582,6,0,L|54:381,1,72,2|0,0:0|0:0,0:0:0:0:
227,347,53925,2,0,P|194:336|154:327,1,72
316,288,54268,2,0,P|349:299|389:308,1,72,8|0,0:0|0:0,0:0:0:0:
472,243,54611,1,0,0:0:0:0:
374,197,54782,1,2,0:0:0:0:
310,258,54954,5,0,0:0:0:0:
368,167,55125,1,0,0:0:0:0:
466,213,55297,1,2,0:0:0:0:
362,136,55468,1,0,0:0:0:0:
436,81,55639,1,8,0:0:0:0:
282,178,55811,1,0,1:2:0:0:
271,176,55897,1,0,1:2:0:0:
260,174,55982,1,2,1:2:0:0:
249,173,56068,1,0,1:2:0:0:
239,171,56154,1,0,1:2:0:0:
228,170,56239,1,0,1:2:0:0:
217,168,56325,5,2,0:0:0:0:
362,136,56497,1,0,0:0:0:0:
188,248,56668,2,0,L|113:235,1,72
31,220,57011,1,8,0:0:0:0:
135,149,57182,2,0,L|135:74,1,72
217,168,57525,1,2,0:0:0:0:
31,220,57697,5,0,0:0:0:0:
156,327,57868,1,0,0:0:0:0:
31,220,58039,2,0,P|35:180|37:149,1,72
193,87,58382,1,8,0:0:0:0:
135,149,58554,1,0,0:0:0:0:
217,168,58725,1,2,0:0:0:0:
31,220,58897,1,0,0:0:0:0:
156,327,59068,5,2,0:0:0:0:
165,339,59582,2,0,L|92:334,1,72,0|8,0:0|0:0,0:0:0:0:
369,277,60097,5,0,0:0:0:0:
372,261,60268,1,0,0:0:0:0:
217,168,60439,1,2,0:0:0:0:
193,88,60611,6,0,L|186:67,2,22.5,2|2|2,0:0|0:0|0:0,0:0:0:0:
248,246,60782,1,2,0:0:0:0:
384,180,60954,1,0,1:0:0:0:
384,180,61297,1,2,0:0:0:0:
384,180,61382,1,2,0:0:0:0:
384,180,61468,2,0,L|330:188,1,45,2|0,1:2|0:0,0:0:0:0:
467,133,61639,2,0,L|511:141,1,45
353,90,61811,6,0,P|283:65|228:41,1,135,6|0,0:0|0:0,0:0:0:0:
227,40,62154,1,2,1:2:0:0:
127,116,62325,1,0,0:0:0:0:
248,246,62497,1,2,0:0:0:0:
275,269,62582,1,0,0:0:0:0:
310,283,62668,1,0,0:0:0:0:
345,284,62754,1,0,0:0:0:0:
378,276,62839,2,0,P|421:265|465:256,1,90,2|0,1:2|0:0,0:0:0:0:
217,354,63182,6,0,P|174:342|130:334,1,90,2|0,0:0|0:0,0:0:0:0:
93,336,63439,1,0,0:0:0:0:
57,339,63525,1,2,1:2:0:0:
25,324,63611,1,0,0:0:0:0:
5,294,63697,1,0,0:0:0:0:
3,259,63782,1,0,0:0:0:0:
19,227,63868,1,2,0:0:0:0:
42,200,63954,1,0,0:0:0:0:
52,166,64039,1,0,0:0:0:0:
41,131,64125,1,0,0:0:0:0:
14,106,64211,1,2,1:2:0:0:
165,204,64382,1,0,0:0:0:0:
14,106,64554,6,0,L|108:96,1,90,6|0,0:0|0:0,0:0:0:0:
171,61,64811,1,0,0:0:0:0:
171,61,64897,1,2,1:2:0:0:
19,227,65068,1,0,0:0:0:0:
181,296,65239,2,0,P|222:278|250:243,1,90,2|0,0:0|0:0,0:0:0:0:
274,169,65497,1,0,0:0:0:0:
274,169,65582,1,2,1:2:0:0:
171,61,65754,1,0,0:0:0:0:
19,227,65925,6,0,L|33:322,1,90,2|0,0:0|0:0,0:0:0:0:
42,350,66182,1,0,0:0:0:0:
73,369,66268,1,2,1:2:0:0:
108,373,66354,1,0,0:0:0:0:
142,363,66439,1,0,0:0:0:0:
169,339,66525,1,0,0:0:0:0:
198,317,66611,1,2,0:0:0:0:
222,290,66697,1,0,0:0:0:0:
254,275,66782,1,0,0:0:0:0:
290,272,66868,1,2,0:0:0:0:
324,283,66954,1,2,1:2:0:0:
482,350,67125,1,2,0:0:0:0:
353,305,67297,6,0,B|358:166,1,135,6|0,0:0|0:0,0:0:0:0:
360,125,67639,1,2,1:2:0:0:
467,219,67811,1,0,0:0:0:0:
270,172,67982,1,2,0:0:0:0:
243,136,68068,1,0,0:0:0:0:
234,92,68154,1,0,0:0:0:0:
245,49,68239,1,0,0:0:0:0:
274,15,68325,2,0,L|176:22,1,90,2|0,1:2|0:0,0:0:0:0:
0,139,68668,6,0,P|46:148|86:176,1,90,2|0,0:0|0:0,0:0:0:0:
112,203,68925,1,0,0:0:0:0:
130,244,69011,1,2,1:2:0:0:
126,288,69097,1,0,0:0:0:0:
101,325,69182,1,0,0:0:0:0:
61,345,69268,1,0,0:0:0:0:
17,342,69354,6,0,P|25:318|38:301,1,45,2|0,0:0|0:0,0:0:0:0:
112,203,69525,2,0,L|108:153,1,45
99,46,69697,1,2,1:2:0:0:
99,46,69868,1,0,0:0:0:0:
243,136,70039,6,0,L|337:127,1,90,6|0,0:0|0:0,0:0:0:0:
416,104,70297,1,0,0:0:0:0:
431,96,70382,1,0,0:0:0:0:
264,246,70554,1,2,3:2:0:0:
264,246,70639,1,0,0:0:0:0:
264,246,70725,2,0,L|219:236,1,45
112,203,70897,1,0,0:0:0:0:
99,46,71068,1,6,0:0:0:0:
99,46,71154,1,0,0:0:0:0:
99,46,71239,2,0,L|102:94,1,45
112,203,71411,1,0,0:0:0:0:
0,308,71582,6,0,L|34:279,1,45,2|0,3:2|0:0,0:0:0:0:
112,203,71754,1,0,0:0:0:0:
112,203,71839,1,0,0:0:0:0:
112,203,71925,1,0,0:0:0:0:
112,203,72011,1,0,0:0:0:0:
112,203,72097,1,2,0:0:0:0:
9,167,72268,1,2,0:0:0:0:
264,246,72439,2,0,L|399:228,1,135,6|0,0:0|0:0,0:0:0:0:
466,159,72782,6,0,P|455:112|448:67,1,90,6|0,0:0|0:0,0:0:0:0:
238,138,73125,1,2,0:0:0:0:
264,246,73297,1,0,0:0:0:0:
375,150,73468,1,2,0:0:0:0:
252,104,73639,1,0,0:0:0:0:
122,119,73811,1,2,0:0:0:0:
23,204,73982,1,0,0:0:0:0:
115,88,74154,5,2,0:0:0:0:
80,265,74325,1,0,0:0:0:0:
76,282,74411,1,0,0:0:0:0:
72,299,74497,1,2,0:0:0:0:
264,246,74668,1,0,0:0:0:0:
23,204,74839,1,2,0:0:0:0:
122,119,75011,1,0,0:0:0:0:
252,104,75182,1,2,0:0:0:0:
375,150,75354,1,0,0:0:0:0:
188,295,75525,6,0,L|183:201,1,90,2|0,0:0|0:0,0:0:0:0:
80,265,75868,1,2,0:0:0:0:
261,346,76039,2,0,L|351:330,1,90,0|2,0:0|0:0,0:0:0:0:
482,305,76382,1,0,0:0:0:0:
324,212,76554,1,2,0:0:0:0:
349,330,76725,1,0,0:0:0:0:
452,182,76897,5,2,0:0:0:0:
458,146,76982,1,0,0:0:0:0:
449,112,77068,1,0,0:0:0:0:
427,84,77154,1,0,0:0:0:0:
395,68,77239,1,2,0:0:0:0:
359,66,77325,1,0,0:0:0:0:
326,79,77411,1,0,0:0:0:0:
297,99,77497,1,0,0:0:0:0:
262,107,77582,1,2,0:0:0:0:
226,102,77668,1,0,0:0:0:0:
196,83,77754,1,0,0:0:0:0:
174,55,77839,1,0,0:0:0:0:
142,38,77925,1,2,0:0:0:0:
105,35,78011,1,0,0:0:0:0:
71,48,78097,1,0,0:0:0:0:
45,72,78182,1,0,0:0:0:0:
31,105,78268,6,0,P|25:146|49:189,1,90,6|0,0:0|0:0,0:0:0:0:
174,302,78611,2,0,L|81:311,1,90,10|0,0:0|0:0,0:0:0:0:
321,371,78954,2,0,P|340:333|344:283,1,90,2|0,0:0|0:0,0:0:0:0:
328,160,79297,1,10,0:0:0:0:
176,217,79468,1,0,0:0:0:0:
344,286,79639,5,2,0:0:0:0:
321,371,79811,1,0,0:0:0:0:
448,328,79982,1,10,0:0:0:0:
260,307,80154,1,0,0:0:0:0:
411,193,80325,2,0,P|416:144|401:106,1,90,2|0,0:0|0:0,0:0:0:0:
166,131,80668,2,0,P|161:180|176:218,1,90,10|0,0:0|0:0,0:0:0:0:
260,307,81011,5,2,0:0:0:0:
411,193,81182,1,0,0:0:0:0:
302,206,81354,1,10,0:0:0:0:
490,275,81525,1,0,0:0:0:0:
260,307,81697,2,0,L|169:295,1,90,2|0,0:0|0:0,0:0:0:0:
64,279,82039,1,10,0:0:0:0:
204,173,82211,1,2,3:2:0:0:
208,159,82554,5,2,3:2:0:0:
170,295,82725,1,2,0:0:0:0:
302,206,82897,1,2,0:0:0:0:
260,307,83068,1,8,0:0:0:0:
69,301,83239,2,0,L|63:273,3,22.5,0|0|0|0,3:0|3:0|3:0|3:0,0:0:0:0:
14,192,83411,2,0,P|15:170|24:143,3,45,0|0|0|0,1:0|1:0|1:0|1:0,0:0:0:0:
14,192,83754,6,0,L|124:199,1,107.999996704102,6|0,0:0|0:0,0:0:0:0:
302,206,84097,1,2,1:2:0:0:
170,295,84268,1,0,0:0:0:0:
208,159,84439,1,2,0:0:0:0:
281,359,84611,1,0,0:0:0:0:
271,333,84697,1,0,0:0:0:0:
260,307,84782,1,2,1:2:0:0:
302,206,84954,1,0,0:0:0:0:
170,295,85125,5,2,0:0:0:0:
299,101,85297,2,0,L|321:59,2,45,0|0|2,0:0|0:0|1:2,0:0:0:0:
156,79,85639,1,0,0:0:0:0:
302,206,85811,2,0,L|393:197,1,90,2|0,0:0|0:0,0:0:0:0:
427,193,86068,1,0,0:0:0:0:
427,193,86154,1,2,1:2:0:0:
260,307,86325,1,0,0:0:0:0:
384,121,86497,6,0,P|382:76|357:36,1,90,6|0,0:0|0:0,0:0:0:0:
328,19,86754,1,0,0:0:0:0:
328,19,86839,1,2,1:2:0:0:
156,79,87011,1,0,0:0:0:0:
299,101,87182,1,2,0:0:0:0:
140,233,87354,1,0,0:0:0:0:
135,206,87439,1,0,0:0:0:0:
131,179,87525,1,2,1:2:0:0:
302,206,87697,2,0,L|276:201,3,22.5
257,198,87868,5,2,3:2:0:0:
384,121,88039,1,2,3:2:0:0:
156,79,88211,1,2,3:2:0:0:
463,120,88554,6,0,P|459:144|448:170,1,45,2|0,0:0|0:0,0:0:0:0:
392,304,88725,2,0,P|385:280|376:258,1,45
257,198,88897,2,0,P|253:222|242:248,1,45,2|0,0:0|0:0,0:0:0:0:
125,318,89068,2,0,P|101:309|78:303,1,45,0|0,0:0|0:0,0:0:0:0:
10,221,89239,6,0,L|108:209,1,90,6|0,0:0|0:0,0:0:0:0:
135,206,89497,1,0,0:0:0:0:
135,206,89582,1,2,1:2:0:0:
0,130,89754,1,0,0:0:0:0:
125,318,89925,1,2,0:0:0:0:
153,352,90011,1,0,0:0:0:0:
194,370,90097,1,0,0:0:0:0:
238,368,90182,1,0,0:0:0:0:
283,362,90268,2,0,P|325:352|373:345,1,90,2|0,1:2|0:0,0:0:0:0:
478,209,90611,6,0,L|462:112,1,90,2|0,0:0|0:0,0:0:0:0:
467,112,90868,1,0,0:0:0:0:
469,103,90954,1,2,1:2:0:0:
471,94,91039,1,0,0:0:0:0:
473,85,91125,1,0,0:0:0:0:
475,77,91211,1,0,0:0:0:0:
477,68,91297,2,0,L|428:56,1,45,2|0,0:0|0:0,0:0:0:0:
294,164,91468,2,0,L|337:174,1,45
478,209,91639,2,0,P|442:235|397:248,1,90,2|0,1:2|0:0,0:0:0:0:
57,353,91982,6,0,P|90:325|132:307,1,90,6|0,0:0|0:0,0:0:0:0:
216,287,92239,1,0,0:0:0:0:
239,281,92325,1,2,1:2:0:0:
87,208,92497,1,0,0:0:0:0:
289,353,92668,2,0,P|333:367|389:368,1,90,2|0,0:0|0:0,0:0:0:0:
460,349,92925,1,0,0:0:0:0:
483,343,93011,1,2,1:2:0:0:
336,238,93182,1,0,0:0:0:0:
216,287,93354,6,0,L|222:194,1,90,6|0,0:0|0:0,0:0:0:0:
238,176,93611,1,0,0:0:0:0:
236,149,93697,1,2,1:2:0:0:
235,122,93782,1,0,0:0:0:0:
234,95,93868,1,0,0:0:0:0:
233,68,93954,1,0,0:0:0:0:
231,41,94039,2,0,L|188:29,1,45,2|0,0:0|0:0,0:0:0:0:
321,51,94211,2,0,L|366:41,1,45,0|2,0:0|0:0,0:0:0:0:
148,119,94382,2,0,L|54:98,1,90,2|2,1:2|0:0,0:0:0:0:
336,238,94725,6,0,P|382:234|426:214,1,90,6|0,0:0|0:0,0:0:0:0:
451,195,94982,1,0,0:0:0:0:
451,195,95068,1,2,1:2:0:0:
309,133,95239,1,0,0:0:0:0:
161,209,95411,1,2,0:0:0:0:
118,195,95497,1,0,0:0:0:0:
73,199,95582,1,0,0:0:0:0:
34,220,95668,1,0,0:0:0:0:
12,259,95754,2,0,P|19:207|21:164,1,90,2|0,1:2|0:0,0:0:0:0:
196,48,96097,6,0,P|225:87|232:129,1,90,2|0,0:0|0:0,0:0:0:0:
220,170,96354,1,0,0:0:0:0:
200,209,96439,1,2,1:2:0:0:
203,254,96525,1,0,0:0:0:0:
228,290,96611,1,0,0:0:0:0:
270,307,96697,1,0,0:0:0:0:
314,306,96782,2,0,L|360:300,1,45,2|0,0:0|0:0,0:0:0:0:
481,362,96954,2,0,L|432:348,1,45
286,225,97125,2,0,L|377:213,1,90,2|0,1:2|0:0,0:0:0:0:
101,272,97468,6,0,L|11:259,1,90,6|0,0:0|0:0,0:0:0:0:
11,259,97725,1,0,0:0:0:0:
11,259,97811,1,0,0:0:0:0:
220,170,97982,1,2,3:2:0:0:
257,144,98068,1,0,0:0:0:0:
302,141,98154,2,0,L|353:149,1,45
473,129,98325,1,0,0:0:0:0:
352,279,98497,1,6,0:0:0:0:
315,305,98582,1,0,0:0:0:0:
269,307,98668,2,0,L|218:298,1,45
101,272,98839,1,0,0:0:0:0:
220,170,99011,5,2,3:2:0:0:
257,144,99097,1,0,0:0:0:0:
274,103,99182,1,0,0:0:0:0:
271,57,99268,1,0,0:0:0:0:
242,22,99354,2,0,L|189:19,1,45,2|0,0:0|0:0,0:0:0:0:
101,10,99525,1,2,0:0:0:0:
101,10,99697,1,2,0:0:0:0:
23,148,99868,2,0,P|24:172|33:205,3,45,2|0|0|0,0:0|0:0|0:0|0:0,0:0:0:0:
103,249,100211,6,0,L|100:281,7,22.5,2|2|2|2|2|2|2|2,0:0|0:0|0:0|0:0|0:0|0:0|0:0|0:0,0:0:0:0:
29,271,100554,6,0,P|53:327|102:344,1,116.999994644165,14|0,0:0|0:0,0:0:0:0:
417,317,100897,1,2,0:0:0:0:
374,301,100982,1,0,0:0:0:0:
331,304,101068,1,0,0:0:0:0:
289,324,101154,1,0,0:0:0:0:
262,359,101239,2,0,P|266:307|265:266,1,90,10|0,0:0|0:0,0:0:0:0:
23,148,101582,6,0,P|67:146|107:123,1,90,2|0,0:0|0:0,0:0:0:0:
139,93,101839,1,0,0:0:0:0:
173,64,101925,1,10,0:0:0:0:
215,50,102011,1,0,0:0:0:0:
260,53,102097,1,0,0:0:0:0:
300,72,102182,1,0,0:0:0:0:
330,106,102268,1,2,0:0:0:0:
360,138,102354,1,0,0:0:0:0:
403,152,102439,1,0,0:0:0:0:
446,144,102525,1,0,0:0:0:0:
482,116,102611,1,10,0:0:0:0:
374,301,102782,1,0,0:0:0:0:
227,225,102954,6,0,P|234:177|232:132,1,90,6|0,0:0|0:0,0:0:0:0:
215,50,103211,1,0,0:0:0:0:
209,32,103297,1,10,0:0:0:0:
328,189,103468,1,0,0:0:0:0:
204,303,103639,2,0,P|158:294|110:287,1,90,2|0,0:0|0:0,0:0:0:0:
34,256,103897,1,0,0:0:0:0:
16,257,103982,1,10,0:0:0:0:
227,225,104154,1,0,0:0:0:0:
374,301,104325,6,0,P|415:285|470:275,1,90,2|0,0:0|0:0,0:0:0:0:
487,274,104582,1,0,0:0:0:0:
461,264,104668,1,10,0:0:0:0:
436,254,104754,1,0,0:0:0:0:
411,245,104839,1,0,0:0:0:0:
385,235,104925,1,0,0:0:0:0:
360,226,105011,2,0,L|309:231,1,45,2|0,0:0|0:0,0:0:0:0:
151,160,105182,2,0,L|195:155,1,45,0|2,0:0|0:0,0:0:0:0:
360,138,105354,2,0,P|347:87|340:47,1,90,10|2,0:0|0:0,0:0:0:0:
138,236,105697,6,0,L|228:225,1,90,6|0,0:0|0:0,0:0:0:0:
286,169,105954,1,0,0:0:0:0:
286,169,106039,1,10,0:0:0:0:
99,97,106211,1,0,0:0:0:0:
313,31,106382,1,2,0:0:0:0:
356,19,106468,1,0,0:0:0:0:
400,26,106554,1,0,0:0:0:0:
437,51,106639,1,0,0:0:0:0:
463,88,106725,2,0,L|373:102,1,90,10|0,0:0|0:0,0:0:0:0:
18,188,107068,6,0,P|65:225|145:235,1,135,2|0,0:0|0:0,0:0:0:0:
261,206,107411,2,0,P|279:185|289:162,1,45,10|0,0:0|0:0,0:0:0:0:
151,308,107582,2,0,P|138:323|127:352,1,45
182,148,107754,1,2,0:0:0:0:
191,108,107839,1,0,0:0:0:0:
187,68,107925,1,0,0:0:0:0:
169,32,108011,1,0,0:0:0:0:
137,7,108097,2,0,P|93:15|47:19,1,90,10|0,0:0|0:0,0:0:0:0:
271,124,108439,6,0,P|315:116|361:112,1,90,6|0,0:0|0:0,0:0:0:0:
396,116,108697,1,0,0:0:0:0:
396,116,108782,1,0,0:0:0:0:
150,234,108954,1,2,3:2:0:0:
118,209,109039,1,0,0:0:0:0:
100,173,109125,1,0,0:0:0:0:
96,133,109211,1,0,0:0:0:0:
105,93,109297,1,0,0:0:0:0:
423,269,109468,1,6,0:0:0:0:
393,243,109554,1,0,0:0:0:0:
354,229,109639,1,0,0:0:0:0:
314,228,109725,1,0,0:0:0:0:
277,244,109811,1,0,0:0:0:0:
1,351,109982,1,2,3:2:0:0:
39,365,110068,1,0,0:0:0:0:
80,363,110154,1,0,0:0:0:0:
118,349,110239,1,0,0:0:0:0:
147,322,110325,1,2,0:0:0:0:
160,279,110411,1,0,0:0:0:0:
150,234,110497,5,2,0:0:0:0:
62,270,110668,1,2,0:0:0:0:
219,183,110839,2,0,B|229:44,1,135,6|0,0:0|0:0,0:0:0:0:
232,12,111182,1,10,0:0:0:0:
316,117,111354,1,0,0:0:0:0:
150,234,111525,1,2,1:2:0:0:
112,134,111697,1,0,0:0:0:0:
277,244,111868,2,0,L|366:236,1,90,2|0,0:0|0:0,0:0:0:0:
482,256,112211,1,2,1:2:0:0:
329,106,112382,1,0,0:0:0:0:
435,155,112554,6,0,P|442:114|437:66,1,90,2|0,0:0|0:0,0:0:0:0:
423,32,112811,1,0,0:0:0:0:
423,32,112897,1,2,1:2:0:0:
247,117,113068,1,0,0:0:0:0:
366,236,113239,2,0,P|357:283|333:317,1,90,2|0,0:0|0:0,0:0:0:0:
90,354,113582,2,0,L|180:359,1,90,2|0,1:2|0:0,0:0:0:0:
277,244,113925,5,2,0:0:0:0:
156,269,114097,1,0,0:0:0:0:
333,316,114268,1,2,1:2:0:0:
177,180,114439,1,0,0:0:0:0:
366,236,114611,2,0,L|389:148,1,90,2|0,0:0|0:0,0:0:0:0:
247,117,114954,1,2,1:2:0:0:
370,58,115125,1,0,0:0:0:0:
177,180,115297,6,0,L|133:173,1,45,2|0,0:0|0:0,0:0:0:0:
52,154,115468,1,0,0:0:0:0:
247,117,115639,1,2,1:2:0:0:
156,269,115811,1,0,0:0:0:0:
167,97,115982,2,0,L|160:8,1,90,2|0,0:0|0:0,0:0:0:0:
304,177,116325,2,0,P|345:158|391:143,1,90,2|0,1:2|0:0,0:0:0:0:
511,169,116668,5,6,0:0:0:0:
370,58,116839,1,0,0:0:0:0:
410,220,117011,1,2,1:2:0:0:
511,169,117182,1,0,0:0:0:0:
311,267,117354,2,0,L|304:178,1,90,2|0,0:0|0:0,0:0:0:0:
370,58,117697,1,2,1:2:0:0:
167,97,117868,2,0,L|174:186,1,90,0|6,0:0|0:0,0:0:0:0:
108,306,118211,5,0,0:0:0:0:
226,250,118382,1,2,1:2:0:0:
59,208,118554,1,0,0:0:0:0:
198,344,118725,1,2,0:0:0:0:
311,267,118897,1,0,0:0:0:0:
108,306,119068,2,0,L|17:297,1,90,2|0,1:2|0:0,0:0:0:0:
226,250,119411,6,0,L|225:237,1,11.25,6|0,0:0|0:0,0:0:0:0:
305,186,119582,2,0,L|308:176,1,11.25,2|0,0:0|0:0,0:0:0:0:
402,172,119754,2,0,L|411:167,1,11.25,2|0,0:0|0:0,0:0:0:0:
499,200,119925,2,0,L|510:200,1,11.25,2|0,0:0|0:0,0:0:0:0:
311,267,120097,5,2,0:0:0:0:
343,99,120268,1,2,0:0:0:0:
147,150,120439,1,2,0:0:0:0:
305,186,120611,1,2,0:0:0:0:
108,306,120782,5,2,3:2:0:0:
108,306,120868,2,0,L|65:291,1,45,0|0,0:0|0:0,0:0:0:0:
226,250,121039,1,2,3:2:0:0:
226,250,121125,2,0,L|229:205,1,45,0|0,0:0|0:0,0:0:0:0:
147,150,121297,2,0,L|138:284,1,135,2|0,3:2|0:0,0:0:0:0:
170,358,121639,2,0,L|219:348,1,45,10|0,0:0|0:0,0:0:0:0:
302,288,121811,2,0,L|352:291,1,45
452,264,121982,2,0,L|497:279,1,45
