osu file format v13

[General]
AudioFilename: Memme - China Dress.mp3
AudioLeadIn: 2000
PreviewTime: 61744
Countdown: 0
SampleSet: Soft
StackLeniency: 0.7
Mode: 3
LetterboxInBreaks: 0
SpecialStyle: 0
WidescreenStoryboard: 1

[Editor]
Bookmarks: 12287,17858,28830,39801,50772,61744,72715,83687,89172,100144,111115
DistanceSpacing: 1.5
BeatDivisor: 4
GridSize: 8
TimelineZoom: 1.9

[Metadata]
Title:China Dress
TitleUnicode:China Dress
Artist:Memme
ArtistUnicode:Memme
Creator:Tear
Version:7K Insane
Source:O2Jam U
Tags:shiro yoeri zexous odaril cheesiest priti oriental core
BeatmapID:364737
BeatmapSetID:137665

[Difficulty]
HPDrainRate:7
CircleSize:7
OverallDifficulty:7
ApproachRate:5
SliderMultiplier:1.4
SliderTickRate:1

[Events]
//Background and Video events
0,0,"china_dress.jpg",0,0
//Break Periods
//Storyboard Layer 0 (Background)
//Storyboard Layer 1 (Fail)
//Storyboard Layer 2 (Pass)
//Storyboard Layer 3 (Foreground)
//Storyboard Sound Samples
//Background Colour Transformations
3,100,163,162,255

[TimingPoints]
25,342.857142857143,4,2,1,100,1,0
1053,-50,4,2,1,100,0,0
1139,-149.253731343284,4,2,1,100,0,0
1396,-100,4,2,1,100,0,0
9625,-80,4,2,1,100,0,0
9710,-133.333333333333,4,2,1,100,0,0
9796,-80,4,2,1,100,0,0
9882,-133.333333333333,4,2,1,100,0,0
9967,-80,4,2,1,100,0,0
10053,-133.333333333333,4,2,1,100,0,0
10139,-80,4,2,1,100,0,0
10225,-133.333333333333,4,2,1,100,0,0
10310,-80,4,2,1,100,0,0
10396,-133.333333333333,4,2,1,100,0,0
10482,-80,4,2,1,100,0,0
10567,-133.333333333333,4,2,1,100,0,0
10653,-80,4,2,1,100,0,0
10739,-133.333333333333,4,2,1,100,0,0
10825,-80,4,2,1,100,0,0
10910,-133.333333333333,4,2,1,100,0,0
10996,-111.111111111111,4,2,1,100,0,0
12367,-100,4,2,1,100,0,0
16482,-75.187969924812,4,2,1,100,0,0
16567,-149.253731343284,4,2,1,100,0,0
16653,-75.187969924812,4,2,1,100,0,0
16739,-149.253731343284,4,2,1,100,0,0
16825,-66.6666666666667,4,2,1,100,0,0
16996,-200,4,2,1,100,0,0
17167,-111.111111111111,4,2,1,100,0,0
17853,-100,4,2,1,100,0,0
22996,-80,4,2,1,100,0,0
23082,-133.333333333333,4,2,1,100,0,0
23167,-80,4,2,1,100,0,0
23253,-133.333333333333,4,2,1,100,0,0
23339,-100,4,2,1,100,0,0
28825,-66.6666666666667,4,2,1,100,0,0
28996,-200,4,2,1,100,0,0
29167,-66.6666666666667,4,2,1,100,0,0
29339,-200,4,2,1,100,0,0
29510,-66.6666666666667,4,2,1,100,0,0
29682,-200,4,2,1,100,0,0
29853,-100,4,2,1,100,0,0
31567,-66.6666666666667,4,2,1,100,0,0
31739,-200,4,2,1,100,0,0
31910,-66.6666666666667,4,2,1,100,0,0
32082,-200,4,2,1,100,0,0
32253,-66.6666666666667,4,2,1,100,0,0
32425,-200,4,2,1,100,0,0
32596,-100,4,2,1,100,0,0
34310,-66.6666666666667,4,2,1,100,0,0
34482,-200,4,2,1,100,0,0
34653,-66.6666666666667,4,2,1,100,0,0
34825,-200,4,2,1,100,0,0
34996,-66.6666666666667,4,2,1,100,0,0
35082,-200,4,2,1,100,0,0
35167,-66.6666666666667,4,2,1,100,0,0
35253,-200,4,2,1,100,0,0
35339,-100,4,2,1,100,0,0
37053,-66.6666666666667,4,2,1,100,0,0
37225,-200,4,2,1,100,0,0
37396,-66.6666666666667,4,2,1,100,0,0
37567,-200,4,2,1,100,0,0
37739,-66.6666666666667,4,2,1,100,0,0
37825,-200,4,2,1,100,0,0
37910,-66.6666666666667,4,2,1,100,0,0
37996,-200,4,2,1,100,0,0
38082,-100,4,2,1,100,0,0
49396,-66.6666666666667,4,2,1,100,0,0
49525,-200,4,2,1,100,0,0
49653,-66.6666666666667,4,2,1,100,0,0
49782,-200,4,2,1,100,0,0
49910,-66.6666666666667,4,2,1,100,0,0
50082,-200,4,2,1,100,0,0
50253,-83.3333333333333,4,2,1,100,0,0
50767,-100,4,2,1,100,0,0
61739,-100,4,2,1,100,0,1
66882,-80,4,2,1,100,0,1
66967,-133.333333333333,4,2,1,100,0,1
67053,-80,4,2,1,100,0,1
67139,-133.333333333333,4,2,1,100,0,1
67225,-100,4,2,1,100,0,1
72025,-66.6666666666667,4,2,1,100,0,1
72110,-200,4,2,1,100,0,1
72196,-66.6666666666667,4,2,1,100,0,1
72282,-200,4,2,1,100,0,1
72367,-83.3333333333333,4,2,1,100,0,1
72710,-100,4,2,1,100,0,0
82139,-80,4,2,1,100,0,0
82310,-133.333333333333,4,2,1,100,0,0
82482,-80,4,2,1,100,0,0
82567,-133.333333333333,4,2,1,100,0,0
82653,-80,4,2,1,100,0,0
82739,-133.333333333333,4,2,1,100,0,0
82825,-80,4,2,1,100,0,0
82910,-133.333333333333,4,2,1,100,0,0
82996,-111.111111111111,4,2,1,100,0,0
83682,-100,4,2,1,100,0,0
87796,-75.187969924812,4,2,1,100,0,0
87882,-149.253731343284,4,2,1,100,0,0
87967,-75.187969924812,4,2,1,100,0,0
88053,-149.253731343284,4,2,1,100,0,0
88139,-66.6666666666667,4,2,1,100,0,0
88310,-200,4,2,1,100,0,0
88482,-100,4,2,1,100,0,0
89167,-100,4,2,1,100,0,1
94310,-80,4,2,1,100,0,1
94396,-133.333333333333,4,2,1,100,0,1
94482,-80,4,2,1,100,0,1
94567,-133.333333333333,4,2,1,100,0,1
94653,-100,4,2,1,100,0,1
99453,-75.187969924812,4,2,1,100,0,1
99539,-149.253731343284,4,2,1,100,0,1
99625,-75.187969924812,4,2,1,100,0,1
99710,-149.253731343284,4,2,1,100,0,1
99796,-111.111111111111,4,2,1,100,0,1
100139,-149.253731343284,4,2,1,100,0,0
100310,-59.8802395209581,4,2,1,100,0,0
100396,-100,4,2,1,100,0,0
100482,-100,4,2,1,100,0,1
105282,-80,4,2,1,100,0,1
105367,-133.333333333333,4,2,1,100,0,1
105453,-80,4,2,1,100,0,1
105539,-133.333333333333,4,2,1,100,0,1
105625,-100,4,2,1,100,0,1
110425,-75.187969924812,4,2,1,100,0,1
110510,-149.253731343284,4,2,1,100,0,1
110596,-75.187969924812,4,2,1,100,0,1
110682,-149.253731343284,4,2,1,100,0,1
110767,-80,4,2,1,100,0,1
111110,-100,4,2,1,100,0,0
119339,-80,4,2,1,100,0,0
119425,-133.333333333333,4,2,1,100,0,0
119510,-80,4,2,1,100,0,0
119596,-133.333333333333,4,2,1,100,0,0
119682,-80,4,2,1,100,0,0
119767,-133.333333333333,4,2,1,100,0,0
119853,-80,4,2,1,100,0,0
119939,-133.333333333333,4,2,1,100,0,0
120025,-80,4,2,1,100,0,0
120110,-133.333333333333,4,2,1,100,0,0
120196,-80,4,2,1,100,0,0
120282,-133.333333333333,4,2,1,100,0,0
120367,-80,4,2,1,100,0,0
120453,-133.333333333333,4,2,1,100,0,0
120539,-80,4,2,1,100,0,0
120625,-133.333333333333,4,2,1,100,0,0
120710,-66.6666666666667,4,2,1,100,0,0
120839,-200,4,2,1,100,0,0
120967,-66.6666666666667,4,2,1,100,0,0
121096,-200,4,2,1,100,0,0
121225,-66.6666666666667,4,2,1,100,0,0
121396,-200,4,2,1,100,0,0
121567,-80,4,2,1,100,0,0
122082,-200,4,2,1,100,0,0

[HitObjects]
109,192,710,5,0,0:0:0:0:
256,192,796,1,0,0:0:0:0:
402,192,882,1,0,0:0:0:0:
256,192,1053,128,0,1396:0:0:0:0:
36,192,1396,1,2,0:0:0:0:
329,192,1396,1,4,0:0:0:0:
475,192,1396,1,0,0:0:0:0:
182,192,1396,128,0,1910:0:0:0:0:
109,192,1567,1,0,0:0:0:0:
329,192,1739,1,2,0:0:0:0:
36,192,1910,1,2,0:0:0:0:
475,192,1910,1,0,0:0:0:0:
402,192,2082,1,0,0:0:0:0:
329,192,2253,1,0,0:0:0:0:
182,192,2253,1,2,0:0:0:0:
36,192,2425,1,0,0:0:0:0:
329,192,2596,128,0,3453:0:0:0:0:
256,192,2596,1,2,0:0:0:0:
475,192,2596,1,4,0:0:0:0:
36,192,2767,1,0,0:0:0:0:
109,192,2939,1,0,0:0:0:0:
182,192,3110,1,2,0:0:0:0:
402,192,3110,1,0,0:0:0:0:
256,192,3282,1,0,0:0:0:0:
109,192,3453,1,2,0:0:0:0:
475,192,3453,1,0,0:0:0:0:
402,192,3625,1,0,0:0:0:0:
329,192,3796,1,2,0:0:0:0:
256,192,3967,1,2,0:0:0:0:
109,192,4139,128,0,4653:0:0:0:0:
182,192,4139,1,2,0:0:0:0:
402,192,4139,1,4,0:0:0:0:
256,192,4310,1,0,0:0:0:0:
329,192,4482,1,2,0:0:0:0:
402,192,4653,1,0,0:0:0:0:
36,192,4653,1,2,0:0:0:0:
475,192,4825,1,0,0:0:0:0:
329,192,4996,1,0,0:0:0:0:
36,192,4996,1,2,0:0:0:0:
182,192,5167,1,0,0:0:0:0:
402,192,5339,128,0,6196:0:0:0:0:
256,192,5339,1,4,0:0:0:0:
109,192,5339,1,2,0:0:0:0:
36,192,5510,1,0,0:0:0:0:
109,192,5682,1,0,0:0:0:0:
182,192,5853,1,2,0:0:0:0:
329,192,5853,1,0,0:0:0:0:
256,192,6025,1,0,0:0:0:0:
329,192,6196,128,0,6882:0:0:0:0:
475,192,6196,1,0,0:0:0:0:
36,192,6196,1,2,0:0:0:0:
182,192,6367,1,0,0:0:0:0:
109,192,6539,1,2,0:0:0:0:
36,192,6710,1,2,0:0:0:0:
109,192,6882,1,2,0:0:0:0:
402,192,6882,1,4,0:0:0:0:
256,192,7053,1,0,0:0:0:0:
36,192,7225,1,2,0:0:0:0:
475,192,7225,1,0,0:0:0:0:
402,192,7396,1,0,0:0:0:0:
329,192,7567,1,0,0:0:0:0:
109,192,7567,1,2,0:0:0:0:
256,192,7739,1,0,0:0:0:0:
109,192,7910,1,2,0:0:0:0:
402,192,7910,1,0,0:0:0:0:
475,192,8082,1,0,0:0:0:0:
36,192,8253,1,2,0:0:0:0:
329,192,8253,1,4,0:0:0:0:
109,192,8425,1,0,0:0:0:0:
182,192,8596,1,2,0:0:0:0:
475,192,8596,1,0,0:0:0:0:
402,192,8767,1,0,0:0:0:0:
256,192,8939,1,0,0:0:0:0:
36,192,8939,1,2,0:0:0:0:
475,192,9110,1,0,0:0:0:0:
402,192,9282,1,0,0:0:0:0:
109,192,9282,1,2,0:0:0:0:
329,192,9453,1,0,0:0:0:0:
182,192,9625,1,4,0:0:0:0:
109,192,9625,1,2,0:0:0:0:
402,192,9796,1,0,0:0:0:0:
329,192,9796,1,2,0:0:0:0:
182,192,9967,1,0,0:0:0:0:
109,192,9967,1,2,0:0:0:0:
329,192,10139,1,2,0:0:0:0:
402,192,10139,1,0,0:0:0:0:
182,192,10310,1,0,0:0:0:0:
36,192,10310,1,2,0:0:0:0:
329,192,10482,1,2,0:0:0:0:
475,192,10482,1,0,0:0:0:0:
182,192,10653,1,0,0:0:0:0:
36,192,10654,1,2,0:0:0:0:
329,192,10825,1,2,0:0:0:0:
475,192,10825,1,0,0:0:0:0:
109,192,10996,128,2,11167:0:0:0:0:
256,192,11167,128,0,11339:0:0:0:0:
402,192,11339,128,8,11510:0:0:0:0:
109,192,11510,1,0,0:0:0:0:
182,192,11596,1,0,0:0:0:0:
256,192,11682,1,8,0:0:0:0:
329,192,11767,1,0,0:0:0:0:
402,192,11853,1,0,0:0:0:0:
475,192,11939,1,0,0:0:0:0:
36,192,12025,1,0,0:0:0:0:
109,192,12110,1,0,0:0:0:0:
182,192,12196,1,0,0:0:0:0:
256,192,12282,1,0,0:0:0:0:
329,192,12367,1,0,0:0:0:0:
109,192,12367,1,2,0:0:0:0:
475,192,12367,1,4,0:0:0:0:
182,192,12539,1,0,0:0:0:0:
402,192,12710,1,0,0:0:0:0:
36,192,12710,1,2,0:0:0:0:
329,192,12882,1,0,0:0:0:0:
109,192,13053,1,2,0:0:0:0:
256,192,13053,1,0,0:0:0:0:
402,192,13053,1,0,0:0:0:0:
36,192,13225,1,0,0:0:0:0:
182,192,13396,1,2,0:0:0:0:
329,192,13396,1,0,0:0:0:0:
475,192,13567,1,0,0:0:0:0:
36,192,13739,1,2,0:0:0:0:
109,192,13739,1,0,0:0:0:0:
402,192,13739,1,0,0:0:0:0:
256,192,13910,1,0,0:0:0:0:
182,192,14082,1,2,0:0:0:0:
475,192,14082,1,0,0:0:0:0:
402,192,14253,1,0,0:0:0:0:
329,192,14425,1,0,0:0:0:0:
109,192,14425,1,2,0:0:0:0:
475,192,14425,1,0,0:0:0:0:
182,192,14596,1,0,0:0:0:0:
36,192,14767,1,2,0:0:0:0:
256,192,14767,1,0,0:0:0:0:
402,192,14939,1,0,0:0:0:0:
475,192,15110,1,4,0:0:0:0:
329,192,15110,1,0,0:0:0:0:
109,192,15110,1,2,0:0:0:0:
182,192,15282,1,0,0:0:0:0:
36,192,15453,1,2,0:0:0:0:
402,192,15453,1,0,0:0:0:0:
256,192,15453,1,0,0:0:0:0:
329,192,15625,1,0,0:0:0:0:
475,192,15796,1,0,0:0:0:0:
109,192,15796,1,2,0:0:0:0:
182,192,15796,1,0,0:0:0:0:
36,192,15967,1,0,0:0:0:0:
402,192,16139,1,0,0:0:0:0:
329,192,16139,1,0,0:0:0:0:
109,192,16139,1,2,0:0:0:0:
182,192,16310,1,0,0:0:0:0:
109,192,16482,1,2,0:0:0:0:
256,192,16482,1,0,0:0:0:0:
402,192,16482,1,0,0:0:0:0:
256,192,16653,1,0,0:0:0:0:
109,192,16653,1,2,0:0:0:0:
402,192,16653,1,0,0:0:0:0:
36,192,16825,1,2,0:0:0:0:
256,192,16825,1,0,0:0:0:0:
475,192,16825,1,0,0:0:0:0:
402,192,17167,1,0,0:0:0:0:
109,192,17167,1,2,0:0:0:0:
329,192,17253,1,0,0:0:0:0:
256,192,17339,1,0,0:0:0:0:
182,192,17425,1,0,0:0:0:0:
475,192,17510,1,0,0:0:0:0:
109,192,17510,1,2,0:0:0:0:
402,192,17596,1,0,0:0:0:0:
256,192,17682,1,0,0:0:0:0:
109,192,17767,1,0,0:0:0:0:
36,192,17853,1,2,0:0:0:0:
329,192,17853,1,0,0:0:0:0:
475,192,17853,1,4,0:0:0:0:
36,192,18025,1,0,0:0:0:0:
109,192,18110,1,0,0:0:0:0:
182,192,18196,1,2,0:0:0:0:
329,192,18196,1,0,0:0:0:0:
402,192,18367,1,0,0:0:0:0:
329,192,18539,1,2,0:0:0:0:
475,192,18539,1,0,0:0:0:0:
402,192,18710,1,0,0:0:0:0:
329,192,18882,1,0,0:0:0:0:
182,192,18882,1,2,0:0:0:0:
109,192,19053,1,0,0:0:0:0:
36,192,19225,1,2,0:0:0:0:
475,192,19225,1,0,0:0:0:0:
109,192,19396,1,0,0:0:0:0:
182,192,19482,1,0,0:0:0:0:
329,192,19567,1,2,0:0:0:0:
402,192,19653,1,0,0:0:0:0:
182,192,19739,1,0,0:0:0:0:
36,192,19739,1,2,0:0:0:0:
256,192,19910,1,0,0:0:0:0:
329,192,19996,1,0,0:0:0:0:
402,192,20082,1,2,0:0:0:0:
475,192,20167,1,0,0:0:0:0:
256,192,20253,1,0,0:0:0:0:
109,192,20253,1,2,0:0:0:0:
109,192,20425,1,0,0:0:0:0:
256,192,20425,1,0,0:0:0:0:
182,192,20596,1,0,0:0:0:0:
329,192,20596,1,0,0:0:0:0:
475,192,20596,1,4,0:0:0:0:
36,192,20596,1,2,0:0:0:0:
402,192,20767,1,0,0:0:0:0:
109,192,20853,1,0,0:0:0:0:
182,192,20939,1,2,0:0:0:0:
329,192,20939,1,0,0:0:0:0:
402,192,21110,1,0,0:0:0:0:
329,192,21282,1,2,0:0:0:0:
475,192,21282,1,0,0:0:0:0:
402,192,21453,1,0,0:0:0:0:
329,192,21625,1,0,0:0:0:0:
182,192,21625,1,2,0:0:0:0:
109,192,21796,1,0,0:0:0:0:
36,192,21967,1,2,0:0:0:0:
475,192,21967,1,4,0:0:0:0:
329,192,22139,1,0,0:0:0:0:
182,192,22225,1,0,0:0:0:0:
475,192,22310,1,0,0:0:0:0:
36,192,22310,1,2,0:0:0:0:
109,192,22396,1,0,0:0:0:0:
256,192,22482,1,0,0:0:0:0:
402,192,22567,1,0,0:0:0:0:
36,192,22653,1,2,0:0:0:0:
475,192,22653,1,0,0:0:0:0:
402,192,22739,1,0,0:0:0:0:
329,192,22825,1,0,0:0:0:0:
256,192,22910,1,0,0:0:0:0:
109,192,22996,1,0,0:0:0:0:
402,192,22996,1,0,0:0:0:0:
182,192,22996,1,2,0:0:0:0:
475,192,23167,1,0,0:0:0:0:
36,192,23167,1,2,0:0:0:0:
109,192,23339,1,2,0:0:0:0:
256,192,23339,1,0,0:0:0:0:
402,192,23339,1,4,0:0:0:0:
475,192,23510,1,0,0:0:0:0:
329,192,23596,1,0,0:0:0:0:
182,192,23682,1,0,0:0:0:0:
36,192,23682,1,2,0:0:0:0:
256,192,23853,1,0,0:0:0:0:
329,192,24025,1,2,0:0:0:0:
475,192,24025,1,0,0:0:0:0:
402,192,24196,1,0,0:0:0:0:
256,192,24367,1,0,0:0:0:0:
109,192,24367,1,2,0:0:0:0:
36,192,24539,1,0,0:0:0:0:
109,192,24710,1,2,0:0:0:0:
329,192,24710,1,0,0:0:0:0:
475,192,24710,1,4,0:0:0:0:
36,192,24882,1,0,0:0:0:0:
182,192,24967,1,0,0:0:0:0:
329,192,25053,1,2,0:0:0:0:
475,192,25139,1,0,0:0:0:0:
109,192,25225,1,2,0:0:0:0:
256,192,25225,1,0,0:0:0:0:
36,192,25396,1,0,0:0:0:0:
182,192,25482,1,0,0:0:0:0:
329,192,25567,1,2,0:0:0:0:
475,192,25653,1,0,0:0:0:0:
109,192,25739,1,2,0:0:0:0:
256,192,25739,1,0,0:0:0:0:
256,192,25910,1,0,0:0:0:0:
36,192,26082,1,2,0:0:0:0:
329,192,26082,1,4,0:0:0:0:
402,192,26253,1,0,0:0:0:0:
182,192,26253,1,0,0:0:0:0:
109,192,26339,1,0,0:0:0:0:
329,192,26339,1,0,0:0:0:0:
182,192,26425,1,2,0:0:0:0:
402,192,26425,1,0,0:0:0:0:
36,192,26596,1,0,0:0:0:0:
256,192,26596,1,0,0:0:0:0:
182,192,26767,1,2,0:0:0:0:
475,192,26767,1,4,0:0:0:0:
402,192,26939,1,0,0:0:0:0:
109,192,26939,1,0,0:0:0:0:
36,192,27110,1,2,0:0:0:0:
329,192,27110,1,0,0:0:0:0:
182,192,27282,1,0,0:0:0:0:
109,192,27453,1,2,0:0:0:0:
256,192,27453,1,0,0:0:0:0:
402,192,27453,1,4,0:0:0:0:
36,192,27625,1,0,0:0:0:0:
109,192,27710,1,0,0:0:0:0:
182,192,27796,1,2,0:0:0:0:
475,192,27882,1,0,0:0:0:0:
402,192,27967,1,2,0:0:0:0:
329,192,28053,1,0,0:0:0:0:
256,192,28139,1,0,0:0:0:0:
36,192,28139,1,0,0:0:0:0:
475,192,28139,1,4,0:0:0:0:
36,192,28396,1,2,0:0:0:0:
402,192,28482,1,2,0:0:0:0:
182,192,28567,1,0,0:0:0:0:
329,192,28653,1,2,0:0:0:0:
109,192,28739,1,0,0:0:0:0:
256,192,28825,1,0,0:0:0:0:
402,192,28825,1,0,0:0:0:0:
36,192,28825,1,2,0:0:0:0:
109,192,29167,1,2,0:0:0:0:
329,192,29167,1,0,0:0:0:0:
475,192,29167,1,0,0:0:0:0:
182,192,29510,1,0,0:0:0:0:
256,192,29510,1,0,0:0:0:0:
402,192,29510,1,0,0:0:0:0:
36,192,29510,1,2,0:0:0:0:
109,192,29853,1,8,0:0:0:0:
402,192,30025,128,0,30539:0:0:0:0:
475,192,30025,1,4,0:0:0:0:
182,192,30025,1,0,0:0:0:0:
36,192,30025,1,2,0:0:0:0:
182,192,30367,1,0,0:0:0:0:
109,192,30453,1,0,0:0:0:0:
329,192,30539,1,0,0:0:0:0:
36,192,30539,1,2,0:0:0:0:
329,192,30710,1,0,0:0:0:0:
402,192,30796,1,0,0:0:0:0:
475,192,30882,1,0,0:0:0:0:
182,192,30882,1,2,0:0:0:0:
182,192,31225,1,2,0:0:0:0:
329,192,31310,1,0,0:0:0:0:
109,192,31396,1,2,0:0:0:0:
402,192,31482,1,0,0:0:0:0:
475,192,31567,1,0,0:0:0:0:
256,192,31567,1,0,0:0:0:0:
36,192,31567,1,2,0:0:0:0:
109,192,31910,1,2,0:0:0:0:
402,192,31910,1,0,0:0:0:0:
475,192,32253,1,0,0:0:0:0:
402,192,32253,1,0,0:0:0:0:
182,192,32253,1,2,0:0:0:0:
109,192,32596,1,8,0:0:0:0:
329,192,32767,128,0,33282:0:0:0:0:
475,192,32767,1,4,0:0:0:0:
36,192,32767,1,2,0:0:0:0:
256,192,32767,1,0,0:0:0:0:
109,192,33110,1,0,0:0:0:0:
182,192,33196,1,0,0:0:0:0:
402,192,33282,1,0,0:0:0:0:
36,192,33282,1,2,0:0:0:0:
475,192,33367,1,0,0:0:0:0:
329,192,33453,1,0,0:0:0:0:
182,192,33539,1,0,0:0:0:0:
256,192,33625,1,2,0:0:0:0:
475,192,33625,1,0,0:0:0:0:
36,192,33796,1,2,0:0:0:0:
182,192,33796,1,0,0:0:0:0:
402,192,33967,1,0,0:0:0:0:
256,192,33967,1,2,0:0:0:0:
182,192,34053,1,0,0:0:0:0:
109,192,34139,1,0,0:0:0:0:
36,192,34225,1,0,0:0:0:0:
182,192,34310,1,2,0:0:0:0:
475,192,34310,1,0,0:0:0:0:
329,192,34310,1,0,0:0:0:0:
109,192,34653,1,2,0:0:0:0:
256,192,34653,1,0,0:0:0:0:
402,192,34653,1,0,0:0:0:0:
36,192,34996,1,2,0:0:0:0:
182,192,34996,1,0,0:0:0:0:
329,192,34996,1,0,0:0:0:0:
36,192,35167,1,2,0:0:0:0:
256,192,35167,1,0,0:0:0:0:
109,192,35339,1,8,0:0:0:0:
256,192,35510,128,0,35853:0:0:0:0:
475,192,35510,1,4,0:0:0:0:
182,192,35510,1,2,0:0:0:0:
329,192,35510,1,0,0:0:0:0:
109,192,35853,1,0,0:0:0:0:
402,192,35939,1,0,0:0:0:0:
182,192,36025,1,2,0:0:0:0:
329,192,36110,1,0,0:0:0:0:
109,192,36196,1,0,0:0:0:0:
402,192,36282,1,0,0:0:0:0:
36,192,36367,1,2,0:0:0:0:
182,192,36367,1,0,0:0:0:0:
329,192,36539,1,2,0:0:0:0:
475,192,36539,1,0,0:0:0:0:
182,192,36710,1,0,0:0:0:0:
36,192,36710,1,2,0:0:0:0:
256,192,36796,1,0,0:0:0:0:
329,192,36882,1,0,0:0:0:0:
402,192,36967,1,0,0:0:0:0:
475,192,37053,1,0,0:0:0:0:
182,192,37053,1,0,0:0:0:0:
109,192,37053,1,2,0:0:0:0:
402,192,37396,1,0,0:0:0:0:
329,192,37396,1,0,0:0:0:0:
36,192,37396,1,2,0:0:0:0:
329,192,37739,1,0,0:0:0:0:
475,192,37739,1,0,0:0:0:0:
256,192,37739,1,2,0:0:0:0:
402,192,37910,1,0,0:0:0:0:
109,192,37910,1,2,0:0:0:0:
182,192,37910,1,0,0:0:0:0:
36,192,38082,1,0,0:0:0:0:
329,192,38082,1,8,0:0:0:0:
109,192,38253,128,2,38767:0:0:0:0:
402,192,38253,1,4,0:0:0:0:
329,192,38596,1,0,0:0:0:0:
402,192,38682,1,0,0:0:0:0:
182,192,38767,1,0,0:0:0:0:
475,192,38767,1,0,0:0:0:0:
36,192,38767,1,2,0:0:0:0:
256,192,38853,1,0,0:0:0:0:
329,192,38939,1,0,0:0:0:0:
402,192,39025,1,0,0:0:0:0:
36,192,39110,1,2,0:0:0:0:
182,192,39110,1,0,0:0:0:0:
475,192,39196,1,0,0:0:0:0:
256,192,39282,1,0,0:0:0:0:
109,192,39282,1,2,0:0:0:0:
475,192,39367,1,0,0:0:0:0:
36,192,39453,1,2,0:0:0:0:
182,192,39453,1,0,0:0:0:0:
402,192,39539,1,0,0:0:0:0:
109,192,39625,1,0,0:0:0:0:
402,192,39710,1,0,0:0:0:0:
36,192,39796,1,2,0:0:0:0:
475,192,39796,1,4,0:0:0:0:
256,192,39796,128,0,40139:0:0:0:0:
109,192,40139,1,2,0:0:0:0:
402,192,40139,1,0,0:0:0:0:
329,192,40310,1,0,0:0:0:0:
475,192,40482,1,0,0:0:0:0:
182,192,40482,1,2,0:0:0:0:
402,192,40567,1,0,0:0:0:0:
329,192,40653,1,0,0:0:0:0:
256,192,40739,1,0,0:0:0:0:
182,192,40825,1,0,0:0:0:0:
36,192,40825,1,2,0:0:0:0:
256,192,40996,128,0,41339:0:0:0:0:
402,192,40996,1,0,0:0:0:0:
36,192,41339,1,0,0:0:0:0:
109,192,41425,1,0,0:0:0:0:
182,192,41510,1,2,0:0:0:0:
402,192,41510,1,0,0:0:0:0:
329,192,41596,1,0,0:0:0:0:
256,192,41682,1,0,0:0:0:0:
182,192,41767,1,0,0:0:0:0:
475,192,41853,1,2,0:0:0:0:
109,192,41853,128,0,42110:0:0:0:0:
329,192,42196,1,2,0:0:0:0:
36,192,42196,1,0,0:0:0:0:
182,192,42282,1,0,0:0:0:0:
329,192,42367,1,0,0:0:0:0:
475,192,42453,1,0,0:0:0:0:
402,192,42539,1,4,0:0:0:0:
36,192,42539,1,2,0:0:0:0:
182,192,42539,128,0,42882:0:0:0:0:
109,192,42882,1,2,0:0:0:0:
329,192,42882,1,0,0:0:0:0:
475,192,43053,128,0,43225:0:0:0:0:
256,192,43225,1,0,0:0:0:0:
36,192,43225,1,2,0:0:0:0:
402,192,43310,1,0,0:0:0:0:
329,192,43396,1,0,0:0:0:0:
182,192,43482,1,0,0:0:0:0:
109,192,43567,1,0,0:0:0:0:
475,192,43567,1,2,0:0:0:0:
329,192,43739,128,0,44082:0:0:0:0:
402,192,43910,1,0,0:0:0:0:
182,192,43910,1,2,0:0:0:0:
109,192,44082,1,0,0:0:0:0:
182,192,44167,1,0,0:0:0:0:
402,192,44253,1,2,0:0:0:0:
329,192,44339,1,0,0:0:0:0:
109,192,44425,1,0,0:0:0:0:
182,192,44510,1,0,0:0:0:0:
256,192,44596,1,2,0:0:0:0:
402,192,44596,128,0,44853:0:0:0:0:
475,192,44939,1,0,0:0:0:0:
109,192,44939,1,2,0:0:0:0:
329,192,45025,1,0,0:0:0:0:
182,192,45110,1,0,0:0:0:0:
36,192,45196,1,0,0:0:0:0:
109,192,45282,128,0,45625:0:0:0:0:
402,192,45282,1,2,0:0:0:0:
475,192,45625,1,2,0:0:0:0:
329,192,45625,1,0,0:0:0:0:
256,192,45710,1,0,0:0:0:0:
182,192,45796,1,0,0:0:0:0:
109,192,45882,1,0,0:0:0:0:
36,192,45967,1,0,0:0:0:0:
402,192,45967,1,2,0:0:0:0:
329,192,46053,1,0,0:0:0:0:
256,192,46139,1,0,0:0:0:0:
182,192,46225,1,0,0:0:0:0:
475,192,46310,1,2,0:0:0:0:
109,192,46310,1,0,0:0:0:0:
402,192,46396,1,0,0:0:0:0:
329,192,46482,128,0,46653:0:0:0:0:
182,192,46653,1,2,0:0:0:0:
109,192,46653,1,0,0:0:0:0:
36,192,46825,1,0,0:0:0:0:
109,192,46910,1,0,0:0:0:0:
182,192,46996,1,0,0:0:0:0:
402,192,46996,1,2,0:0:0:0:
475,192,47082,1,0,0:0:0:0:
402,192,47167,1,0,0:0:0:0:
329,192,47253,1,0,0:0:0:0:
256,192,47339,1,2,0:0:0:0:
36,192,47339,128,0,47682:0:0:0:0:
475,192,47682,1,0,0:0:0:0:
109,192,47767,1,0,0:0:0:0:
329,192,47853,1,0,0:0:0:0:
182,192,47939,1,0,0:0:0:0:
402,192,48025,1,4,0:0:0:0:
256,192,48025,1,0,0:0:0:0:
36,192,48025,1,2,0:0:0:0:
182,192,48196,1,0,0:0:0:0:
329,192,48282,1,0,0:0:0:0:
182,192,48367,1,2,0:0:0:0:
329,192,48453,1,0,0:0:0:0:
182,192,48539,1,0,0:0:0:0:
402,192,48625,1,0,0:0:0:0:
109,192,48710,1,2,0:0:0:0:
402,192,48796,1,0,0:0:0:0:
109,192,48882,1,0,0:0:0:0:
475,192,48967,1,0,0:0:0:0:
36,192,49053,1,2,0:0:0:0:
475,192,49139,1,0,0:0:0:0:
36,192,49225,1,2,0:0:0:0:
109,192,49396,1,0,0:0:0:0:
402,192,49396,1,0,0:0:0:0:
182,192,49396,1,2,0:0:0:0:
329,192,49396,1,0,0:0:0:0:
109,192,49653,1,0,0:0:0:0:
256,192,49653,1,2,0:0:0:0:
402,192,49653,1,0,0:0:0:0:
182,192,49910,1,0,0:0:0:0:
256,192,49910,1,0,0:0:0:0:
329,192,49910,1,2,0:0:0:0:
256,192,50253,1,2,0:0:0:0:
36,192,50253,128,0,50767:0:0:0:0:
475,192,50253,128,0,50767:0:0:0:0:
182,192,50767,1,2,0:0:0:0:
329,192,50767,1,4,0:0:0:0:
109,192,50939,1,0,0:0:0:0:
402,192,51110,1,0,0:0:0:0:
109,192,51282,1,0,0:0:0:0:
256,192,51453,1,8,0:0:0:0:
475,192,51453,1,0,0:0:0:0:
36,192,51625,1,0,0:0:0:0:
475,192,51796,1,0,0:0:0:0:
256,192,51967,1,2,0:0:0:0:
182,192,51967,1,0,0:0:0:0:
329,192,52139,1,0,0:0:0:0:
182,192,52310,1,0,0:0:0:0:
329,192,52482,1,0,0:0:0:0:
109,192,52653,1,0,0:0:0:0:
256,192,52825,1,8,0:0:0:0:
402,192,52825,1,0,0:0:0:0:
109,192,52996,1,0,0:0:0:0:
402,192,53167,1,0,0:0:0:0:
36,192,53167,1,2,0:0:0:0:
109,192,53339,1,0,0:0:0:0:
36,192,53510,1,2,0:0:0:0:
475,192,53510,1,0,0:0:0:0:
329,192,53682,1,0,0:0:0:0:
475,192,53853,1,0,0:0:0:0:
109,192,54025,1,0,0:0:0:0:
256,192,54196,1,8,0:0:0:0:
402,192,54196,1,0,0:0:0:0:
109,192,54367,1,0,0:0:0:0:
256,192,54539,1,0,0:0:0:0:
36,192,54710,1,0,0:0:0:0:
402,192,54710,1,2,0:0:0:0:
182,192,54882,1,0,0:0:0:0:
36,192,55053,1,0,0:0:0:0:
182,192,55225,1,0,0:0:0:0:
402,192,55225,1,2,0:0:0:0:
109,192,55396,1,0,0:0:0:0:
36,192,55567,1,0,0:0:0:0:
402,192,55567,1,8,0:0:0:0:
182,192,55653,1,0,0:0:0:0:
329,192,55739,1,0,0:0:0:0:
475,192,55825,1,0,0:0:0:0:
36,192,55910,1,0,0:0:0:0:
256,192,55910,1,0,0:0:0:0:
182,192,55996,1,0,0:0:0:0:
329,192,56082,1,0,0:0:0:0:
475,192,56167,1,0,0:0:0:0:
109,192,56253,1,4,0:0:0:0:
402,192,56253,128,0,56425:0:0:0:0:
256,192,56253,1,2,0:0:0:0:
182,192,56425,128,0,56596:0:0:0:0:
402,192,56596,128,0,56767:0:0:0:0:
109,192,56767,128,0,56939:0:0:0:0:
329,192,56939,128,0,57110:0:0:0:0:
475,192,56939,1,8,0:0:0:0:
109,192,57110,128,0,57282:0:0:0:0:
329,192,57282,128,0,57453:0:0:0:0:
36,192,57453,128,0,57625:0:0:0:0:
182,192,57453,1,2,0:0:0:0:
256,192,57625,128,0,57796:0:0:0:0:
36,192,57796,128,0,57967:0:0:0:0:
256,192,57967,128,0,58139:0:0:0:0:
402,192,58139,128,0,58310:0:0:0:0:
109,192,58310,128,0,58482:0:0:0:0:
475,192,58310,1,8,0:0:0:0:
402,192,58482,128,0,58653:0:0:0:0:
109,192,58653,128,0,58825:0:0:0:0:
256,192,58653,1,2,0:0:0:0:
402,192,58825,128,0,58996:0:0:0:0:
36,192,58996,128,0,60367:0:0:0:0:
256,192,58996,1,2,0:0:0:0:
329,192,59167,1,0,0:0:0:0:
182,192,59339,128,0,60367:0:0:0:0:
475,192,59510,1,0,0:0:0:0:
329,192,59682,128,8,60367:0:0:0:0:
109,192,59853,1,0,0:0:0:0:
475,192,60025,128,0,60367:0:0:0:0:
256,192,60196,1,0,0:0:0:0:
109,192,60367,1,2,0:0:0:0:
402,192,60367,1,0,0:0:0:0:
182,192,60710,1,0,0:0:0:0:
329,192,60710,1,2,0:0:0:0:
36,192,60882,1,0,0:0:0:0:
475,192,60882,1,8,0:0:0:0:
109,192,61225,1,2,0:0:0:0:
402,192,61225,1,0,0:0:0:0:
182,192,61310,1,2,0:0:0:0:
329,192,61310,1,0,0:0:0:0:
36,192,61396,1,0,0:0:0:0:
109,192,61482,1,0,0:0:0:0:
182,192,61567,1,0,0:0:0:0:
256,192,61653,1,0,0:0:0:0:
36,192,61739,1,2,0:0:0:0:
475,192,61739,1,4,0:0:0:0:
329,192,61739,1,0,0:0:0:0:
402,192,61996,1,0,0:0:0:0:
256,192,62082,1,0,0:0:0:0:
109,192,62082,1,2,0:0:0:0:
329,192,62082,1,0,0:0:0:0:
182,192,62253,1,0,0:0:0:0:
36,192,62425,1,2,0:0:0:0:
402,192,62425,1,0,0:0:0:0:
109,192,62425,1,0,0:0:0:0:
475,192,62510,1,0,0:0:0:0:
402,192,62596,1,0,0:0:0:0:
329,192,62682,1,0,0:0:0:0:
256,192,62767,1,0,0:0:0:0:
475,192,62767,1,0,0:0:0:0:
109,192,62767,1,2,0:0:0:0:
182,192,62939,1,0,0:0:0:0:
402,192,63110,1,0,0:0:0:0:
109,192,63110,1,2,0:0:0:0:
256,192,63110,1,0,0:0:0:0:
329,192,63282,1,0,0:0:0:0:
109,192,63367,1,0,0:0:0:0:
475,192,63453,1,2,0:0:0:0:
182,192,63539,1,0,0:0:0:0:
402,192,63625,1,0,0:0:0:0:
36,192,63710,1,0,0:0:0:0:
329,192,63796,1,0,0:0:0:0:
256,192,63796,1,2,0:0:0:0:
109,192,63882,1,0,0:0:0:0:
475,192,63967,1,0,0:0:0:0:
182,192,64053,1,0,0:0:0:0:
402,192,64139,1,2,0:0:0:0:
475,192,64310,1,0,0:0:0:0:
36,192,64482,1,2,0:0:0:0:
182,192,64482,1,0,0:0:0:0:
329,192,64482,1,4,0:0:0:0:
109,192,64739,1,0,0:0:0:0:
182,192,64825,1,0,0:0:0:0:
329,192,64825,1,2,0:0:0:0:
475,192,64825,1,0,0:0:0:0:
402,192,64996,1,0,0:0:0:0:
36,192,65167,1,2,0:0:0:0:
256,192,65167,1,0,0:0:0:0:
329,192,65167,1,4,0:0:0:0:
182,192,65425,1,0,0:0:0:0:
256,192,65510,1,0,0:0:0:0:
36,192,65510,1,2,0:0:0:0:
402,192,65510,1,0,0:0:0:0:
329,192,65682,1,0,0:0:0:0:
109,192,65853,1,2,0:0:0:0:
475,192,65853,1,4,0:0:0:0:
182,192,65853,1,0,0:0:0:0:
402,192,66110,1,0,0:0:0:0:
109,192,66196,1,2,0:0:0:0:
182,192,66282,1,0,0:0:0:0:
402,192,66367,1,0,0:0:0:0:
329,192,66453,1,0,0:0:0:0:
36,192,66539,1,2,0:0:0:0:
182,192,66625,1,0,0:0:0:0:
475,192,66710,1,0,0:0:0:0:
329,192,66796,1,2,0:0:0:0:
256,192,66882,1,0,0:0:0:0:
36,192,66882,1,2,0:0:0:0:
329,192,67053,1,0,0:0:0:0:
182,192,67053,1,2,0:0:0:0:
109,192,67225,1,2,0:0:0:0:
402,192,67225,1,0,0:0:0:0:
256,192,67225,1,0,0:0:0:0:
475,192,67482,1,0,0:0:0:0:
329,192,67567,1,0,0:0:0:0:
256,192,67567,1,0,0:0:0:0:
36,192,67567,1,2,0:0:0:0:
182,192,67739,1,0,0:0:0:0:
109,192,67910,1,0,0:0:0:0:
475,192,67910,1,0,0:0:0:0:
36,192,67910,1,2,0:0:0:0:
182,192,67996,1,0,0:0:0:0:
329,192,68082,1,0,0:0:0:0:
402,192,68167,1,0,0:0:0:0:
475,192,68253,1,0,0:0:0:0:
256,192,68253,1,0,0:0:0:0:
109,192,68253,1,2,0:0:0:0:
182,192,68425,1,0,0:0:0:0:
36,192,68596,1,2,0:0:0:0:
329,192,68596,1,0,0:0:0:0:
402,192,68596,1,0,0:0:0:0:
109,192,68853,1,0,0:0:0:0:
329,192,68939,1,0,0:0:0:0:
36,192,68939,1,2,0:0:0:0:
402,192,69025,1,0,0:0:0:0:
475,192,69110,1,0,0:0:0:0:
402,192,69196,1,0,0:0:0:0:
329,192,69282,1,0,0:0:0:0:
182,192,69282,1,2,0:0:0:0:
109,192,69367,1,0,0:0:0:0:
36,192,69453,1,0,0:0:0:0:
109,192,69539,1,0,0:0:0:0:
182,192,69625,1,0,0:0:0:0:
402,192,69625,1,2,0:0:0:0:
402,192,69796,1,0,0:0:0:0:
109,192,69967,1,4,0:0:0:0:
402,192,69967,1,2,0:0:0:0:
182,192,70139,1,0,0:0:0:0:
256,192,70225,1,0,0:0:0:0:
329,192,70310,1,0,0:0:0:0:
36,192,70482,1,2,0:0:0:0:
475,192,70482,1,0,0:0:0:0:
402,192,70653,1,0,0:0:0:0:
256,192,70739,1,0,0:0:0:0:
109,192,70825,1,0,0:0:0:0:
182,192,70996,1,4,0:0:0:0:
329,192,70996,1,2,0:0:0:0:
36,192,71167,1,0,0:0:0:0:
256,192,71253,1,0,0:0:0:0:
475,192,71339,1,0,0:0:0:0:
329,192,71510,1,0,0:0:0:0:
475,192,71510,1,2,0:0:0:0:
109,192,71596,1,0,0:0:0:0:
402,192,71682,1,0,0:0:0:0:
182,192,71767,1,0,0:0:0:0:
475,192,71853,1,0,0:0:0:0:
256,192,71939,1,0,0:0:0:0:
109,192,72025,1,2,0:0:0:0:
402,192,72025,1,4,0:0:0:0:
182,192,72196,1,2,0:0:0:0:
329,192,72196,1,0,0:0:0:0:
256,192,72367,1,2,0:0:0:0:
36,192,72367,128,0,72710:0:0:0:0:
475,192,72367,128,0,72710:0:0:0:0:
182,192,72710,1,0,0:0:0:0:
329,192,72710,1,0,0:0:0:0:
256,192,72710,1,2,0:0:0:0:
109,192,72882,1,0,0:0:0:0:
182,192,73053,1,2,0:0:0:0:
402,192,73053,1,0,0:0:0:0:
329,192,73225,1,0,0:0:0:0:
256,192,73396,1,0,0:0:0:0:
36,192,73396,1,2,0:0:0:0:
329,192,73567,1,0,0:0:0:0:
256,192,73739,1,0,0:0:0:0:
109,192,73739,1,2,0:0:0:0:
182,192,73910,1,0,0:0:0:0:
256,192,74082,1,0,0:0:0:0:
402,192,74082,1,2,0:0:0:0:
182,192,74253,1,0,0:0:0:0:
256,192,74425,1,0,0:0:0:0:
36,192,74425,1,2,0:0:0:0:
182,192,74596,1,0,0:0:0:0:
109,192,74767,1,0,0:0:0:0:
402,192,74767,1,2,0:0:0:0:
182,192,74939,1,0,0:0:0:0:
109,192,75110,1,0,0:0:0:0:
475,192,75110,1,2,0:0:0:0:
182,192,75282,1,0,0:0:0:0:
475,192,75453,1,0,0:0:0:0:
256,192,75453,1,2,0:0:0:0:
402,192,75625,1,0,0:0:0:0:
475,192,75796,1,0,0:0:0:0:
182,192,75796,1,2,0:0:0:0:
402,192,75967,1,0,0:0:0:0:
329,192,76139,1,0,0:0:0:0:
109,192,76139,1,2,0:0:0:0:
402,192,76310,1,0,0:0:0:0:
329,192,76482,1,0,0:0:0:0:
36,192,76482,1,2,0:0:0:0:
402,192,76653,1,0,0:0:0:0:
329,192,76825,1,0,0:0:0:0:
109,192,76825,1,2,0:0:0:0:
182,192,76910,1,0,0:0:0:0:
256,192,76996,1,0,0:0:0:0:
329,192,77082,1,0,0:0:0:0:
182,192,77167,1,2,0:0:0:0:
256,192,77253,1,0,0:0:0:0:
329,192,77339,1,0,0:0:0:0:
402,192,77425,1,0,0:0:0:0:
256,192,77510,1,2,0:0:0:0:
182,192,77596,1,0,0:0:0:0:
109,192,77682,1,0,0:0:0:0:
36,192,77767,1,0,0:0:0:0:
475,192,77853,1,2,0:0:0:0:
109,192,77939,1,0,0:0:0:0:
402,192,78025,1,0,0:0:0:0:
182,192,78110,1,0,0:0:0:0:
36,192,78196,1,0,0:0:0:0:
475,192,78196,1,4,0:0:0:0:
256,192,78196,1,2,0:0:0:0:
182,192,78367,1,0,0:0:0:0:
329,192,78539,1,0,0:0:0:0:
402,192,78539,1,8,0:0:0:0:
36,192,78539,1,2,0:0:0:0:
256,192,78710,1,0,0:0:0:0:
182,192,78882,1,2,0:0:0:0:
402,192,78882,1,0,0:0:0:0:
329,192,79053,1,0,0:0:0:0:
109,192,79053,1,0,0:0:0:0:
256,192,79225,1,0,0:0:0:0:
182,192,79225,1,2,0:0:0:0:
475,192,79225,1,8,0:0:0:0:
36,192,79396,1,0,0:0:0:0:
182,192,79567,1,2,0:0:0:0:
329,192,79567,1,0,0:0:0:0:
256,192,79739,1,0,0:0:0:0:
36,192,79910,1,2,0:0:0:0:
109,192,79910,1,0,0:0:0:0:
329,192,79910,1,8,0:0:0:0:
475,192,80082,1,0,0:0:0:0:
36,192,80253,1,2,0:0:0:0:
402,192,80253,1,0,0:0:0:0:
475,192,80425,1,0,0:0:0:0:
109,192,80425,1,0,0:0:0:0:
402,192,80596,1,8,0:0:0:0:
329,192,80596,1,0,0:0:0:0:
182,192,80596,1,2,0:0:0:0:
256,192,80767,1,0,0:0:0:0:
182,192,80939,1,2,0:0:0:0:
402,192,80939,1,0,0:0:0:0:
329,192,81110,1,0,0:0:0:0:
182,192,81282,1,0,0:0:0:0:
109,192,81282,1,2,0:0:0:0:
475,192,81282,1,8,0:0:0:0:
402,192,81453,1,0,0:0:0:0:
109,192,81625,1,2,0:0:0:0:
329,192,81625,1,0,0:0:0:0:
475,192,81796,1,0,0:0:0:0:
182,192,81796,1,0,0:0:0:0:
109,192,81967,1,2,0:0:0:0:
256,192,81967,1,0,0:0:0:0:
402,192,81967,1,8,0:0:0:0:
109,192,82139,1,2,0:0:0:0:
182,192,82139,1,0,0:0:0:0:
402,192,82139,1,0,0:0:0:0:
329,192,82139,1,0,0:0:0:0:
36,192,82482,1,2,0:0:0:0:
109,192,82482,1,0,0:0:0:0:
475,192,82482,1,0,0:0:0:0:
402,192,82482,1,0,0:0:0:0:
36,192,82653,1,2,0:0:0:0:
109,192,82653,1,0,0:0:0:0:
402,192,82653,1,0,0:0:0:0:
475,192,82653,1,0,0:0:0:0:
475,192,82825,1,0,0:0:0:0:
402,192,82825,1,0,0:0:0:0:
36,192,82825,1,2,0:0:0:0:
109,192,82825,1,0,0:0:0:0:
256,192,82996,1,8,0:0:0:0:
475,192,83167,1,0,0:0:0:0:
402,192,83225,1,0,0:0:0:0:
329,192,83282,1,0,0:0:0:0:
256,192,83339,128,0,83510:0:0:0:0:
182,192,83510,128,0,83682:0:0:0:0:
475,192,83682,1,2,0:0:0:0:
36,192,83682,1,0,0:0:0:0:
182,192,83853,1,0,0:0:0:0:
329,192,83853,1,0,0:0:0:0:
475,192,84025,1,2,0:0:0:0:
256,192,84196,1,0,0:0:0:0:
109,192,84196,1,0,0:0:0:0:
402,192,84367,1,2,0:0:0:0:
109,192,84539,1,0,0:0:0:0:
256,192,84539,1,0,0:0:0:0:
402,192,84710,1,2,0:0:0:0:
36,192,84882,1,0,0:0:0:0:
182,192,84882,1,0,0:0:0:0:
329,192,85053,1,2,0:0:0:0:
36,192,85225,1,0,0:0:0:0:
182,192,85225,1,0,0:0:0:0:
329,192,85396,1,2,0:0:0:0:
109,192,85567,1,0,0:0:0:0:
256,192,85567,1,0,0:0:0:0:
402,192,85739,1,2,0:0:0:0:
256,192,85910,1,0,0:0:0:0:
109,192,85910,1,0,0:0:0:0:
402,192,86082,1,2,0:0:0:0:
256,192,86253,1,0,0:0:0:0:
109,192,86253,1,0,0:0:0:0:
36,192,86425,1,2,0:0:0:0:
475,192,86425,1,4,0:0:0:0:
256,192,86596,1,0,0:0:0:0:
109,192,86767,1,2,0:0:0:0:
402,192,86767,1,0,0:0:0:0:
256,192,86939,1,0,0:0:0:0:
182,192,87110,1,2,0:0:0:0:
329,192,87110,1,0,0:0:0:0:
256,192,87282,1,0,0:0:0:0:
109,192,87453,1,2,0:0:0:0:
402,192,87453,1,0,0:0:0:0:
256,192,87625,1,0,0:0:0:0:
109,192,87796,1,0,0:0:0:0:
182,192,87796,1,2,0:0:0:0:
402,192,87796,1,0,0:0:0:0:
109,192,87967,1,0,0:0:0:0:
329,192,87967,1,2,0:0:0:0:
402,192,87967,1,0,0:0:0:0:
256,192,88139,1,2,0:0:0:0:
36,192,88139,1,0,0:0:0:0:
475,192,88139,1,0,0:0:0:0:
329,192,88482,1,0,0:0:0:0:
402,192,88482,1,2,0:0:0:0:
182,192,88567,1,0,0:0:0:0:
109,192,88653,1,0,0:0:0:0:
36,192,88739,1,0,0:0:0:0:
475,192,88825,1,2,0:0:0:0:
256,192,88825,1,0,0:0:0:0:
402,192,88910,1,0,0:0:0:0:
329,192,88996,1,0,0:0:0:0:
182,192,89082,1,0,0:0:0:0:
402,192,89167,1,2,0:0:0:0:
109,192,89167,128,4,89339:0:0:0:0:
475,192,89425,1,0,0:0:0:0:
256,192,89510,1,2,0:0:0:0:
402,192,89510,1,0,0:0:0:0:
329,192,89682,1,0,0:0:0:0:
36,192,89853,1,2,0:0:0:0:
256,192,89853,1,0,0:0:0:0:
402,192,89939,1,0,0:0:0:0:
329,192,90025,1,0,0:0:0:0:
256,192,90110,1,0,0:0:0:0:
182,192,90196,1,0,0:0:0:0:
475,192,90196,1,2,0:0:0:0:
109,192,90367,1,0,0:0:0:0:
402,192,90539,1,0,0:0:0:0:
36,192,90539,1,2,0:0:0:0:
109,192,90710,1,0,0:0:0:0:
402,192,90796,1,0,0:0:0:0:
182,192,90882,1,2,0:0:0:0:
329,192,90967,1,0,0:0:0:0:
182,192,91053,1,0,0:0:0:0:
329,192,91139,1,0,0:0:0:0:
36,192,91225,1,2,0:0:0:0:
475,192,91310,1,0,0:0:0:0:
109,192,91396,1,0,0:0:0:0:
402,192,91482,1,0,0:0:0:0:
256,192,91567,1,2,0:0:0:0:
475,192,91739,1,0,0:0:0:0:
182,192,91910,1,2,0:0:0:0:
329,192,91910,128,4,92082:0:0:0:0:
109,192,92167,1,0,0:0:0:0:
182,192,92253,1,0,0:0:0:0:
402,192,92253,1,2,0:0:0:0:
475,192,92425,1,0,0:0:0:0:
109,192,92596,128,4,92767:0:0:0:0:
256,192,92596,1,2,0:0:0:0:
36,192,92853,1,0,0:0:0:0:
182,192,92939,1,0,0:0:0:0:
402,192,92939,1,2,0:0:0:0:
329,192,93110,1,0,0:0:0:0:
36,192,93282,1,2,0:0:0:0:
256,192,93282,1,4,0:0:0:0:
109,192,93539,1,0,0:0:0:0:
402,192,93625,1,2,0:0:0:0:
329,192,93710,1,0,0:0:0:0:
256,192,93796,1,0,0:0:0:0:
182,192,93882,1,0,0:0:0:0:
109,192,93967,1,0,0:0:0:0:
475,192,93967,1,2,0:0:0:0:
182,192,94053,1,0,0:0:0:0:
256,192,94139,1,0,0:0:0:0:
329,192,94225,1,2,0:0:0:0:
402,192,94310,1,0,0:0:0:0:
109,192,94310,1,2,0:0:0:0:
182,192,94482,1,2,0:0:0:0:
329,192,94482,1,0,0:0:0:0:
475,192,94653,1,4,0:0:0:0:
36,192,94653,1,2,0:0:0:0:
256,192,94653,128,0,94825:0:0:0:0:
402,192,94910,1,0,0:0:0:0:
109,192,94996,1,2,0:0:0:0:
36,192,95167,1,0,0:0:0:0:
329,192,95339,1,0,0:0:0:0:
109,192,95339,1,2,0:0:0:0:
402,192,95425,1,0,0:0:0:0:
182,192,95510,1,0,0:0:0:0:
109,192,95596,1,0,0:0:0:0:
475,192,95682,1,0,0:0:0:0:
256,192,95682,1,2,0:0:0:0:
329,192,95853,1,0,0:0:0:0:
256,192,96025,1,0,0:0:0:0:
36,192,96025,1,2,0:0:0:0:
109,192,96282,1,0,0:0:0:0:
182,192,96367,1,2,0:0:0:0:
402,192,96367,1,0,0:0:0:0:
475,192,96453,1,0,0:0:0:0:
402,192,96539,1,0,0:0:0:0:
329,192,96625,1,0,0:0:0:0:
256,192,96710,1,2,0:0:0:0:
109,192,96796,1,0,0:0:0:0:
36,192,96882,1,0,0:0:0:0:
182,192,96967,1,0,0:0:0:0:
329,192,97053,1,2,0:0:0:0:
402,192,97225,1,0,0:0:0:0:
36,192,97225,1,0,0:0:0:0:
475,192,97396,1,4,0:0:0:0:
36,192,97396,1,0,0:0:0:0:
256,192,97396,1,2,0:0:0:0:
109,192,97567,1,0,0:0:0:0:
182,192,97653,1,0,0:0:0:0:
256,192,97739,1,0,0:0:0:0:
36,192,97910,1,0,0:0:0:0:
256,192,97910,1,2,0:0:0:0:
475,192,97910,1,0,0:0:0:0:
182,192,98082,1,0,0:0:0:0:
256,192,98167,1,0,0:0:0:0:
329,192,98253,1,0,0:0:0:0:
36,192,98425,1,0,0:0:0:0:
256,192,98425,1,2,0:0:0:0:
475,192,98425,1,4,0:0:0:0:
256,192,98596,1,0,0:0:0:0:
329,192,98682,1,0,0:0:0:0:
402,192,98767,1,0,0:0:0:0:
256,192,98939,1,2,0:0:0:0:
36,192,98939,1,0,0:0:0:0:
475,192,99025,1,0,0:0:0:0:
109,192,99110,1,0,0:0:0:0:
402,192,99196,1,0,0:0:0:0:
36,192,99282,1,2,0:0:0:0:
475,192,99367,1,0,0:0:0:0:
329,192,99453,1,0,0:0:0:0:
109,192,99453,1,2,0:0:0:0:
182,192,99625,1,2,0:0:0:0:
402,192,99625,1,0,0:0:0:0:
475,192,99796,1,2,0:0:0:0:
329,192,99882,1,0,0:0:0:0:
182,192,99967,1,0,0:0:0:0:
36,192,100053,1,0,0:0:0:0:
256,192,100139,128,2,100482:0:0:0:0:
475,192,100396,1,0,0:0:0:0:
402,192,100482,1,4,0:0:0:0:
109,192,100482,1,2,0:0:0:0:
329,192,100653,1,0,0:0:0:0:
36,192,100825,1,2,0:0:0:0:
256,192,100825,1,0,0:0:0:0:
329,192,100910,1,0,0:0:0:0:
256,192,100996,1,0,0:0:0:0:
182,192,101082,1,0,0:0:0:0:
109,192,101167,128,0,101339:0:0:0:0:
475,192,101167,1,2,0:0:0:0:
36,192,101339,128,0,101510:0:0:0:0:
402,192,101510,1,2,0:0:0:0:
256,192,101510,128,0,101682:0:0:0:0:
475,192,101682,1,0,0:0:0:0:
402,192,101767,1,0,0:0:0:0:
329,192,101853,1,0,0:0:0:0:
109,192,101853,1,2,0:0:0:0:
475,192,101939,1,0,0:0:0:0:
36,192,102025,1,0,0:0:0:0:
402,192,102110,1,0,0:0:0:0:
182,192,102196,1,2,0:0:0:0:
109,192,102282,1,0,0:0:0:0:
402,192,102367,1,0,0:0:0:0:
329,192,102453,1,0,0:0:0:0:
256,192,102539,1,0,0:0:0:0:
36,192,102539,1,2,0:0:0:0:
475,192,102710,128,0,102882:0:0:0:0:
36,192,102882,1,2,0:0:0:0:
402,192,102882,1,4,0:0:0:0:
182,192,102882,128,0,103053:0:0:0:0:
109,192,103139,1,0,0:0:0:0:
329,192,103225,1,2,0:0:0:0:
36,192,103225,1,0,0:0:0:0:
475,192,103396,128,0,103567:0:0:0:0:
109,192,103567,128,0,103739:0:0:0:0:
256,192,103567,1,4,0:0:0:0:
402,192,103567,1,2,0:0:0:0:
36,192,103825,1,0,0:0:0:0:
182,192,103910,1,0,0:0:0:0:
329,192,103910,1,2,0:0:0:0:
402,192,104082,128,0,104253:0:0:0:0:
36,192,104253,128,0,104425:0:0:0:0:
256,192,104253,1,2,0:0:0:0:
475,192,104253,1,4,0:0:0:0:
402,192,104510,1,0,0:0:0:0:
182,192,104596,1,2,0:0:0:0:
475,192,104596,1,0,0:0:0:0:
256,192,104682,1,0,0:0:0:0:
329,192,104767,1,0,0:0:0:0:
402,192,104853,1,0,0:0:0:0:
182,192,104939,1,2,0:0:0:0:
475,192,104939,1,0,0:0:0:0:
109,192,105025,1,0,0:0:0:0:
36,192,105110,1,0,0:0:0:0:
402,192,105196,1,2,0:0:0:0:
182,192,105282,1,2,0:0:0:0:
329,192,105282,1,0,0:0:0:0:
182,192,105453,1,2,0:0:0:0:
329,192,105453,1,0,0:0:0:0:
109,192,105625,1,2,0:0:0:0:
402,192,105625,1,4,0:0:0:0:
256,192,105625,128,0,105796:0:0:0:0:
475,192,105882,1,0,0:0:0:0:
329,192,105967,1,0,0:0:0:0:
36,192,105967,1,2,0:0:0:0:
256,192,106139,1,0,0:0:0:0:
182,192,106310,1,2,0:0:0:0:
329,192,106310,1,0,0:0:0:0:
109,192,106396,1,0,0:0:0:0:
475,192,106482,1,0,0:0:0:0:
402,192,106567,1,0,0:0:0:0:
329,192,106653,128,0,106825:0:0:0:0:
36,192,106653,1,2,0:0:0:0:
109,192,106825,128,0,106996:0:0:0:0:
402,192,106996,128,0,107167:0:0:0:0:
256,192,106996,1,2,0:0:0:0:
182,192,107253,1,0,0:0:0:0:
36,192,107339,1,2,0:0:0:0:
329,192,107339,1,0,0:0:0:0:
402,192,107425,1,0,0:0:0:0:
475,192,107510,1,0,0:0:0:0:
182,192,107596,1,0,0:0:0:0:
256,192,107682,1,2,0:0:0:0:
329,192,107767,1,0,0:0:0:0:
36,192,107853,1,0,0:0:0:0:
109,192,107939,1,0,0:0:0:0:
182,192,108025,1,2,0:0:0:0:
402,192,108025,1,0,0:0:0:0:
109,192,108196,1,0,0:0:0:0:
329,192,108196,1,0,0:0:0:0:
36,192,108367,1,2,0:0:0:0:
475,192,108367,1,4,0:0:0:0:
109,192,108539,1,0,0:0:0:0:
182,192,108625,1,0,0:0:0:0:
256,192,108710,1,0,0:0:0:0:
36,192,108882,1,2,0:0:0:0:
475,192,108882,1,0,0:0:0:0:
182,192,109053,1,0,0:0:0:0:
256,192,109139,1,0,0:0:0:0:
329,192,109225,1,0,0:0:0:0:
36,192,109396,1,2,0:0:0:0:
475,192,109396,1,4,0:0:0:0:
256,192,109567,1,0,0:0:0:0:
329,192,109653,1,0,0:0:0:0:
402,192,109739,1,0,0:0:0:0:
36,192,109910,1,2,0:0:0:0:
475,192,109910,1,0,0:0:0:0:
182,192,109996,1,0,0:0:0:0:
329,192,110082,1,0,0:0:0:0:
109,192,110167,1,0,0:0:0:0:
256,192,110253,1,2,0:0:0:0:
402,192,110339,1,0,0:0:0:0:
475,192,110425,1,0,0:0:0:0:
36,192,110425,1,2,0:0:0:0:
402,192,110596,1,0,0:0:0:0:
109,192,110596,1,2,0:0:0:0:
36,192,110767,128,0,111110:0:0:0:0:
475,192,110767,128,0,111110:0:0:0:0:
256,192,110767,128,2,111110:0:0:0:0:
182,192,111110,1,2,0:0:0:0:
329,192,111110,1,4,0:0:0:0:
109,192,111282,1,0,0:0:0:0:
256,192,111453,1,2,0:0:0:0:
475,192,111625,1,0,0:0:0:0:
182,192,111625,128,0,111796:0:0:0:0:
402,192,111796,1,2,0:0:0:0:
256,192,111967,1,0,0:0:0:0:
36,192,111967,128,0,112139:0:0:0:0:
109,192,112139,1,2,0:0:0:0:
402,192,112310,1,0,0:0:0:0:
182,192,112310,1,0,0:0:0:0:
475,192,112310,1,0,0:0:0:0:
36,192,112482,1,2,0:0:0:0:
329,192,112482,1,0,0:0:0:0:
109,192,112653,1,0,0:0:0:0:
182,192,112825,1,2,0:0:0:0:
402,192,112825,128,0,112996:0:0:0:0:
256,192,112996,1,0,0:0:0:0:
475,192,113167,1,2,0:0:0:0:
109,192,113167,128,0,113339:0:0:0:0:
402,192,113339,1,0,0:0:0:0:
329,192,113510,1,2,0:0:0:0:
36,192,113510,128,0,113682:0:0:0:0:
256,192,113682,1,0,0:0:0:0:
329,192,113853,128,0,114196:0:0:0:0:
402,192,113853,1,0,0:0:0:0:
109,192,113853,1,2,0:0:0:0:
36,192,114025,1,0,0:0:0:0:
182,192,114196,1,2,0:0:0:0:
402,192,114367,128,0,114539:0:0:0:0:
256,192,114367,1,0,0:0:0:0:
109,192,114539,1,2,0:0:0:0:
402,192,114710,128,0,114882:0:0:0:0:
182,192,114710,1,0,0:0:0:0:
36,192,114882,1,2,0:0:0:0:
475,192,115053,1,0,0:0:0:0:
256,192,115053,1,0,0:0:0:0:
109,192,115053,1,0,0:0:0:0:
182,192,115225,1,2,0:0:0:0:
329,192,115225,1,0,0:0:0:0:
36,192,115396,1,0,0:0:0:0:
256,192,115567,1,0,0:0:0:0:
109,192,115567,1,2,0:0:0:0:
475,192,115739,1,0,0:0:0:0:
109,192,115910,128,0,116082:0:0:0:0:
329,192,115910,1,2,0:0:0:0:
256,192,116082,128,0,116253:0:0:0:0:
475,192,116253,128,0,116425:0:0:0:0:
36,192,116253,1,2,0:0:0:0:
402,192,116425,128,0,116596:0:0:0:0:
109,192,116425,1,2,0:0:0:0:
36,192,116596,1,2,0:0:0:0:
182,192,116596,1,4,0:0:0:0:
256,192,116767,1,0,0:0:0:0:
329,192,116939,1,0,0:0:0:0:
109,192,116939,1,2,0:0:0:0:
475,192,117110,1,0,0:0:0:0:
182,192,117110,128,0,117282:0:0:0:0:
402,192,117282,1,2,0:0:0:0:
109,192,117453,1,0,0:0:0:0:
329,192,117453,128,0,117625:0:0:0:0:
36,192,117625,1,2,0:0:0:0:
256,192,117796,1,0,0:0:0:0:
475,192,117796,1,0,0:0:0:0:
182,192,117796,1,0,0:0:0:0:
109,192,117967,1,2,0:0:0:0:
402,192,117967,1,4,0:0:0:0:
329,192,117967,1,0,0:0:0:0:
36,192,118139,1,0,0:0:0:0:
182,192,118310,1,2,0:0:0:0:
475,192,118310,1,0,0:0:0:0:
329,192,118482,1,0,0:0:0:0:
256,192,118653,1,0,0:0:0:0:
109,192,118653,1,2,0:0:0:0:
475,192,118825,1,0,0:0:0:0:
402,192,118996,1,0,0:0:0:0:
182,192,118996,1,2,0:0:0:0:
109,192,119167,1,0,0:0:0:0:
36,192,119339,1,2,0:0:0:0:
182,192,119339,1,4,0:0:0:0:
256,192,119339,1,0,0:0:0:0:
329,192,119510,1,2,0:0:0:0:
475,192,119510,1,0,0:0:0:0:
182,192,119682,1,0,0:0:0:0:
36,192,119682,1,2,0:0:0:0:
402,192,119853,1,2,0:0:0:0:
475,192,119853,1,0,0:0:0:0:
36,192,120025,1,2,0:0:0:0:
109,192,120025,1,4,0:0:0:0:
329,192,120196,1,2,0:0:0:0:
402,192,120196,1,0,0:0:0:0:
109,192,120367,1,2,0:0:0:0:
182,192,120367,1,0,0:0:0:0:
256,192,120539,1,2,0:0:0:0:
329,192,120539,1,0,0:0:0:0:
36,192,120710,1,2,0:0:0:0:
475,192,120710,1,0,0:0:0:0:
256,192,120710,1,0,0:0:0:0:
109,192,120967,1,2,0:0:0:0:
402,192,120967,1,0,0:0:0:0:
256,192,120967,1,0,0:0:0:0:
182,192,121225,1,2,0:0:0:0:
329,192,121225,1,0,0:0:0:0:
256,192,121225,1,0,0:0:0:0:
36,192,121567,128,2,122082:0:0:0:0:
475,192,121567,128,4,122082:0:0:0:0:
256,192,121567,128,0,124825:0:0:0:0:
