osu file format v13

[General]
AudioFilename: Memme - China Dress.mp3
AudioLeadIn: 2000
PreviewTime: 61744
Countdown: 0
SampleSet: Soft
StackLeniency: 0.7
Mode: 3
LetterboxInBreaks: 0
SpecialStyle: 0
WidescreenStoryboard: 1

[Editor]
Bookmarks: 12287,17858,28830,39801,50772,61744,72715,83687,89172,100144,111115
DistanceSpacing: 1.5
BeatDivisor: 2
GridSize: 8
TimelineZoom: 0.8999999

[Metadata]
Title:China Dress
TitleUnicode:China Dress
Artist:Memme
ArtistUnicode:Memme
Creator:Tear
Version:7K Easy
Source:O2Jam U
Tags:shiro yoeri zexous odaril cheesiest priti oriental core
BeatmapID:372317
BeatmapSetID:137665

[Difficulty]
HPDrainRate:7
CircleSize:7
OverallDifficulty:6
ApproachRate:5
SliderMultiplier:1.4
SliderTickRate:1

[Events]
//Background and Video events
0,0,"china_dress.jpg",0,0
//Break Periods
//Storyboard Layer 0 (Background)
//Storyboard Layer 1 (Fail)
//Storyboard Layer 2 (Pass)
//Storyboard Layer 3 (Foreground)
//Storyboard Sound Samples
//Background Colour Transformations
3,100,163,162,255

[TimingPoints]
25,342.857142857143,4,2,1,100,1,0
61739,-100,4,2,1,100,0,1
72710,-100,4,2,1,100,0,0
89167,-100,4,2,1,100,0,1
100139,-100,4,2,1,100,0,0
100482,-100,4,2,1,100,0,1
111110,-100,4,2,1,100,0,0

[HitObjects]
182,192,1396,128,6,1910:0:0:0:0:
329,192,1910,1,2,0:0:0:0:
109,192,2253,1,2,0:0:0:0:
402,192,2596,128,6,3110:0:0:0:0:
36,192,3110,1,2,0:0:0:0:
329,192,3453,1,2,0:0:0:0:
109,192,3796,1,2,0:0:0:0:
256,192,4139,128,6,4653:0:0:0:0:
329,192,4653,1,2,0:0:0:0:
329,192,4996,1,2,0:0:0:0:
402,192,5339,128,6,6196:0:0:0:0:
109,192,5853,1,2,0:0:0:0:
329,192,6196,128,2,6882:0:0:0:0:
182,192,6539,1,2,0:0:0:0:
36,192,6882,1,6,0:0:0:0:
109,192,7225,1,2,0:0:0:0:
475,192,7567,1,2,0:0:0:0:
402,192,7910,1,2,0:0:0:0:
109,192,8253,1,6,0:0:0:0:
182,192,8596,1,2,0:0:0:0:
402,192,8939,1,2,0:0:0:0:
329,192,9282,1,2,0:0:0:0:
182,192,9625,128,2,10996:0:0:0:0:
329,192,10310,128,2,10996:0:0:0:0:
109,192,10996,1,2,0:0:0:0:
256,192,11339,1,8,0:0:0:0:
402,192,11682,1,8,0:0:0:0:
256,192,12367,1,6,0:0:0:0:
402,192,12539,1,0,0:0:0:0:
329,192,12882,1,0,0:0:0:0:
329,192,13225,1,0,0:0:0:0:
109,192,13567,1,0,0:0:0:0:
109,192,13910,1,0,0:0:0:0:
182,192,14253,1,0,0:0:0:0:
182,192,14596,1,0,0:0:0:0:
182,192,14939,1,0,0:0:0:0:
256,192,15110,1,6,0:0:0:0:
402,192,15282,1,0,0:0:0:0:
329,192,15625,1,0,0:0:0:0:
329,192,15967,1,0,0:0:0:0:
329,192,16310,1,0,0:0:0:0:
109,192,16482,1,2,0:0:0:0:
402,192,16653,1,2,0:0:0:0:
109,192,16825,1,2,0:0:0:0:
475,192,17167,1,2,0:0:0:0:
402,192,17510,1,2,0:0:0:0:
256,192,17853,1,6,0:0:0:0:
109,192,18196,1,2,0:0:0:0:
329,192,18539,1,2,0:0:0:0:
109,192,18882,1,2,0:0:0:0:
402,192,19225,1,6,0:0:0:0:
329,192,19567,1,2,0:0:0:0:
109,192,19739,1,2,0:0:0:0:
402,192,20082,1,2,0:0:0:0:
182,192,20253,1,2,0:0:0:0:
256,192,20596,1,6,0:0:0:0:
182,192,20939,1,2,0:0:0:0:
329,192,21282,1,2,0:0:0:0:
402,192,21625,1,2,0:0:0:0:
109,192,21967,1,6,0:0:0:0:
109,192,22310,1,2,0:0:0:0:
182,192,22653,1,2,0:0:0:0:
182,192,22996,1,2,0:0:0:0:
182,192,23167,1,2,0:0:0:0:
256,192,23339,1,6,0:0:0:0:
109,192,23682,1,2,0:0:0:0:
329,192,24025,1,2,0:0:0:0:
475,192,24367,1,2,0:0:0:0:
256,192,24710,1,6,0:0:0:0:
182,192,25053,1,2,0:0:0:0:
329,192,25225,1,2,0:0:0:0:
109,192,25567,1,2,0:0:0:0:
402,192,25739,1,2,0:0:0:0:
36,192,26082,1,6,0:0:0:0:
36,192,26425,1,2,0:0:0:0:
109,192,26767,1,6,0:0:0:0:
109,192,27110,1,2,0:0:0:0:
256,192,27453,1,6,0:0:0:0:
475,192,27796,1,2,0:0:0:0:
182,192,27967,1,2,0:0:0:0:
402,192,28139,1,0,0:0:0:0:
256,192,28482,1,2,0:0:0:0:
182,192,28653,1,2,0:0:0:0:
109,192,28825,1,2,0:0:0:0:
256,192,29167,1,2,0:0:0:0:
402,192,29510,1,2,0:0:0:0:
182,192,30025,128,6,30539:0:0:0:0:
402,192,30539,1,2,0:0:0:0:
329,192,30882,1,2,0:0:0:0:
109,192,31225,1,2,0:0:0:0:
256,192,31567,1,2,0:0:0:0:
256,192,31910,1,2,0:0:0:0:
475,192,32253,1,2,0:0:0:0:
329,192,32767,128,6,33282:0:0:0:0:
109,192,33282,1,2,0:0:0:0:
402,192,33625,1,2,0:0:0:0:
256,192,33796,1,2,0:0:0:0:
109,192,33967,1,2,0:0:0:0:
329,192,34310,1,2,0:0:0:0:
329,192,34653,1,2,0:0:0:0:
182,192,34996,1,2,0:0:0:0:
182,192,35167,1,2,0:0:0:0:
402,192,35510,128,6,36025:0:0:0:0:
182,192,36025,1,2,0:0:0:0:
256,192,36367,1,2,0:0:0:0:
109,192,36539,1,2,0:0:0:0:
475,192,36710,1,2,0:0:0:0:
402,192,37053,1,2,0:0:0:0:
109,192,37396,1,2,0:0:0:0:
329,192,37739,1,2,0:0:0:0:
256,192,37910,1,2,0:0:0:0:
109,192,38253,128,6,38767:0:0:0:0:
329,192,38767,1,2,0:0:0:0:
475,192,39110,1,2,0:0:0:0:
256,192,39282,1,2,0:0:0:0:
36,192,39453,1,2,0:0:0:0:
329,192,39796,1,6,0:0:0:0:
182,192,40139,1,2,0:0:0:0:
329,192,40482,1,2,0:0:0:0:
256,192,40653,1,0,0:0:0:0:
182,192,40825,1,2,0:0:0:0:
402,192,40996,1,0,0:0:0:0:
402,192,41510,1,2,0:0:0:0:
256,192,41853,1,2,0:0:0:0:
109,192,42196,1,2,0:0:0:0:
36,192,42539,1,6,0:0:0:0:
182,192,42882,1,2,0:0:0:0:
36,192,43225,1,2,0:0:0:0:
109,192,43396,1,0,0:0:0:0:
182,192,43567,1,2,0:0:0:0:
402,192,43739,1,0,0:0:0:0:
402,192,44253,1,2,0:0:0:0:
36,192,44596,1,2,0:0:0:0:
329,192,44939,1,2,0:0:0:0:
182,192,45282,1,6,0:0:0:0:
182,192,45625,1,2,0:0:0:0:
475,192,45967,1,2,0:0:0:0:
329,192,46139,1,0,0:0:0:0:
402,192,46482,1,0,0:0:0:0:
256,192,46996,1,2,0:0:0:0:
329,192,47339,1,2,0:0:0:0:
109,192,47682,1,2,0:0:0:0:
182,192,48025,1,6,0:0:0:0:
182,192,48367,1,2,0:0:0:0:
402,192,48710,1,2,0:0:0:0:
329,192,49053,1,2,0:0:0:0:
256,192,49396,1,2,0:0:0:0:
256,192,49653,1,2,0:0:0:0:
256,192,49910,1,2,0:0:0:0:
36,192,50253,1,2,0:0:0:0:
475,192,50253,1,0,0:0:0:0:
182,192,50767,1,6,0:0:0:0:
109,192,51110,1,0,0:0:0:0:
475,192,51453,1,8,0:0:0:0:
402,192,51967,1,2,0:0:0:0:
256,192,52139,1,0,0:0:0:0:
182,192,52482,1,0,0:0:0:0:
402,192,52825,1,8,0:0:0:0:
109,192,53167,1,2,0:0:0:0:
36,192,53510,1,2,0:0:0:0:
182,192,53853,1,0,0:0:0:0:
475,192,54196,1,8,0:0:0:0:
402,192,54710,1,2,0:0:0:0:
256,192,54882,1,0,0:0:0:0:
182,192,55225,1,2,0:0:0:0:
329,192,55567,128,8,56253:0:0:0:0:
109,192,55910,1,2,0:0:0:0:
36,192,56253,1,6,0:0:0:0:
182,192,56596,1,0,0:0:0:0:
402,192,56939,1,8,0:0:0:0:
329,192,57282,1,0,0:0:0:0:
475,192,57453,1,2,0:0:0:0:
109,192,57625,1,0,0:0:0:0:
256,192,57967,1,0,0:0:0:0:
329,192,58310,1,8,0:0:0:0:
36,192,58653,1,2,0:0:0:0:
109,192,58996,1,2,0:0:0:0:
182,192,59339,1,0,0:0:0:0:
329,192,59682,1,8,0:0:0:0:
402,192,60025,1,0,0:0:0:0:
475,192,60367,1,2,0:0:0:0:
109,192,60710,1,2,0:0:0:0:
402,192,60882,1,8,0:0:0:0:
256,192,61396,1,2,0:0:0:0:
109,192,61739,1,2,0:0:0:0:
402,192,61739,1,4,0:0:0:0:
256,192,62082,1,2,0:0:0:0:
182,192,62253,1,0,0:0:0:0:
329,192,62596,1,0,0:0:0:0:
182,192,62939,1,0,0:0:0:0:
402,192,63110,1,2,0:0:0:0:
475,192,63453,1,2,0:0:0:0:
36,192,63796,1,2,0:0:0:0:
109,192,64139,1,2,0:0:0:0:
329,192,64482,128,6,64825:0:0:0:0:
36,192,64825,1,0,0:0:0:0:
182,192,65167,128,6,65510:0:0:0:0:
475,192,65510,1,0,0:0:0:0:
402,192,65853,1,6,0:0:0:0:
256,192,66196,1,2,0:0:0:0:
109,192,66539,1,2,0:0:0:0:
36,192,66882,1,2,0:0:0:0:
36,192,67053,1,2,0:0:0:0:
329,192,67225,1,6,0:0:0:0:
182,192,67567,1,2,0:0:0:0:
402,192,67739,1,0,0:0:0:0:
329,192,68082,1,0,0:0:0:0:
256,192,68425,1,0,0:0:0:0:
36,192,68596,1,2,0:0:0:0:
402,192,68939,1,2,0:0:0:0:
109,192,69282,1,2,0:0:0:0:
475,192,69625,1,2,0:0:0:0:
109,192,69967,1,6,0:0:0:0:
182,192,70482,1,2,0:0:0:0:
329,192,70996,1,6,0:0:0:0:
402,192,71510,1,2,0:0:0:0:
182,192,72025,1,2,0:0:0:0:
329,192,72196,1,2,0:0:0:0:
182,192,72367,1,2,0:0:0:0:
182,192,72710,1,2,0:0:0:0:
329,192,72710,1,4,0:0:0:0:
36,192,73053,1,2,0:0:0:0:
256,192,73396,1,2,0:0:0:0:
109,192,73739,1,2,0:0:0:0:
329,192,74082,1,2,0:0:0:0:
182,192,74425,1,2,0:0:0:0:
402,192,74767,1,2,0:0:0:0:
256,192,75110,1,2,0:0:0:0:
475,192,75453,1,2,0:0:0:0:
329,192,75796,1,2,0:0:0:0:
256,192,76139,1,2,0:0:0:0:
182,192,76482,1,2,0:0:0:0:
36,192,76825,1,2,0:0:0:0:
109,192,77167,1,2,0:0:0:0:
475,192,77510,1,2,0:0:0:0:
402,192,77853,1,2,0:0:0:0:
256,192,78196,1,6,0:0:0:0:
475,192,78539,1,10,0:0:0:0:
109,192,78882,1,2,0:0:0:0:
182,192,79053,1,0,0:0:0:0:
475,192,79225,1,10,0:0:0:0:
109,192,79567,1,2,0:0:0:0:
402,192,79910,1,10,0:0:0:0:
36,192,80253,1,2,0:0:0:0:
109,192,80425,1,0,0:0:0:0:
402,192,80596,1,10,0:0:0:0:
182,192,80939,1,2,0:0:0:0:
182,192,81282,1,10,0:0:0:0:
329,192,81453,1,0,0:0:0:0:
329,192,81796,1,0,0:0:0:0:
256,192,82139,1,2,0:0:0:0:
109,192,82482,1,2,0:0:0:0:
402,192,82653,1,2,0:0:0:0:
109,192,82825,1,2,0:0:0:0:
475,192,82996,1,8,0:0:0:0:
36,192,83339,1,0,0:0:0:0:
402,192,83682,1,6,0:0:0:0:
402,192,84025,1,2,0:0:0:0:
256,192,84196,1,0,0:0:0:0:
256,192,84539,1,0,0:0:0:0:
109,192,84882,1,0,0:0:0:0:
109,192,85225,1,0,0:0:0:0:
256,192,85567,1,0,0:0:0:0:
256,192,85910,1,0,0:0:0:0:
256,192,86253,1,0,0:0:0:0:
475,192,86425,1,6,0:0:0:0:
329,192,86767,1,2,0:0:0:0:
182,192,87110,1,2,0:0:0:0:
36,192,87453,1,2,0:0:0:0:
256,192,87796,1,2,0:0:0:0:
256,192,87967,1,2,0:0:0:0:
329,192,88139,1,2,0:0:0:0:
475,192,88482,1,2,0:0:0:0:
402,192,88825,1,2,0:0:0:0:
182,192,89167,1,2,0:0:0:0:
329,192,89167,1,4,0:0:0:0:
109,192,89510,1,2,0:0:0:0:
36,192,89682,1,0,0:0:0:0:
475,192,90025,1,0,0:0:0:0:
402,192,90196,1,2,0:0:0:0:
329,192,90367,1,0,0:0:0:0:
256,192,90539,1,2,0:0:0:0:
182,192,90882,1,2,0:0:0:0:
402,192,91225,1,2,0:0:0:0:
329,192,91567,1,2,0:0:0:0:
182,192,91910,128,6,92253:0:0:0:0:
329,192,92253,1,2,0:0:0:0:
109,192,92596,128,6,92939:0:0:0:0:
256,192,92939,1,2,0:0:0:0:
402,192,93282,1,6,0:0:0:0:
402,192,93625,1,2,0:0:0:0:
329,192,93967,1,2,0:0:0:0:
329,192,94310,1,2,0:0:0:0:
329,192,94482,1,2,0:0:0:0:
109,192,94653,1,6,0:0:0:0:
109,192,94996,1,2,0:0:0:0:
256,192,95167,1,0,0:0:0:0:
475,192,95510,1,0,0:0:0:0:
402,192,95853,1,0,0:0:0:0:
182,192,96025,1,2,0:0:0:0:
36,192,96367,1,2,0:0:0:0:
475,192,96710,1,2,0:0:0:0:
329,192,97053,1,2,0:0:0:0:
256,192,97396,1,6,0:0:0:0:
109,192,97739,1,0,0:0:0:0:
182,192,97910,1,2,0:0:0:0:
329,192,98253,1,0,0:0:0:0:
402,192,98425,1,6,0:0:0:0:
109,192,98767,1,0,0:0:0:0:
36,192,98939,1,2,0:0:0:0:
329,192,99282,1,2,0:0:0:0:
256,192,99453,1,2,0:0:0:0:
182,192,99625,1,2,0:0:0:0:
36,192,99796,1,2,0:0:0:0:
329,192,100482,1,2,0:0:0:0:
475,192,100482,1,4,0:0:0:0:
182,192,100825,1,2,0:0:0:0:
109,192,101167,1,2,0:0:0:0:
402,192,101510,128,2,101853:0:0:0:0:
182,192,101853,1,2,0:0:0:0:
109,192,102196,128,2,102539:0:0:0:0:
329,192,102539,1,2,0:0:0:0:
256,192,102882,1,6,0:0:0:0:
402,192,103225,1,2,0:0:0:0:
109,192,103567,1,6,0:0:0:0:
256,192,103910,1,2,0:0:0:0:
109,192,104253,1,6,0:0:0:0:
182,192,104596,1,2,0:0:0:0:
402,192,104939,1,2,0:0:0:0:
329,192,105282,1,2,0:0:0:0:
329,192,105453,1,2,0:0:0:0:
402,192,105625,1,4,0:0:0:0:
109,192,105625,1,2,0:0:0:0:
182,192,105967,1,2,0:0:0:0:
256,192,106310,128,2,106653:0:0:0:0:
329,192,106653,1,2,0:0:0:0:
475,192,106996,1,2,0:0:0:0:
402,192,107339,1,2,0:0:0:0:
329,192,107682,128,2,108025:0:0:0:0:
182,192,108025,128,2,108367:0:0:0:0:
36,192,108367,1,6,0:0:0:0:
109,192,108710,1,0,0:0:0:0:
182,192,108882,1,2,0:0:0:0:
329,192,109225,1,0,0:0:0:0:
256,192,109396,1,6,0:0:0:0:
402,192,109739,1,0,0:0:0:0:
475,192,109910,1,2,0:0:0:0:
109,192,110253,1,2,0:0:0:0:
182,192,110425,1,2,0:0:0:0:
256,192,110596,1,2,0:0:0:0:
329,192,110767,128,2,111110:0:0:0:0:
36,192,111110,1,6,0:0:0:0:
109,192,111453,1,2,0:0:0:0:
402,192,111625,1,0,0:0:0:0:
402,192,111967,1,0,0:0:0:0:
475,192,112310,1,0,0:0:0:0:
182,192,112825,1,2,0:0:0:0:
329,192,113167,1,2,0:0:0:0:
182,192,113510,1,2,0:0:0:0:
109,192,113853,128,2,114367:0:0:0:0:
329,192,114367,1,0,0:0:0:0:
329,192,114710,1,0,0:0:0:0:
402,192,115053,128,0,115910:0:0:0:0:
109,192,115567,1,2,0:0:0:0:
329,192,115910,128,0,116596:0:0:0:0:
36,192,115910,1,2,0:0:0:0:
182,192,116596,1,6,0:0:0:0:
36,192,116939,1,2,0:0:0:0:
256,192,117282,1,2,0:0:0:0:
109,192,117625,1,2,0:0:0:0:
329,192,117967,1,6,0:0:0:0:
182,192,118310,1,2,0:0:0:0:
402,192,118653,1,2,0:0:0:0:
256,192,118996,1,2,0:0:0:0:
109,192,119339,128,6,120710:0:0:0:0:
402,192,120025,128,2,120710:0:0:0:0:
256,192,120710,1,2,0:0:0:0:
256,192,120967,1,2,0:0:0:0:
256,192,121225,1,2,0:0:0:0:
182,192,121567,1,2,0:0:0:0:
329,192,121567,1,4,0:0:0:0:
