osu file format v13

[General]
AudioFilename: Memme - China Dress.mp3
AudioLeadIn: 2000
PreviewTime: 61744
Countdown: 0
SampleSet: Soft
StackLeniency: 0.7
Mode: 3
LetterboxInBreaks: 0
SpecialStyle: 0
WidescreenStoryboard: 1

[Editor]
Bookmarks: 12287,17858,28830,39801,50772,61744,72715,83687,89172,100144,111115
DistanceSpacing: 1.5
BeatDivisor: 2
GridSize: 8
TimelineZoom: 1.3

[Metadata]
Title:China Dress
TitleUnicode:China Dress
Artist:Memme
ArtistUnicode:Memme
Creator:Tear
Version:7K Beginner
Source:O2Jam U
Tags:shiro yoeri zexous odaril cheesiest priti oriental core
BeatmapID:378615
BeatmapSetID:137665

[Difficulty]
HPDrainRate:7
CircleSize:7
OverallDifficulty:6
ApproachRate:5
SliderMultiplier:1.4
SliderTickRate:1

[Events]
//Background and Video events
0,0,"china_dress.jpg",0,0
//Break Periods
//Storyboard Layer 0 (Background)
//Storyboard Layer 1 (Fail)
//Storyboard Layer 2 (Pass)
//Storyboard Layer 3 (Foreground)
//Storyboard Sound Samples
//Background Colour Transformations
3,100,163,162,255

[TimingPoints]
25,342.857142857143,4,2,1,100,1,0
61739,-100,4,2,1,100,0,1
72710,-100,4,2,1,100,0,0
89167,-100,4,2,1,100,0,1
100139,-100,4,2,1,100,0,0
100482,-100,4,2,1,100,0,1
111110,-100,4,2,1,100,0,0

[HitObjects]
256,192,1396,5,6,0:0:0:0:
109,192,1910,1,2,0:0:0:0:
402,192,2596,1,6,0:0:0:0:
475,192,3453,1,2,0:0:0:0:
329,192,3796,1,2,0:0:0:0:
109,192,4139,1,6,0:0:0:0:
182,192,4653,1,2,0:0:0:0:
329,192,5339,1,6,0:0:0:0:
256,192,6196,1,2,0:0:0:0:
36,192,6882,1,6,0:0:0:0:
109,192,7567,1,2,0:0:0:0:
475,192,8253,1,6,0:0:0:0:
402,192,8939,1,2,0:0:0:0:
256,192,9625,128,6,10996:0:0:0:0:
256,192,12367,1,2,0:0:0:0:
109,192,12882,1,0,0:0:0:0:
402,192,13567,1,0,0:0:0:0:
329,192,14253,1,0,0:0:0:0:
109,192,15110,1,6,0:0:0:0:
182,192,15625,1,0,0:0:0:0:
256,192,16482,1,2,0:0:0:0:
256,192,16825,1,2,0:0:0:0:
402,192,17167,128,2,17853:0:0:0:0:
182,192,17853,1,6,0:0:0:0:
109,192,18539,1,2,0:0:0:0:
256,192,19225,1,2,0:0:0:0:
475,192,19739,1,2,0:0:0:0:
402,192,20253,1,2,0:0:0:0:
256,192,20596,1,6,0:0:0:0:
402,192,21282,1,2,0:0:0:0:
36,192,21967,1,6,0:0:0:0:
109,192,22653,1,2,0:0:0:0:
256,192,23339,1,6,0:0:0:0:
256,192,24025,1,2,0:0:0:0:
329,192,24710,1,6,0:0:0:0:
475,192,25225,1,2,0:0:0:0:
402,192,25739,1,2,0:0:0:0:
109,192,26082,1,6,0:0:0:0:
182,192,26767,1,6,0:0:0:0:
109,192,27453,1,6,0:0:0:0:
256,192,27796,1,2,0:0:0:0:
402,192,28139,1,2,0:0:0:0:
182,192,28825,1,2,0:0:0:0:
329,192,29510,1,2,0:0:0:0:
256,192,30025,128,6,30882:0:0:0:0:
402,192,30882,1,2,0:0:0:0:
109,192,31567,1,2,0:0:0:0:
475,192,32253,1,2,0:0:0:0:
182,192,32767,128,6,33625:0:0:0:0:
329,192,33625,1,2,0:0:0:0:
256,192,34310,1,2,0:0:0:0:
109,192,34996,1,2,0:0:0:0:
182,192,35510,128,6,36367:0:0:0:0:
36,192,36367,1,2,0:0:0:0:
329,192,37053,1,2,0:0:0:0:
402,192,37739,1,2,0:0:0:0:
182,192,38253,1,6,0:0:0:0:
329,192,38767,1,2,0:0:0:0:
475,192,39110,1,2,0:0:0:0:
256,192,39796,1,6,0:0:0:0:
109,192,40482,1,2,0:0:0:0:
329,192,40996,1,0,0:0:0:0:
402,192,41510,1,2,0:0:0:0:
329,192,41853,1,2,0:0:0:0:
36,192,42539,1,6,0:0:0:0:
182,192,43225,1,2,0:0:0:0:
329,192,43739,1,0,0:0:0:0:
475,192,44253,1,2,0:0:0:0:
329,192,44596,1,2,0:0:0:0:
109,192,45282,1,6,0:0:0:0:
475,192,45967,1,2,0:0:0:0:
402,192,46482,1,0,0:0:0:0:
182,192,46996,1,2,0:0:0:0:
256,192,47339,1,2,0:0:0:0:
109,192,48025,1,6,0:0:0:0:
182,192,48710,1,2,0:0:0:0:
256,192,49396,1,2,0:0:0:0:
256,192,49910,1,2,0:0:0:0:
402,192,50253,128,2,50767:0:0:0:0:
109,192,50767,1,6,0:0:0:0:
329,192,51453,1,8,0:0:0:0:
36,192,51967,1,2,0:0:0:0:
256,192,52825,1,8,0:0:0:0:
109,192,53510,1,2,0:0:0:0:
475,192,54196,1,8,0:0:0:0:
329,192,54710,1,2,0:0:0:0:
182,192,55567,128,2,56253:0:0:0:0:
329,192,56253,1,6,0:0:0:0:
109,192,56939,1,8,0:0:0:0:
329,192,57453,1,2,0:0:0:0:
256,192,58310,1,8,0:0:0:0:
402,192,58996,128,0,60367:0:0:0:0:
109,192,58996,128,2,60367:0:0:0:0:
182,192,61739,1,2,0:0:0:0:
329,192,61739,1,0,0:0:0:0:
109,192,62425,1,2,0:0:0:0:
256,192,63110,1,2,0:0:0:0:
402,192,63796,1,2,0:0:0:0:
36,192,64482,1,6,0:0:0:0:
475,192,65167,1,6,0:0:0:0:
109,192,65853,1,6,0:0:0:0:
402,192,66539,1,2,0:0:0:0:
329,192,66882,1,2,0:0:0:0:
182,192,67225,1,6,0:0:0:0:
329,192,67910,1,2,0:0:0:0:
109,192,68596,1,2,0:0:0:0:
475,192,69282,1,2,0:0:0:0:
109,192,69967,1,6,0:0:0:0:
182,192,70482,1,2,0:0:0:0:
256,192,70996,1,6,0:0:0:0:
329,192,71510,1,2,0:0:0:0:
402,192,72025,128,6,72710:0:0:0:0:
109,192,72710,1,6,0:0:0:0:
329,192,73396,1,2,0:0:0:0:
256,192,74082,1,2,0:0:0:0:
182,192,74767,1,2,0:0:0:0:
36,192,75453,1,2,0:0:0:0:
402,192,76139,1,2,0:0:0:0:
329,192,76825,128,2,77510:0:0:0:0:
182,192,77510,128,2,78196:0:0:0:0:
402,192,78539,1,10,0:0:0:0:
109,192,79225,1,10,0:0:0:0:
475,192,79910,1,10,0:0:0:0:
329,192,80596,1,10,0:0:0:0:
36,192,81282,1,10,0:0:0:0:
256,192,82139,1,2,0:0:0:0:
256,192,82653,1,2,0:0:0:0:
402,192,83682,1,6,0:0:0:0:
329,192,84196,1,0,0:0:0:0:
109,192,84882,1,0,0:0:0:0:
182,192,85567,1,0,0:0:0:0:
402,192,86425,128,10,86939:0:0:0:0:
109,192,86939,128,0,87453:0:0:0:0:
256,192,87796,1,2,0:0:0:0:
256,192,88139,1,2,0:0:0:0:
182,192,89167,1,2,0:0:0:0:
329,192,89167,1,4,0:0:0:0:
475,192,89682,1,0,0:0:0:0:
402,192,90196,1,2,0:0:0:0:
109,192,90539,1,2,0:0:0:0:
256,192,91053,1,0,0:0:0:0:
36,192,91567,1,2,0:0:0:0:
329,192,91910,1,6,0:0:0:0:
182,192,92596,1,6,0:0:0:0:
36,192,93282,1,6,0:0:0:0:
475,192,93967,1,2,0:0:0:0:
329,192,94310,1,2,0:0:0:0:
109,192,94653,1,6,0:0:0:0:
256,192,95167,1,0,0:0:0:0:
402,192,95682,1,2,0:0:0:0:
182,192,96025,1,2,0:0:0:0:
329,192,96539,1,0,0:0:0:0:
109,192,97053,1,2,0:0:0:0:
36,192,97396,1,6,0:0:0:0:
182,192,97910,1,2,0:0:0:0:
329,192,98425,1,6,0:0:0:0:
475,192,98939,1,2,0:0:0:0:
256,192,99453,1,2,0:0:0:0:
109,192,100482,1,2,0:0:0:0:
402,192,100482,1,4,0:0:0:0:
256,192,101167,1,2,0:0:0:0:
109,192,101510,1,2,0:0:0:0:
402,192,102196,1,2,0:0:0:0:
329,192,102539,1,2,0:0:0:0:
36,192,102882,1,6,0:0:0:0:
402,192,103567,1,6,0:0:0:0:
109,192,104253,1,6,0:0:0:0:
475,192,104939,1,2,0:0:0:0:
329,192,105282,1,2,0:0:0:0:
182,192,105625,1,6,0:0:0:0:
109,192,106310,1,2,0:0:0:0:
402,192,106996,1,2,0:0:0:0:
329,192,107339,1,2,0:0:0:0:
256,192,107682,1,2,0:0:0:0:
109,192,108367,1,6,0:0:0:0:
256,192,108882,1,2,0:0:0:0:
402,192,109396,1,6,0:0:0:0:
256,192,109910,128,2,110425:0:0:0:0:
256,192,110767,1,2,0:0:0:0:
36,192,111110,1,2,0:0:0:0:
475,192,111110,1,4,0:0:0:0:
402,192,111625,1,0,0:0:0:0:
109,192,112310,1,0,0:0:0:0:
329,192,112825,1,2,0:0:0:0:
475,192,113167,1,2,0:0:0:0:
36,192,113853,1,2,0:0:0:0:
109,192,114367,1,0,0:0:0:0:
475,192,115053,128,0,115910:0:0:0:0:
329,192,115910,128,2,116596:0:0:0:0:
109,192,116596,1,6,0:0:0:0:
256,192,117282,1,2,0:0:0:0:
475,192,117967,1,6,0:0:0:0:
182,192,118653,1,2,0:0:0:0:
109,192,119339,1,6,0:0:0:0:
109,192,119682,1,2,0:0:0:0:
402,192,120025,1,6,0:0:0:0:
402,192,120367,1,2,0:0:0:0:
256,192,120710,128,2,121225:0:0:0:0:
109,192,121567,1,2,0:0:0:0:
402,192,121567,1,4,0:0:0:0:
