osu file format v14

[General]
AudioFilename: Cherry Blossom.mp3
AudioLeadIn: 0
PreviewTime: 108842
Countdown: 0
SampleSet: Soft
StackLeniency: 0.7
Mode: 2
LetterboxInBreaks: 0
WidescreenStoryboard: 0

[Editor]
Bookmarks: 7195,18489,29783,41077,52371,63665,74959,86253,97547
DistanceSpacing: 1
BeatDivisor: 4
GridSize: 16
TimelineZoom: 1

[Metadata]
Title:Cherry Blossom
TitleUnicode:Cherry Blossom
Artist:Memme
ArtistUnicode:Memme
Creator:Quit user
Version:Cherry Brown
Source:Music & Beat (O2Jam)
Tags:
BeatmapID:1207795
BeatmapSetID:569758

[Difficulty]
HPDrainRate:7
CircleSize:4
OverallDifficulty:9.3
ApproachRate:9.3
SliderMultiplier:1.9
SliderTickRate:1

[Events]
//Background and Video events
0,0,"maxresdefault.jpg",0,0
//Break Periods
//Storyboard Layer 0 (Background)
//Storyboard Layer 1 (Fail)
//Storyboard Layer 2 (Pass)
//Storyboard Layer 3 (Foreground)
//Storyboard Sound Samples

[TimingPoints]
1548,352.941176470588,4,2,41,70,1,0
12842,-100,4,2,43,70,0,0
18136,-100,4,2,43,70,0,0
18489,-100,4,2,41,80,0,0
18577,-100,4,2,44,80,0,0
23430,-100,4,2,0,80,0,0
24136,-100,4,2,41,80,0,0
24224,-100,4,2,44,80,0,0
26960,-100,4,2,44,80,0,0
28371,-100,4,2,44,80,0,0
29430,-100,4,2,43,80,0,0
29783,-133.333333333333,4,2,41,60,0,0
29871,-133.333333333333,4,2,45,60,0,0
40371,-133.333333333333,4,2,45,80,0,0
41077,-100,4,2,41,80,0,0
41165,-100,4,2,45,80,0,0
51665,-100,4,2,43,80,0,0
52018,-100,4,2,43,80,0,0
52371,-100,4,2,41,80,0,0
52460,-100,4,2,2,80,0,0
52724,-100,4,2,46,80,0,0
56607,-100,4,2,43,80,0,0
58018,-100,4,2,41,80,0,0
58107,-100,4,2,46,80,0,0
58548,-100,4,2,41,80,0,0
58636,-100,4,2,46,80,0,0
59430,-100,4,2,41,80,0,0
59518,-100,4,2,46,80,0,0
59960,-100,4,2,41,80,0,0
60048,-100,4,2,43,80,0,0
60842,-100,4,2,41,80,0,0
60930,-100,4,2,46,80,0,0
63312,-100,4,2,2,80,0,0
63665,-100,4,2,41,80,0,0
63754,-100,4,2,43,80,0,0
69312,-100,4,2,41,80,0,0
69401,-100,4,2,43,80,0,0
72136,-100,4,2,41,80,0,0
72224,-100,4,2,43,80,0,0
73548,-100,4,2,0,80,0,0
73812,-100,4,2,46,80,0,0
74607,-100,4,2,46,80,0,0
74960,-133.333333333333,4,2,47,80,0,0
75312,-100,4,2,47,80,0,0
77430,-100,4,2,46,80,0,0
78136,-100,4,2,46,80,0,0
80254,-100,4,2,43,80,0,0
80607,-100,4,2,47,80,0,0
80960,-100,4,2,47,80,0,0
81665,-100,4,2,46,80,0,0
82018,-100,4,2,47,80,0,0
83430,-100,4,2,47,80,0,0
83783,-100,4,2,46,80,0,0
84312,-100,4,2,43,80,0,0
84489,-100,4,2,46,80,0,0
84842,-100,4,2,41,80,0,0
84930,-100,4,2,43,80,0,0
85901,-100,4,2,43,80,0,0
86254,-100,4,2,46,80,0,0
86607,-100,4,2,46,80,0,0
91724,-100,4,2,41,80,0,0
92254,-100,4,2,42,80,0,0
92783,-100,4,2,43,80,0,0
92960,-100,4,2,41,80,0,0
94371,-100,4,2,42,80,0,0
94548,-100,4,2,43,80,0,0
94724,-100,4,2,41,80,0,0
94812,-100,4,2,42,80,0,0
96489,-100,4,2,41,80,0,0
97547,-100,4,2,41,80,0,0
97548,-100,4,2,41,50,0,0
103195,-100,4,2,41,70,0,0
105401,-100,4,2,43,70,0,0
106018,-100,4,2,42,80,0,0
108842,-80,4,2,42,95,0,1
119430,-80,4,2,41,95,0,1
120136,-100,4,2,41,85,0,0
120224,-100,4,2,44,85,0,0
125077,-100,4,2,41,85,0,0
125871,-100,4,2,44,85,0,0
128254,-100,4,2,44,85,0,0
128607,-100,4,2,44,85,0,0
129665,-100,4,2,43,85,0,0
130901,-100,4,2,42,85,0,0
131254,-100,4,2,48,85,0,0
131342,-100,4,2,48,25,0,0
131960,-100,4,2,48,25,0,0
132136,-100,4,2,48,25,0,0
132489,-100,4,2,48,25,0,0
133371,-100,4,2,44,25,0,0

[HitObjects]
144,64,1548,5,4,0:0:0:0:
64,112,1724,1,0,0:0:0:0:
48,208,1900,1,2,0:0:0:0:
112,272,2077,1,0,0:0:0:0:
256,304,2253,5,2,0:0:0:0:
336,256,2429,1,2,0:0:0:0:
288,256,2518,1,0,0:0:0:0:
240,256,2605,1,0,0:0:0:0:
384,256,2782,1,2,0:0:0:0:
128,224,2959,5,2,0:0:0:0:
48,176,3135,1,2,0:0:0:0:
96,176,3224,1,0,0:0:0:0:
144,176,3311,1,2,0:0:0:0:
0,176,3488,1,2,0:0:0:0:
256,176,3665,5,2,0:0:0:0:
336,128,3841,1,2,0:0:0:0:
288,128,3930,1,0,0:0:0:0:
240,128,4017,1,2,0:0:0:0:
384,128,4194,1,2,0:0:0:0:
432,128,4283,1,0,0:0:0:0:
128,128,4371,6,0,L|48:208,1,95,2|0,0:0|0:0,0:0:0:0:
304,224,4724,1,2,0:0:0:0:
209,224,4900,1,0,0:0:0:0:
480,224,5077,1,2,0:0:0:0:
352,224,5253,1,2,0:0:0:0:
312,201,5341,1,0,0:0:0:0:
305,156,5429,1,2,0:0:0:0:
336,122,5517,1,0,0:0:0:0:
416,112,5605,1,0,0:0:0:0:
128,96,5783,5,2,0:0:0:0:
33,96,5959,1,0,0:0:0:0:
176,128,6136,1,2,0:0:0:0:
80,128,6312,1,0,0:0:0:0:
336,128,6489,2,0,P|464:224|400:256,1,285,2|0,0:0|0:0,0:0:0:0:
336,256,7195,1,14,0:0:0:0:
48,240,7371,5,0,0:0:0:0:
192,192,7547,2,0,L|80:192,1,95,10|0,0:0|0:0,0:0:0:0:
256,144,7900,1,2,0:0:0:0:
112,144,8077,2,0,L|32:144,1,47.5,6|0,0:0|0:0,0:0:0:0:
320,144,8253,2,0,L|416:112,1,95,10|6,0:0|0:0,0:0:0:0:
176,112,8606,1,2,0:0:0:0:
320,112,8783,2,0,L|400:112,1,47.5,6|0,0:0|0:0,0:0:0:0:
112,112,8959,2,0,L|16:80,1,95,10|2,0:0|0:0,0:0:0:0:
64,64,9224,1,0,0:0:0:0:
368,64,9312,6,0,L|464:128,1,95,2|6,0:0|0:0,0:0:0:0:
176,112,9665,1,10,0:0:0:0:
448,112,9842,1,6,0:0:0:0:
176,112,10018,2,0,L|81:112,1,95,2|4,0:0|0:0,0:0:0:0:
368,112,10371,1,10,0:0:0:0:
96,112,10547,1,2,0:0:0:0:
400,112,10724,2,0,L|512:112,1,95,6|10,0:0|0:0,0:0:0:0:
256,160,11077,1,2,0:0:0:0:
352,160,11253,1,6,0:0:0:0:
116,316,11430,5,0,0:0:0:0:
84,280,11518,1,0,0:0:0:0:
76,232,11606,1,0,0:0:0:0:
92,188,11694,1,0,0:0:0:0:
140,152,11782,1,8,0:0:0:0:
196,128,11871,1,0,0:0:0:0:
256,116,11959,1,4,0:0:0:0:
316,104,12047,1,0,0:0:0:0:
368,96,12136,6,0,L|416:96,1,47.5,2|0,0:0|0:0,0:0:0:0:
240,112,12312,2,0,L|192:112,1,47.5,2|0,0:0|0:0,0:0:0:0:
416,128,12489,2,0,L|464:128,1,47.5,2|0,0:0|0:0,0:0:0:0:
192,144,12665,2,0,L|144:144,1,47.5,2|0,0:0|0:0,0:0:0:0:
464,160,12842,6,0,L|400:256,1,95,4|0,0:0|0:0,0:0:0:0:
272,224,13195,2,0,L|384:224,1,95,4|0,0:0|0:0,0:0:0:0:
464,224,13547,2,0,L|400:224,1,47.5,4|0,0:0|0:0,0:0:0:0:
208,224,13724,2,0,L|112:224,1,95,0|4,0:0|0:0,0:0:0:0:
416,224,14077,2,0,L|480:224,1,47.5,0|0,0:0|0:0,0:0:0:0:
160,128,14253,6,0,L|64:128,1,95,4|0,0:0|0:0,0:0:0:0:
352,96,14606,2,0,L|464:96,1,95,4|0,0:0|0:0,0:0:0:0:
96,80,14959,2,0,L|32:80,1,47.5,4|0,0:0|0:0,0:0:0:0:
304,112,15136,2,0,L|352:144,1,47.5,0|0,0:0|0:0,0:0:0:0:
96,128,15312,2,0,L|32:128,1,47.5,4|0,0:0|0:0,0:0:0:0:
256,176,15489,2,0,L|320:176,1,47.5,0|0,0:0|0:0,0:0:0:0:
48,192,15665,6,0,L|160:192,1,95,4|0,0:0|0:0,0:0:0:0:
48,192,16018,1,4,0:0:0:0:
144,192,16195,1,0,0:0:0:0:
464,192,16371,2,0,L|352:192,1,95,4|0,0:0|0:0,0:0:0:0:
464,192,16724,5,4,0:0:0:0:
368,192,16901,1,0,0:0:0:0:
96,144,17077,1,4,0:0:0:0:
256,144,17253,1,4,0:0:0:0:
416,144,17430,1,4,0:0:0:0:
96,144,17606,1,4,0:0:0:0:
368,80,17783,6,0,L|305:80,1,47.5,4|4,0:0|0:0,0:0:0:0:
96,80,17960,2,0,L|144:80,1,47.5,4|4,0:0|0:0,0:0:0:0:
448,80,18136,2,0,P|384:144|448:176,1,190,4|12,0:0|0:0,0:0:0:0:
32,80,18665,5,0,0:0:0:0:
368,80,18842,2,0,L|464:80,1,95,10|2,0:0|0:0,0:0:0:0:
208,80,19195,1,6,0:0:0:0:
162,86,19283,1,0,0:0:0:0:
141,127,19371,1,2,0:0:0:0:
161,168,19459,1,0,0:0:0:0:
416,176,19547,2,0,L|320:176,1,95,10|0,0:0|0:0,0:0:0:0:
64,176,19900,6,0,L|16:176,1,47.5,6|0,0:0|0:0,0:0:0:0:
192,128,20077,2,0,L|256:128,1,47.5,0|0,0:0|0:0,0:0:0:0:
464,128,20253,2,0,L|352:128,1,95,10|2,0:0|0:0,0:0:0:0:
224,128,20606,2,0,L|176:128,1,47.5,6|0,0:0|0:0,0:0:0:0:
416,128,20783,2,0,L|464:128,1,47.5,0|0,0:0|0:0,0:0:0:0:
224,176,20959,2,0,L|288:176,1,47.5,8|0,0:0|0:0,0:0:0:0:
64,176,21136,2,0,L|17:176,1,47.5,2|0,0:0|0:0,0:0:0:0:
448,176,21312,6,0,L|352:112,1,95,6|0,0:0|0:0,0:0:0:0:
416,128,21577,1,0,0:0:0:0:
64,112,21665,2,0,L|176:112,1,95,10|2,0:0|0:0,0:0:0:0:
64,112,22018,1,6,0:0:0:0:
304,160,22195,1,2,0:0:0:0:
352,160,22283,1,0,0:0:0:0:
304,160,22371,1,10,0:0:0:0:
448,256,22547,1,2,0:0:0:0:
128,256,22724,6,0,L|80:256,1,47.5,6|0,0:0|0:0,0:0:0:0:
176,256,22900,2,0,L|112:256,1,47.5,2|0,0:0|0:0,0:0:0:0:
352,256,23077,2,0,L|416:256,1,47.5,10|0,0:0|0:0,0:0:0:0:
128,256,23253,2,0,L|80:256,1,47.5,2|0,0:0|0:0,0:0:0:0:
432,256,23430,1,4,0:0:0:0:
496,224,23518,1,0,0:0:0:0:
464,160,23606,1,0,0:0:0:0:
400,144,23694,1,0,0:0:0:0:
176,192,23783,5,4,0:0:0:0:
152,188,23827,1,0,0:0:0:0:
134,173,23871,1,0,0:0:0:0:
126,151,23915,1,0,0:0:0:0:
131,129,23959,1,0,0:0:0:0:
147,112,24003,1,0,0:0:0:0:
170,106,24047,1,0,0:0:0:0:
368,112,24136,6,0,L|384:224,1,95,12|0,0:0|0:0,0:0:0:0:
352,240,24400,1,0,0:0:0:0:
48,64,24489,2,0,L|31:176,1,95,10|2,0:0|0:0,0:0:0:0:
304,160,24842,2,0,L|400:160,1,95,6|2,0:0|0:0,0:0:0:0:
160,160,25106,1,0,0:0:0:0:
112,160,25195,1,10,0:0:0:0:
0,160,25371,1,0,0:0:0:0:
304,160,25547,6,0,L|416:160,1,95,6|0,0:0|0:0,0:0:0:0:
448,160,25812,1,0,0:0:0:0:
112,160,25900,2,0,L|16:160,1,95,10|2,0:0|0:0,0:0:0:0:
400,160,26253,6,0,L|432:208,1,47.5,6|0,0:0|0:0,0:0:0:0:
256,192,26430,2,0,L|288:144,1,47.5,0|0,0:0|0:0,0:0:0:0:
112,160,26606,2,0,L|85:199,1,47.5,10|0,0:0|0:0,0:0:0:0:
400,160,26783,2,0,L|426:199,1,47.5,0|0,0:0|0:0,0:0:0:0:
16,112,26959,6,0,L|112:112,1,95,4|0,1:0|0:0,0:0:0:0:
256,112,27312,1,4,0:0:0:0:
160,112,27489,1,0,0:0:0:0:
496,112,27665,2,0,L|400:112,1,95,4|0,1:0|0:0,0:0:0:0:
208,112,27930,1,0,0:0:0:0:
256,112,28018,1,8,0:0:0:0:
352,112,28195,1,0,0:0:0:0:
496,112,28371,6,0,L|496:224,1,95,4|0,1:0|0:0,0:0:0:0:
32,112,28724,2,0,L|32:224,1,95,4|0,1:0|0:0,0:0:0:0:
368,128,29077,2,0,L|415:128,1,47.5,4|0,1:0|0:0,0:0:0:0:
144,128,29253,2,0,L|97:128,1,47.5,0|0,0:0|0:0,0:0:0:0:
416,128,29430,1,0,0:0:0:0:
445,164,29518,1,0,0:0:0:0:
444,211,29606,1,8,0:0:0:0:
414,246,29694,1,0,0:0:0:0:
192,256,29783,5,12,0:0:0:0:
256,256,29959,1,0,0:0:0:0:
112,256,30136,1,4,0:0:0:0:
176,256,30312,1,2,0:0:0:0:
464,256,30489,1,4,0:0:0:0:
352,256,30665,1,0,0:0:0:0:
384,256,30753,1,0,0:0:0:0:
416,256,30842,1,6,0:0:0:0:
48,256,31018,1,2,0:0:0:0:
304,256,31195,5,4,0:0:0:0:
336,208,31283,1,0,0:0:0:0:
304,160,31371,1,2,0:0:0:0:
256,144,31459,1,0,0:0:0:0:
208,176,31547,1,6,0:0:0:0:
496,176,31724,1,2,0:0:0:0:
384,176,31900,5,6,0:0:0:0:
352,128,31988,1,0,0:0:0:0:
384,96,32076,1,0,0:0:0:0:
432,96,32164,1,0,0:0:0:0:
160,64,32253,1,6,0:0:0:0:
112,64,32341,1,0,0:0:0:0:
80,112,32429,1,0,0:0:0:0:
112,160,32517,1,0,0:0:0:0:
384,176,32606,5,4,0:0:0:0:
320,176,32782,1,0,0:0:0:0:
192,176,32959,1,4,0:0:0:0:
256,176,33136,1,2,0:0:0:0:
128,176,33312,1,6,0:0:0:0:
448,176,33489,1,2,0:0:0:0:
416,176,33577,1,0,0:0:0:0:
384,176,33665,1,6,0:0:0:0:
128,176,33842,1,0,0:0:0:0:
384,176,34018,6,0,L|288:176,1,71.2500027179719,6|0,0:0|0:0,0:0:0:0:
48,112,34371,2,0,L|16:208,1,71.2500027179719,6|2,0:0|0:0,0:0:0:0:
336,320,34724,5,6,0:0:0:0:
384,320,34812,1,0,0:0:0:0:
432,320,34900,1,0,0:0:0:0:
384,320,34988,1,0,0:0:0:0:
96,192,35077,1,6,0:0:0:0:
48,192,35165,1,0,0:0:0:0:
96,192,35253,1,0,0:0:0:0:
144,192,35341,1,0,0:0:0:0:
432,160,35430,6,0,L|448:64,1,71.2500027179719,6|0,0:0|0:0,0:0:0:0:
208,96,35783,1,6,0:0:0:0:
320,96,35959,1,0,0:0:0:0:
352,96,36047,1,0,0:0:0:0:
128,96,36136,2,0,L|48:96,1,71.2500027179719,6|0,0:0|0:0,0:0:0:0:
320,96,36489,1,6,0:0:0:0:
208,96,36665,1,2,0:0:0:0:
176,96,36753,1,0,0:0:0:0:
400,96,36842,2,0,L|480:96,1,71.2500027179719,6|2,0:0|0:0,0:0:0:0:
400,96,37106,5,0,0:0:0:0:
176,96,37195,2,0,L|96:96,1,71.2500027179719,6|2,0:0|0:0,0:0:0:0:
144,96,37459,1,0,0:0:0:0:
464,96,37547,2,0,L|496:192,1,71.2500027179719,6|0,0:0|0:0,0:0:0:0:
208,160,37900,1,6,0:0:0:0:
336,160,38077,1,2,0:0:0:0:
96,160,38253,2,0,P|80:208|96:224,1,71.2500027179719,6|0,0:0|0:0,0:0:0:0:
336,224,38606,1,4,0:0:0:0:
208,224,38783,5,0,0:0:0:0:
160,224,38871,1,2,0:0:0:0:
208,224,38959,1,6,0:0:0:0:
400,192,39136,1,0,0:0:0:0:
448,192,39224,1,0,0:0:0:0:
48,128,39312,2,0,L|48:208,1,71.2500027179719,6|0,0:0|0:0,0:0:0:0:
336,160,39665,5,4,0:0:0:0:
365,178,39753,1,0,0:0:0:0:
384,208,39841,1,0,0:0:0:0:
386,244,39929,1,0,0:0:0:0:
160,272,40018,5,4,0:0:0:0:
112,240,40106,1,0,0:0:0:0:
144,192,40194,1,0,0:0:0:0:
192,160,40282,1,0,0:0:0:0:
464,96,40371,1,2,0:0:0:0:
474,129,40459,1,0,0:0:0:0:
480,165,40547,1,2,0:0:0:0:
480,200,40635,1,0,0:0:0:0:
208,224,40724,5,2,0:0:0:0:
208,206,40768,1,0,0:0:0:0:
208,188,40812,1,0,0:0:0:0:
208,170,40856,1,0,0:0:0:0:
208,152,40900,1,0,0:0:0:0:
208,134,40944,1,0,0:0:0:0:
208,117,40988,1,0,0:0:0:0:
386,244,41077,6,0,L|480:272,1,95,12|0,0:0|0:0,0:0:0:0:
432,288,41342,1,0,0:0:0:0:
128,288,41430,2,0,L|240:288,1,95,8|2,0:0|0:0,0:0:0:0:
48,288,41783,1,6,0:0:0:0:
223,288,41959,1,2,0:0:0:0:
272,288,42047,1,0,0:0:0:0:
80,288,42136,2,0,L|192:288,1,95,10|2,0:0|0:0,0:0:0:0:
432,288,42489,1,6,0:0:0:0:
192,224,42665,5,2,0:0:0:0:
239,224,42753,1,0,0:0:0:0:
192,224,42842,1,10,0:0:0:0:
448,144,43018,1,2,0:0:0:0:
400,144,43106,1,0,0:0:0:0:
448,144,43195,1,6,0:0:0:0:
112,128,43371,5,0,0:0:0:0:
207,128,43547,1,10,0:0:0:0:
32,128,43724,1,2,0:0:0:0:
368,128,43900,2,0,L|448:208,1,95,6|0,0:0|0:0,0:0:0:0:
320,192,44253,1,10,0:0:0:0:
496,192,44430,5,2,0:0:0:0:
448,192,44518,1,0,0:0:0:0:
400,192,44606,1,6,0:0:0:0:
159,128,44783,1,2,0:0:0:0:
207,128,44871,1,0,0:0:0:0:
255,128,44959,1,10,0:0:0:0:
0,128,45136,1,2,0:0:0:0:
144,128,45312,5,6,0:0:0:0:
192,160,45400,1,0,0:0:0:0:
240,192,45488,1,0,0:0:0:0:
192,224,45576,1,0,0:0:0:0:
96,224,45665,1,10,0:0:0:0:
48,192,45753,1,0,0:0:0:0:
0,160,45841,1,2,0:0:0:0:
48,128,45929,1,0,0:0:0:0:
368,112,46018,5,6,0:0:0:0:
411,128,46106,1,0,0:0:0:0:
433,168,46194,1,0,0:0:0:0:
423,214,46282,1,0,0:0:0:0:
272,224,46371,2,0,L|224:224,1,47.5,10|0,0:0|0:0,0:0:0:0:
48,224,46547,2,0,L|0:224,1,47.5,0|2,0:0|0:0,0:0:0:0:
432,208,46724,6,0,L|512:288,1,95,6|0,0:0|0:0,0:0:0:0:
336,288,47077,1,10,0:0:0:0:
448,288,47253,1,2,0:0:0:0:
96,288,47430,1,6,0:0:0:0:
240,288,47606,5,2,0:0:0:0:
192,288,47695,1,0,0:0:0:0:
144,288,47783,1,10,0:0:0:0:
336,224,47959,1,2,0:0:0:0:
288,224,48048,1,0,0:0:0:0:
240,224,48136,1,6,0:0:0:0:
0,128,48312,1,2,0:0:0:0:
48,128,48401,1,0,0:0:0:0:
96,128,48489,1,10,0:0:0:0:
448,128,48665,5,2,0:0:0:0:
400,128,48754,1,0,0:0:0:0:
352,128,48842,1,6,0:0:0:0:
96,128,49018,1,0,0:0:0:0:
240,128,49195,1,10,0:0:0:0:
384,128,49371,1,2,0:0:0:0:
48,128,49547,5,6,0:0:0:0:
27,170,49635,1,0,0:0:0:0:
35,216,49723,1,2,0:0:0:0:
69,248,49811,1,0,0:0:0:0:
320,256,49900,2,0,L|384:256,1,47.5,10|0,0:0|0:0,0:0:0:0:
112,128,50077,5,2,0:0:0:0:
91,170,50165,1,0,0:0:0:0:
99,216,50253,1,6,0:0:0:0:
133,248,50341,1,0,0:0:0:0:
384,256,50430,2,0,L|448:256,1,47.5,2|0,0:0|0:0,0:0:0:0:
144,256,50606,2,0,L|32:256,1,95,10|0,0:0|0:0,0:0:0:0:
512,256,50959,1,4,0:0:0:0:
352,256,51136,1,0,0:0:0:0:
432,256,51312,1,8,0:0:0:0:
272,256,51489,1,0,0:0:0:0:
16,256,51665,5,8,0:0:0:0:
21,209,51753,1,0,0:0:0:0:
51,173,51841,1,0,0:0:0:0:
96,159,51929,1,0,0:0:0:0:
416,160,52018,1,4,0:0:0:0:
96,160,52194,1,4,0:0:0:0:
240,160,52371,6,0,L|336:160,1,95,12|0,0:0|0:0,0:0:0:0:
176,160,52724,1,8,0:0:0:0:
336,160,52900,2,0,L|448:160,1,95,0|0,0:0|0:0,0:0:0:0:
384,160,53165,1,0,0:0:0:0:
96,256,53253,2,0,L|16:176,1,95,4|8,0:0|0:0,0:0:0:0:
256,144,53606,6,0,L|320:144,1,47.5,0|0,0:0|0:0,0:0:0:0:
96,144,53783,1,4,0:0:0:0:
48,144,53871,1,0,0:0:0:0:
96,144,53959,1,0,0:0:0:0:
144,144,54047,1,0,0:0:0:0:
400,144,54136,2,0,L|288:144,1,95,8|4,0:0|0:0,0:0:0:0:
352,144,54400,1,0,0:0:0:0:
48,144,54489,2,0,L|160:144,1,95,0|4,0:0|0:0,0:0:0:0:
448,144,54842,1,8,0:0:0:0:
143,144,55018,1,0,0:0:0:0:
400,144,55195,2,0,L|288:144,1,95,4|0,0:0|0:0,0:0:0:0:
112,96,55547,5,10,0:0:0:0:
66,101,55635,1,0,0:0:0:0:
37,138,55723,1,0,0:0:0:0:
42,184,55811,1,0,0:0:0:0:
208,144,55900,1,2,0:0:0:0:
168,168,55988,1,0,0:0:0:0:
161,214,56076,1,6,0:0:0:0:
190,250,56164,1,0,0:0:0:0:
464,256,56253,1,10,0:0:0:0:
458,210,56341,1,0,0:0:0:0:
421,181,56429,1,2,0:0:0:0:
375,186,56517,1,0,0:0:0:0:
112,192,56606,5,6,0:0:0:0:
288,192,56783,1,2,0:0:0:0:
112,192,56959,1,10,0:0:0:0:
288,192,57136,1,2,0:0:0:0:
144,192,57312,1,6,0:0:0:0:
102,173,57400,1,0,0:0:0:0:
99,129,57488,1,2,0:0:0:0:
138,106,57576,1,0,0:0:0:0:
368,96,57665,5,10,0:0:0:0:
389,104,57709,1,0,0:0:0:0:
406,121,57753,1,0,0:0:0:0:
415,143,57797,1,0,0:0:0:0:
415,166,57841,1,6,0:0:0:0:
406,188,57885,1,0,0:0:0:0:
389,204,57929,1,0,0:0:0:0:
128,240,58018,6,0,L|16:240,2,95,12|2|10,0:0|0:0|0:0,0:0:0:0:
384,240,58547,2,0,L|496:240,2,95,12|2|2,0:0|0:0|0:0,0:0:0:0:
80,240,59077,1,10,0:0:0:0:
256,240,59253,1,6,0:0:0:0:
0,240,59430,5,12,0:0:0:0:
96,240,59606,1,2,0:0:0:0:
0,240,59783,1,10,0:0:0:0:
352,240,59959,1,12,0:0:0:0:
256,240,60135,1,2,0:0:0:0:
352,240,60312,1,6,0:0:0:0:
400,240,60400,1,0,0:0:0:0:
96,240,60489,6,0,L|16:176,1,95,10|2,0:0|0:0,0:0:0:0:
272,144,60842,1,12,0:0:0:0:
319,144,60930,1,0,0:0:0:0:
367,144,61018,1,2,0:0:0:0:
414,144,61106,1,0,0:0:0:0:
208,192,61195,1,10,0:0:0:0:
288,192,61283,1,0,0:0:0:0:
368,192,61371,1,6,0:0:0:0:
448,192,61459,1,0,0:0:0:0:
144,256,61547,1,2,0:0:0:0:
80,240,61636,1,0,0:0:0:0:
64,176,61724,1,10,0:0:0:0:
448,192,61900,6,0,L|288:352,1,190,2|10,0:0|0:0,0:0:0:0:
144,336,62430,1,2,0:0:0:0:
96,336,62518,1,0,0:0:0:0:
416,128,62606,5,2,0:0:0:0:
459,171,62723,1,0,0:0:0:0:
416,208,62841,1,0,0:0:0:0:
176,256,62959,1,4,0:0:0:0:
153,262,63003,1,0,0:0:0:0:
130,257,63047,1,0,0:0:0:0:
113,241,63091,1,0,0:0:0:0:
105,219,63135,1,0,0:0:0:0:
109,196,63179,1,0,0:0:0:0:
124,178,63223,1,0,0:0:0:0:
146,169,63267,1,0,0:0:0:0:
496,32,63312,6,0,L|496:256,1,190,0|12,0:0|0:0,0:0:0:0:
352,224,63842,1,0,0:0:0:0:
304,224,63930,1,0,0:0:0:0:
96,224,64018,5,0,0:0:0:0:
48,224,64106,1,0,0:0:0:0:
0,224,64195,1,0,0:0:0:0:
48,224,64283,1,0,0:0:0:0:
208,224,64371,1,0,0:0:0:0:
256,224,64459,1,0,0:0:0:0:
256,176,64547,1,0,0:0:0:0:
208,176,64636,1,0,0:0:0:0:
416,160,64724,5,0,0:0:0:0:
464,160,64812,1,0,0:0:0:0:
512,160,64901,1,0,0:0:0:0:
464,160,64989,1,0,0:0:0:0:
304,160,65077,1,0,0:0:0:0:
256,160,65165,1,0,0:0:0:0:
256,208,65253,1,0,0:0:0:0:
304,208,65342,1,0,0:0:0:0:
128,192,65430,5,0,0:0:0:0:
84,183,65518,1,0,0:0:0:0:
83,139,65606,1,0,0:0:0:0:
125,127,65694,1,0,0:0:0:0:
304,96,65783,2,0,L|208:96,1,95,0|0,0:0|0:0,0:0:0:0:
448,96,66136,2,0,L|512:192,1,95,0|0,0:0|0:0,0:0:0:0:
224,224,66489,5,0,0:0:0:0:
179,215,66577,1,0,0:0:0:0:
160,174,66665,1,0,0:0:0:0:
183,135,66753,1,0,0:0:0:0:
400,144,66842,1,0,0:0:0:0:
421,186,66930,1,0,0:0:0:0:
442,228,67018,1,0,0:0:0:0:
463,271,67106,1,0,0:0:0:0:
144,272,67195,5,0,0:0:0:0:
191,272,67283,1,0,0:0:0:0:
239,272,67371,1,0,0:0:0:0:
286,272,67459,1,0,0:0:0:0:
96,224,67547,1,0,0:0:0:0:
67,187,67635,1,0,0:0:0:0:
66,140,67723,1,0,0:0:0:0:
95,104,67811,1,0,0:0:0:0:
432,96,67900,6,0,L|480:96,1,47.5,0|0,0:0|0:0,0:0:0:0:
256,96,68077,2,0,L|176:96,1,47.5,0|0,0:0|0:0,0:0:0:0:
0,96,68253,2,0,L|48:96,1,47.5,0|0,0:0|0:0,0:0:0:0:
256,96,68430,2,0,L|320:96,1,47.5,0|0,0:0|0:0,0:0:0:0:
144,128,68606,1,2,0:0:0:0:
104,152,68694,1,0,0:0:0:0:
144,192,68782,1,0,0:0:0:0:
296,192,68959,1,8,0:0:0:0:
32,192,69136,1,4,0:0:0:0:
176,192,69312,5,12,0:0:0:0:
223,192,69400,1,0,0:0:0:0:
271,192,69488,1,0,0:0:0:0:
225,192,69576,1,0,0:0:0:0:
96,192,69665,1,4,0:0:0:0:
48,192,69753,1,0,0:0:0:0:
1,192,69841,1,0,0:0:0:0:
46,192,69929,1,0,0:0:0:0:
296,192,70018,6,0,L|352:192,1,47.5,4|0,0:0|0:0,0:0:0:0:
320,224,70195,2,0,L|384:224,1,47.5,0|0,0:0|0:0,0:0:0:0:
336,256,70371,2,0,L|400:256,1,47.5,4|0,0:0|0:0,0:0:0:0:
160,288,70547,2,0,L|112:288,1,47.5,0|0,0:0|0:0,0:0:0:0:
336,192,70724,5,4,0:0:0:0:
289,192,70812,1,0,0:0:0:0:
241,192,70900,1,0,0:0:0:0:
287,192,70988,1,0,0:0:0:0:
416,192,71077,1,4,0:0:0:0:
464,192,71165,1,0,0:0:0:0:
511,192,71253,1,0,0:0:0:0:
466,192,71341,1,0,0:0:0:0:
216,192,71430,6,0,L|160:192,1,47.5,4|0,0:0|0:0,0:0:0:0:
192,224,71607,2,0,L|128:224,1,47.5,0|0,0:0|0:0,0:0:0:0:
176,256,71783,2,0,L|112:256,1,47.5,4|0,0:0|0:0,0:0:0:0:
352,288,71959,2,0,L|400:288,1,47.5,0|0,0:0|0:0,0:0:0:0:
64,288,72136,5,12,0:0:0:0:
159,288,72312,1,0,0:0:0:0:
32,288,72489,1,4,0:0:0:0:
192,288,72665,1,0,0:0:0:0:
448,288,72842,1,4,0:0:0:0:
353,288,73018,1,0,0:0:0:0:
480,288,73195,1,4,0:0:0:0:
320,288,73371,1,0,0:0:0:0:
176,288,73547,6,0,L|80:224,1,95,4|0,0:0|0:0,0:0:0:0:
288,224,73812,2,0,L|320:128,1,95,2|2,0:0|0:0,0:0:0:0:
448,96,74077,2,0,L|496:96,1,47.5,0|0,0:0|0:0,0:0:0:0:
320,144,74253,2,0,L|288:48,1,95,2|2,0:0|0:0,0:0:0:0:
16,64,74606,2,0,L|16:176,1,95,2|0,0:0|0:0,0:0:0:0:
384,96,74959,6,0,L|224:96,1,142.5,4|0,0:0|0:0,0:0:0:0:
160,112,75312,2,0,L|144:208,1,95,10|0,0:0|0:0,0:0:0:0:
368,192,75577,2,0,L|496:224,1,95,2|2,0:0|0:0,0:0:0:0:
208,256,75842,2,0,L|144:256,1,47.5,4|2,0:0|0:0,0:0:0:0:
384,256,76018,2,0,L|480:224,1,95,8|2,0:0|0:0,0:0:0:0:
96,224,76371,6,0,L|64:176,1,47.5,4|2,0:0|0:0,0:0:0:0:
256,224,76547,2,0,L|368:224,1,95,0|8,0:0|0:0,0:0:0:0:
304,224,76812,1,0,0:0:0:0:
128,176,76900,2,0,P|96:128|128:96,1,95,6|2,0:0|0:0,0:0:0:0:
496,96,77253,6,0,L|400:96,2,95,4|8|0,0:0|0:0|0:0,0:0:0:0:
80,96,77783,2,0,P|48:176|112:192,1,142.5,4|0,0:0|0:0,0:0:0:0:
256,192,78136,2,0,L|304:192,1,47.5,8|0,0:0|0:0,0:0:0:0:
288,224,78312,2,0,L|336:224,1,47.5,0|2,0:0|0:0,0:0:0:0:
320,256,78489,2,0,L|368:256,1,47.5,0|2,0:0|0:0,0:0:0:0:
352,288,78665,2,0,L|416:288,1,47.5,4|0,0:0|0:0,0:0:0:0:
480,288,78842,1,8,0:0:0:0:
80,288,79018,1,2,0:0:0:0:
240,288,79195,5,4,0:0:0:0:
287,288,79283,1,2,0:0:0:0:
335,288,79371,1,0,0:0:0:0:
287,288,79459,1,2,0:0:0:0:
128,256,79547,1,8,0:0:0:0:
80,256,79635,1,0,0:0:0:0:
367,256,79723,1,6,0:0:0:0:
414,256,79812,1,0,0:0:0:0:
128,256,79900,5,2,0:0:0:0:
64,224,79988,1,0,0:0:0:0:
96,160,80076,1,6,0:0:0:0:
160,128,80164,1,0,0:0:0:0:
336,128,80253,2,0,L|160:128,1,142.5,10|0,0:0|0:0,0:0:0:0:
496,112,80606,2,0,L|496:272,1,142.5,4|0,0:0|0:0,0:0:0:0:
288,256,80959,6,0,L|176:256,1,95,10|0,0:0|0:0,0:0:0:0:
32,224,81224,2,0,L|144:224,1,95,2|2,0:0|0:0,0:0:0:0:
336,224,81489,2,0,L|400:224,1,47.5,4|2,0:0|0:0,0:0:0:0:
144,176,81665,2,0,L|160:272,1,95,10|2,0:0|0:0,0:0:0:0:
448,272,82018,2,0,L|384:272,1,47.5,6|2,0:0|0:0,0:0:0:0:
224,272,82195,2,0,L|128:240,1,95,0|8,0:0|0:0,0:0:0:0:
352,208,82459,2,0,L|464:208,1,95,0|0,0:0|0:0,0:0:0:0:
208,160,82724,2,0,L|128:160,1,47.5,2|0,0:0|0:0,0:0:0:0:
400,128,82900,2,0,L|448:128,1,47.5,4|0,0:0|0:0,0:0:0:0:
160,80,83077,6,0,P|96:128|144:160,1,142.5,8|0,0:0|0:0,0:0:0:0:
480,80,83430,2,0,L|480:272,1,190,4|8,0:0|0:0,0:0:0:0:
304,272,83959,2,0,L|240:272,1,47.5,0|2,0:0|0:0,0:0:0:0:
288,240,84136,2,0,L|240:240,1,47.5,0|2,0:0|0:0,0:0:0:0:
272,208,84312,2,0,L|208:208,1,47.5,12|0,0:0|0:0,0:0:0:0:
256,176,84489,2,0,L|192:176,1,47.5,8|0,0:0|0:0,0:0:0:0:
448,176,84665,2,0,L|512:176,1,47.5,0|0,0:0|0:0,0:0:0:0:
48,160,84842,6,0,P|32:224|48:288,1,95,12|0,0:0|0:0,0:0:0:0:
304,272,85106,2,0,P|320:208|304:144,1,95,2|0,0:0|0:0,0:0:0:0:
144,192,85371,2,0,P|142:239|157:284,1,95,2|0,0:0|0:0,0:0:0:0:
426,264,85635,2,0,P|427:216|412:171,1,95,2|0,0:0|0:0,0:0:0:0:
320,160,85900,1,14,0:0:0:0:
16,160,86077,1,0,0:0:0:0:
160,160,86253,2,0,P|240:192|176:224,1,190,4|8,0:0|0:0,0:0:0:0:
336,224,86783,6,0,L|384:224,1,47.5,0|0,0:0|0:0,0:0:0:0:
144,224,86959,2,0,L|32:224,1,95,0|4,0:0|0:0,0:0:0:0:
224,176,87224,2,0,L|272:176,1,47.5,0|8,0:0|0:0,0:0:0:0:
432,144,87400,2,0,L|336:144,1,95,0|0,0:0|0:0,0:0:0:0:
128,144,87665,2,0,L|64:144,1,47.5,4|0,0:0|0:0,0:0:0:0:
256,112,87842,2,0,L|224:64,1,47.5,0|0,0:0|0:0,0:0:0:0:
384,80,88018,2,0,L|448:80,1,47.5,8|0,0:0|0:0,0:0:0:0:
240,80,88195,2,0,L|192:80,1,47.5,4|0,0:0|0:0,0:0:0:0:
400,160,88371,6,0,L|304:160,1,95,0|4,0:0|0:0,0:0:0:0:
352,160,88636,1,0,0:0:0:0:
144,160,88724,2,0,P|112:192|144:240,1,95,8|0,0:0|0:0,0:0:0:0:
400,288,89077,2,0,P|448:224|400:176,1,142.5,4|0,0:0|0:0,0:0:0:0:
256,176,89430,5,8,0:0:0:0:
192,176,89518,1,0,0:0:0:0:
256,176,89606,1,0,0:0:0:0:
192,176,89695,1,0,0:0:0:0:
336,128,89783,1,0,0:0:0:0:
400,128,89872,1,0,0:0:0:0:
336,128,89960,1,4,0:0:0:0:
400,128,90048,1,0,0:0:0:0:
192,128,90136,1,8,0:0:0:0:
256,128,90224,1,0,0:0:0:0:
48,176,90312,6,0,P|48:96|96:80,1,95,4|0,0:0|0:0,0:0:0:0:
192,80,90665,1,0,0:0:0:0:
48,80,90842,1,8,0:0:0:0:
144,80,91018,1,0,0:0:0:0:
320,80,91195,6,0,L|208:80,1,95,4|4,0:0|0:0,0:0:0:0:
384,80,91547,1,8,0:0:0:0:
96,240,91724,2,0,P|64:176|176:144,1,190,12|0,0:0|0:0,0:0:0:0:
32,128,92253,1,8,0:0:0:0:
416,240,92430,2,0,L|304:240,2,95,4|0|8,0:0|0:0|0:0,0:0:0:0:
144,240,92959,2,0,P|176:192|64:144,1,190,12|0,0:0|0:0,0:0:0:0:
368,96,93489,6,0,P|432:112|432:192,1,142.5,0|0,0:0|0:0,0:0:0:0:
256,224,93842,2,0,L|208:224,1,47.5,0|0,0:0|0:0,0:0:0:0:
448,240,94018,2,0,L|512:144,1,95,0|0,0:0|0:0,0:0:0:0:
176,96,94371,2,0,L|64:144,1,95,4|8,0:0|0:0,0:0:0:0:
144,144,94636,1,8,0:0:0:0:
416,160,94724,2,0,L|320:160,1,95,12|0,0:0|0:0,0:0:0:0:
464,160,95077,1,8,0:0:0:0:
96,160,95253,2,0,L|192:160,1,95,4|0,0:0|0:0,0:0:0:0:
48,160,95606,1,8,0:0:0:0:
448,160,95783,5,4,0:0:0:0:
304,160,95959,1,0,0:0:0:0:
448,160,96136,1,8,0:0:0:0:
64,160,96312,1,4,0:0:0:0:
208,160,96488,1,2,0:0:0:0:
64,160,96665,1,2,0:0:0:0:
272,160,96842,5,2,0:0:0:0:
304,192,96930,1,0,0:0:0:0:
272,224,97018,1,2,0:0:0:0:
224,240,97106,1,0,0:0:0:0:
432,272,97195,1,8,0:0:0:0:
448,255,97239,1,0,0:0:0:0:
460,234,97283,1,0,0:0:0:0:
465,211,97327,1,0,0:0:0:0:
464,188,97371,1,0,0:0:0:0:
456,165,97415,1,0,0:0:0:0:
442,146,97459,1,0,0:0:0:0:
96,160,97547,5,12,0:0:0:0:
192,160,97724,1,0,0:0:0:0:
96,160,97900,1,0,0:0:0:0:
192,160,98077,1,0,0:0:0:0:
336,160,98253,1,0,0:0:0:0:
192,160,98430,1,0,0:0:0:0:
240,160,98518,1,0,0:0:0:0:
288,160,98606,1,0,0:0:0:0:
96,160,98783,5,0,0:0:0:0:
176,160,98959,1,0,0:0:0:0:
320,160,99136,1,0,0:0:0:0:
272,160,99224,1,0,0:0:0:0:
224,160,99312,1,0,0:0:0:0:
416,160,99489,1,0,0:0:0:0:
176,160,99665,1,0,0:0:0:0:
48,224,99842,1,0,0:0:0:0:
16,256,99930,1,0,0:0:0:0:
64,272,100018,1,0,0:0:0:0:
176,272,100195,6,0,L|240:272,1,47.5,0|0,0:0|0:0,0:0:0:0:
416,272,100371,2,0,L|480:192,1,95,0|0,0:0|0:0,0:0:0:0:
272,160,100724,2,0,L|368:160,1,95,0|0,0:0|0:0,0:0:0:0:
208,160,101077,1,0,0:0:0:0:
64,160,101253,1,0,0:0:0:0:
112,160,101342,1,0,0:0:0:0:
160,160,101430,1,0,0:0:0:0:
304,160,101606,1,0,0:0:0:0:
144,160,101783,6,0,L|64:240,1,95,0|0,0:0|0:0,0:0:0:0:
224,240,102136,2,0,L|320:240,1,95,0|0,0:0|0:0,0:0:0:0:
480,192,102489,2,0,L|80:192,1,380,0|4,0:0|0:0,0:0:0:0:
400,192,103371,5,0,0:0:0:0:
96,192,103547,1,2,0:0:0:0:
256,192,103724,1,0,0:0:0:0:
400,192,103900,1,2,0:0:0:0:
240,192,104077,1,2,0:0:0:0:
288,192,104165,1,0,0:0:0:0:
336,192,104253,1,2,0:0:0:0:
256,192,104430,1,2,0:0:0:0:
112,192,104606,5,2,0:0:0:0:
272,192,104783,1,2,0:0:0:0:
224,192,104871,1,0,0:0:0:0:
176,192,104959,1,2,0:0:0:0:
80,192,105136,2,0,L|16:192,1,47.5,2|0,0:0|0:0,0:0:0:0:
400,192,105312,2,0,L|496:192,1,95,2|0,0:0|0:0,0:0:0:0:
240,192,105665,2,0,L|336:192,1,95,8|8,0:0|0:0,0:0:0:0:
16,144,106018,5,4,0:0:0:0:
144,144,106195,2,0,L|256:144,1,95,2|10,0:0|0:0,0:0:0:0:
80,144,106547,1,6,0:0:0:0:
496,144,106724,1,6,0:0:0:0:
368,144,106901,1,2,0:0:0:0:
320,144,106989,1,0,0:0:0:0:
368,144,107077,1,10,0:0:0:0:
192,144,107253,1,4,0:0:0:0:
336,192,107430,6,0,L|416:272,1,95,2|8,0:0|0:0,0:0:0:0:
144,272,107783,2,0,L|48:272,1,95,6|4,0:0|0:0,0:0:0:0:
288,272,108136,6,0,L|352:272,1,47.5,6|0,0:0|0:0,0:0:0:0:
496,272,108312,2,0,L|448:272,1,47.5,0|0,0:0|0:0,0:0:0:0:
240,240,108489,2,0,L|304:240,1,47.5,0|0,0:0|0:0,0:0:0:0:
448,240,108665,2,0,L|400:240,1,47.5,0|0,0:0|0:0,0:0:0:0:
96,192,108842,6,0,L|16:304,1,118.75,4|0,0:1|0:0,0:0:0:0:
384,256,109195,2,0,L|320:144,1,118.75,10|0,0:0|0:0,0:0:0:0:
496,144,109547,1,6,0:0:0:0:
320,144,109724,1,2,0:0:0:0:
256,144,109812,1,0,0:0:0:0:
320,144,109900,1,10,0:0:0:0:
48,144,110077,1,2,0:0:0:0:
208,144,110253,5,6,0:0:0:0:
64,144,110430,1,2,0:0:0:0:
128,144,110518,1,0,0:0:0:0:
64,144,110606,1,10,0:0:0:0:
320,144,110783,1,0,0:0:0:0:
208,144,110959,5,6,0:0:0:0:
352,144,111136,1,2,0:0:0:0:
288,144,111224,1,0,0:0:0:0:
352,144,111312,1,10,0:0:0:0:
464,144,111489,2,0,L|384:144,1,59.375,2|0,0:0|0:0,0:0:0:0:
208,144,111665,2,0,L|80:144,1,118.75,6|2,0:0|0:0,0:0:0:0:
144,144,111930,1,0,0:0:0:0:
352,144,112018,2,0,L|448:224,1,118.75,10|0,0:0|0:0,0:0:0:0:
304,224,112371,5,6,0:0:0:0:
112,224,112547,2,0,L|192:224,1,59.375,2|0,0:0|0:0,0:0:0:0:
400,224,112724,2,0,L|496:128,1,118.75,10|2,0:0|0:0,0:0:0:0:
240,112,113077,1,6,0:0:0:0:
352,112,113253,1,0,0:0:0:0:
240,112,113430,1,10,0:0:0:0:
480,112,113606,1,0,0:0:0:0:
144,112,113783,5,6,0:0:0:0:
102,151,113871,1,0,0:0:0:0:
101,209,113959,1,0,0:0:0:0:
141,250,114047,1,0,0:0:0:0:
416,256,114136,1,4,0:0:0:0:
439,238,114180,1,0,0:0:0:0:
449,210,114224,1,0,0:0:0:0:
444,181,114268,1,0,0:0:0:0:
424,160,114312,1,0,0:0:0:0:
396,152,114356,1,0,0:0:0:0:
367,160,114400,1,0,0:0:0:0:
176,160,114489,6,0,L|304:160,2,118.75,6|0|10,0:0|0:0|0:0,0:0:0:0:
432,160,115018,1,0,0:0:0:0:
320,160,115195,1,6,0:0:0:0:
80,160,115371,1,2,0:0:0:0:
144,160,115459,1,0,0:0:0:0:
80,160,115547,1,10,0:0:0:0:
320,160,115724,1,2,0:0:0:0:
144,160,115901,1,6,0:0:0:0:
432,288,116077,1,2,0:0:0:0:
368,288,116165,1,0,0:0:0:0:
432,288,116253,1,10,0:0:0:0:
128,160,116430,6,0,L|64:160,1,59.375,2|0,0:0|0:0,0:0:0:0:
368,160,116606,2,0,P|432:208|448:256,1,118.75,6|2,0:0|0:0,0:0:0:0:
384,256,116871,1,0,0:0:0:0:
144,304,116959,2,0,P|80:256|64:208,1,118.75,10|2,0:0|0:0,0:0:0:0:
128,208,117224,1,0,0:0:0:0:
384,160,117312,5,6,0:0:0:0:
112,160,117488,1,0,0:0:0:0:
352,160,117665,1,10,0:0:0:0:
80,160,117842,1,0,0:0:0:0:
320,160,118018,1,6,0:0:0:0:
48,160,118195,1,2,0:0:0:0:
112,160,118283,1,0,0:0:0:0:
48,160,118371,1,10,0:0:0:0:
384,160,118547,1,2,0:0:0:0:
48,160,118724,6,0,L|0:304,1,118.75,6|4,0:0|0:0,0:0:0:0:
400,288,119077,2,0,L|512:224,1,118.75,14|4,0:0|0:0,0:0:0:0:
160,160,119430,5,10,0:0:0:0:
80,160,119518,1,8,0:0:0:0:
0,160,119606,1,8,0:0:0:0:
80,160,119694,1,8,0:0:0:0:
352,112,119783,1,8,0:0:0:0:
432,112,119871,1,8,0:0:0:0:
352,112,119959,1,8,0:0:0:0:
272,112,120047,1,8,0:0:0:0:
112,112,120136,6,0,L|17:112,1,95,12|0,0:0|0:0,0:0:0:0:
64,112,120400,1,0,0:0:0:0:
352,112,120489,2,0,L|448:112,1,95,6|2,0:0|0:0,0:0:0:0:
208,112,120842,2,0,L|304:112,1,95,6|2,0:0|0:0,0:0:0:0:
352,112,121106,1,0,0:0:0:0:
128,112,121195,2,0,L|16:112,1,95,6|0,0:0|0:0,0:0:0:0:
320,192,121547,6,0,L|208:192,1,95,6|0,0:0|0:0,0:0:0:0:
384,192,121900,2,0,L|464:256,1,95,6|2,0:0|0:0,0:0:0:0:
207,272,122253,2,0,L|112:272,1,95,6|0,0:0|0:0,0:0:0:0:
160,272,122518,1,0,0:0:0:0:
352,272,122606,2,0,L|448:224,1,95,4|2,0:0|0:0,0:0:0:0:
96,192,122959,6,0,P|64:144|96:96,1,95,2|0,0:0|0:0,0:0:0:0:
416,192,123312,2,0,P|448:240|416:288,1,95,6|2,0:0|0:0,0:0:0:0:
160,272,123665,2,0,L|272:272,1,95,6|2,0:0|0:0,0:0:0:0:
208,272,123930,1,0,0:0:0:0:
384,272,124018,2,0,L|480:272,1,95,6|0,0:0|0:0,0:0:0:0:
432,272,124283,5,0,0:0:0:0:
96,272,124371,1,6,0:0:0:0:
48,240,124459,1,0,0:0:0:0:
96,224,124547,1,0,0:0:0:0:
144,208,124635,1,0,0:0:0:0:
352,224,124724,1,6,0:0:0:0:
382,189,124812,1,0,0:0:0:0:
372,144,124900,1,2,0:0:0:0:
330,126,124988,1,0,0:0:0:0:
112,176,125077,5,4,0:0:0:0:
64,176,125165,1,0,0:0:0:0:
112,176,125253,1,0,0:0:0:0:
64,176,125341,1,0,0:0:0:0:
384,96,125430,1,4,0:0:0:0:
432,112,125518,1,0,0:0:0:0:
480,128,125606,1,0,0:0:0:0:
432,160,125694,1,0,0:0:0:0:
144,208,125783,6,0,L|32:160,1,95,12|0,0:0|0:0,0:0:0:0:
96,160,126047,1,0,0:0:0:0:
330,126,126136,2,0,L|208:128,1,95,6|2,0:0|0:0,0:0:0:0:
288,128,126400,1,0,0:0:0:0:
480,128,126489,2,0,L|416:224,1,95,6|2,0:0|0:0,0:0:0:0:
480,224,126753,1,0,0:0:0:0:
80,160,126842,2,0,L|208:160,1,95,6|2,0:0|0:0,0:0:0:0:
128,160,127106,1,0,0:0:0:0:
336,224,127195,6,0,L|400:224,1,47.5,6|0,0:0|0:0,0:0:0:0:
192,208,127371,2,0,L|112:208,1,47.5,0|0,0:0|0:0,0:0:0:0:
416,176,127547,2,0,L|480:176,1,47.5,6|0,0:0|0:0,0:0:0:0:
128,160,127724,2,0,L|64:160,1,47.5,2|0,0:0|0:0,0:0:0:0:
383,128,127900,2,0,L|336:128,1,47.5,6|0,0:0|0:0,0:0:0:0:
64,112,128077,2,0,L|128:112,1,47.5,0|0,0:0|0:0,0:0:0:0:
464,80,128253,2,0,L|512:80,1,47.5,4|0,0:0|0:0,0:0:0:0:
64,64,128430,2,0,L|0:64,1,47.5,2|0,0:0|0:0,0:0:0:0:
448,64,128606,5,4,0:0:0:0:
304,64,128782,1,4,0:0:0:0:
416,96,128959,1,4,0:0:0:0:
272,96,129136,2,0,L|208:96,1,47.5,4|0,0:0|0:0,0:0:0:0:
32,128,129312,1,4,0:0:0:0:
64,192,129400,1,4,0:0:0:0:
128,224,129489,1,4,0:0:0:0:
192,224,129577,1,4,0:0:0:0:
432,192,129665,6,0,L|336:192,1,95,12|12,0:0|0:0,0:0:0:0:
80,176,130018,2,0,P|64:128|112:80,1,95,4|0,1:0|0:0,0:0:0:0:
352,224,130371,2,0,P|368:272|320:320,1,95,4|0,1:0|0:0,0:0:0:0:
64,304,130724,1,4,1:0:0:0:
240,304,130900,1,8,0:0:0:0:
416,304,131077,1,8,0:0:0:0:
160,112,131253,6,0,P|80:192|112:224,1,190,6|2,0:0|0:0,0:0:0:0:
272,240,131783,1,2,0:0:0:0:
96,240,131959,1,2,0:0:0:0:
416,240,132136,1,2,0:0:0:0:
320,240,132312,1,2,0:0:0:0:
224,240,132489,1,2,0:0:0:0:
480,240,132665,1,2,0:0:0:0:
0,240,133371,1,2,0:0:0:0:
256,192,133547,12,0,134959,0:0:0:0:
