osu file format v14

[General]
AudioFilename: Cherry Blossom.mp3
AudioLeadIn: 0
PreviewTime: 108848
Countdown: 0
SampleSet: Soft
StackLeniency: 0.3
Mode: 0
LetterboxInBreaks: 0
WidescreenStoryboard: 1

[Editor]
Bookmarks: 7201,12848,18495,24142,29789,35436,41083,52377,74966,97554,108848,120142,131436
DistanceSpacing: 0.5
BeatDivisor: 4
GridSize: 4
TimelineZoom: 1.1

[Metadata]
Title:Cherry Blossom
TitleUnicode:Cherry Blossom
Artist:Memme
ArtistUnicode:Memme
Creator:Priti
Version:Ultra
Source:Music & Beat (O2Jam)
Tags:SoundCloud ParkMemme Electronic Bonzi Asphyxia Karen Leader rrtyui
BeatmapID:1029719
BeatmapSetID:442581

[Difficulty]
HPDrainRate:6
CircleSize:5
OverallDifficulty:9
ApproachRate:9.4
SliderMultiplier:1.9
SliderTickRate:1

[Events]
//Background and Video events
0,0,"Cherry Blossom.jpg",0,0
//Break Periods
2,63865,68067
2,97747,102655
//Storyboard Layer 0 (Background)
//Storyboard Layer 1 (Fail)
//Storyboard Layer 2 (Pass)
//Storyboard Layer 3 (Foreground)
//Storyboard Sound Samples

[TimingPoints]
1548.26472818128,352.941176470588,4,2,2,80,1,0
12842,-133.333333333333,4,2,2,70,0,0
15312,-100,4,2,2,70,0,0
15665,-133.333333333333,4,2,2,70,0,0
18136,-133.333333333333,4,2,1,70,0,0
18489,-80,4,2,2,80,0,0
23430,-66.6666666666667,4,2,2,80,0,0
24136,-100,4,2,2,80,0,0
26960,-80,4,2,2,80,0,0
28371,-66.6666666666667,4,2,2,80,0,0
29783,-100,4,2,2,65,0,0
41077,-100,4,2,2,75,0,0
52018,-133.333333333333,4,2,2,75,0,0
52371,-133.333333333333,4,2,1,90,0,0
52724,-66.6666666666667,4,2,1,90,0,0
53430,-57.1428571428571,4,2,1,90,0,0
53783,-100,4,2,1,90,0,0
53960,-66.6666666666667,4,2,1,90,0,0
54842,-57.1428571428571,4,2,1,90,0,0
55195,-100,4,2,1,90,0,0
55901,-66.6666666666667,4,2,1,90,0,0
56254,-57.1428571428571,4,2,1,90,0,0
57665,-100,4,2,1,90,0,0
63312,-66.6666666666667,4,2,1,90,0,0
63665,-133.333333333333,4,2,1,75,0,0
72136,-133.333333333333,4,1,1,85,0,0
73548,-66.6666666666667,4,2,1,85,0,0
74607,-100,4,2,1,85,0,0
74960,-200,4,2,1,85,0,0
75312,-57.1428571428571,4,3,1,95,0,0
77430,-50,4,3,1,95,0,0
77783,-133.333333333333,4,3,1,95,0,0
78136,-80,4,2,1,95,0,0
80607,-200,4,2,1,95,0,0
80960,-57.1428571428571,4,3,1,95,0,0
81665,-100,4,3,1,95,0,0
82018,-57.1428571428571,4,3,1,95,0,0
82548,-100,4,3,1,95,0,0
82901,-50,4,3,1,95,0,0
83430,-133.333333333333,4,2,1,95,0,0
83783,-80,4,2,1,95,0,0
84842,-133.333333333333,4,2,1,75,0,0
85901,-66.6666666666667,4,2,2,75,0,0
86254,-100,4,2,2,75,0,0
86607,-66.6666666666667,4,2,1,75,0,0
89077,-100,4,2,1,75,0,0
89430,-66.6666666666667,4,2,1,75,0,0
94371,-100,4,2,1,75,0,0
103195,-133.333333333333,4,2,1,75,0,0
106018,-100,4,2,2,75,0,0
108489,-66.6666666666667,4,2,2,75,0,0
108842,-66.6666666666667,4,2,2,95,0,1
120136,-100,4,2,2,85,0,0
125077,-66.6666666666667,4,2,2,85,0,0
125783,-100,4,2,2,85,0,0
128254,-66.6666666666667,4,2,2,60,0,0
128607,-66.6666666666667,4,2,2,85,0,0
131254,-133.333333333333,4,2,2,50,0,0
131960,-133.333333333333,4,2,2,45,0,0
132136,-133.333333333333,4,2,2,40,0,0
132489,-133.333333333333,4,2,2,35,0,0
133371,-100,4,2,2,25,0,0

[Colours]
Combo1 : 95,104,216
Combo2 : 249,100,137
Combo3 : 105,197,252
Combo4 : 244,104,206

[HitObjects]
140,233,1548,6,0,L|241:238,1,95,4|0,1:2|0:0,0:0:0:0:
313,183,1901,1,0,0:0:0:0:
297,89,2077,1,0,0:0:0:0:
381,44,2254,1,0,0:0:0:0:
449,109,2430,1,0,0:0:0:0:
425,113,2518,1,0,0:0:0:0:
401,117,2607,1,0,0:0:0:0:
408,193,2783,1,0,0:0:0:0:
297,89,2960,5,0,0:0:0:0:
313,183,3136,1,0,0:0:0:0:
289,179,3225,1,0,0:0:0:0:
265,175,3313,1,0,0:0:0:0:
381,44,3489,1,0,0:0:0:0:
408,193,3665,5,0,0:0:0:0:
297,89,3842,1,0,0:0:0:0:
293,65,3931,1,0,0:0:0:0:
289,41,4019,1,0,0:0:0:0:
149,14,4195,1,0,0:0:0:0:
145,38,4283,1,0,0:0:0:0:
141,62,4372,6,0,L|39:67,1,95,0|0,0:0|0:0,0:0:0:0:
23,158,4724,2,0,L|141:171,1,95,0|0,0:0|0:0,0:0:0:0:
202,125,5077,1,0,0:0:0:0:
292,248,5254,1,0,0:0:0:0:
268,243,5342,1,0,0:0:0:0:
244,243,5430,1,0,0:0:0:0:
221,247,5518,1,0,0:0:0:0:
199,255,5606,1,0,0:0:0:0:
178,267,5695,1,0,0:0:0:0:
160,282,5783,6,0,P|106:286|66:269,1,95,0|0,0:0|0:0,0:0:0:0:
23,158,6136,2,0,P|67:142|114:146,1,95,0|0,0:0|0:0,0:0:0:0:
244,243,6489,2,0,L|257:47,1,190,0|0,0:0|0:0,0:0:0:0:
493,133,7195,6,0,B|389:143|389:143|359:110,1,142.5,4|0,1:2|0:0,0:0:0:0:
381,45,7548,1,8,1:0:0:0:
429,223,7724,1,0,0:0:0:0:
250,175,7901,1,0,0:0:0:0:
495,85,8077,2,0,L|492:142,1,47.5,0|2,1:0|0:0,0:0:0:0:
429,223,8254,1,8,1:0:0:0:
262,59,8430,6,0,L|309:54,1,47.5,4|0,1:2|0:0,0:0:0:0:
381,45,8607,1,0,0:0:0:0:
365,138,8783,1,0,1:0:0:0:
505,179,8960,2,0,L|495:84,1,95,8|2,1:0|0:0,0:0:0:0:
494,75,9224,1,0,0:0:0:0:
492,65,9312,1,2,0:0:0:0:
365,138,9489,2,0,L|356:189,1,47.5,4|0,1:2|0:0,0:0:0:0:
494,271,9665,2,0,P|508:225|505:178,1,95,8|4,1:0|0:0,0:0:0:0:
381,45,10018,5,0,0:0:0:0:
356,184,10195,2,0,P|360:211|374:247,1,47.5,0|0,1:0|0:0,0:0:0:0:
404,317,10371,2,0,P|314:352|265:333,1,142.5,8|0,1:0|0:0,0:0:0:0:
199,278,10724,1,0,1:0:0:0:
366,138,10901,2,0,P|362:164|348:200,1,47.5,8|0,1:0|0:0,0:0:0:0:
286,144,11077,1,0,0:0:0:0:
494,271,11254,6,2,B|498:191|498:191|479:166|479:166|483:86,1,190,4|4,0:0|3:0,0:0:0:0:
485,77,11695,1,4,3:0:0:0:
486,67,11783,1,2,3:0:0:0:
369,223,11960,2,0,L|416:219,1,47.5,0|4,0:0|0:3,0:0:0:0:
369,106,12136,5,2,0:0:0:0:
363,114,12224,1,2,0:0:0:0:
350,127,12312,1,0,0:0:0:0:
327,145,12401,1,2,0:0:0:0:
292,159,12489,1,0,1:0:0:0:
245,162,12577,1,2,0:0:0:0:
190,141,12665,1,0,1:0:0:0:
146,91,12754,1,2,1:2:0:0:
138,15,12842,6,0,L|54:22,1,71.2500027179719,4|0,1:2|0:0,0:0:0:0:
54,33,13107,1,0,0:0:0:0:
40,44,13195,2,0,L|34:115,1,71.2500027179719,0|0,1:0|0:0,0:0:0:0:
195,212,13548,2,0,L|190:141,1,71.2500027179719,0|0,1:0|0:0,0:0:0:0:
86,255,13901,1,0,1:0:0:0:
86,255,14077,1,0,0:0:0:0:
178,329,14254,6,0,P|211:332|255:318,1,71.2500027179719,0|0,1:0|0:0,0:0:0:0:
261,311,14518,1,0,0:0:0:0:
273,298,14607,2,0,L|319:302,1,35.625001358986,0|2,1:0|0:0,0:0:0:0:
372,330,14783,2,0,L|418:326,1,35.625001358986,0|2,0:0|0:0,0:0:0:0:
458,276,14960,2,0,L|464:180,1,71.2500027179719,0|2,1:0|0:0,0:0:0:0:
369,89,15312,2,2,B|387:178|349:137|370:229,1,142.5,2|0,1:2|0:0,0:0:0:0:
379,244,15665,5,4,1:2:0:0:
198,185,15842,2,0,L|207:135,1,35.625001358986,0|2,0:0|0:0,0:0:0:0:
217,80,16018,1,0,1:0:0:0:
221,62,16107,1,0,0:0:0:0:
40,128,16283,1,2,0:0:0:0:
52,140,16371,2,0,L|122:133,1,71.2500027179719,4|2,1:2|0:0,0:0:0:0:
158,256,16724,2,0,L|87:249,1,71.2500027179719,0|2,1:0|0:0,0:0:0:0:
75,377,17077,6,0,P|105:363|116:361,1,35.625001358986,4|0,1:3|0:0,0:0:0:0:
200,327,17254,2,0,P|232:324|243:325,1,35.625001358986,4|0,1:3|0:0,0:0:0:0:
334,322,17430,2,0,P|365:330|375:336,1,35.625001358986,4|0,1:3|0:0,0:0:0:0:
461,363,17607,6,0,L|471:311,1,35.625001358986,4|8,0:3|0:0,0:0:0:0:
393,106,17783,1,0,1:0:0:0:
396,141,17871,1,8,1:2:0:0:
399,176,17959,1,0,1:0:0:0:
402,212,18047,1,0,1:0:0:0:
405,247,18136,6,0,P|361:247|320:232,1,71.2500027179719,8|2,1:0|0:0,0:0:0:0:
247,167,18401,1,2,0:0:0:0:
234,178,18489,6,0,B|204:287|259:240|233:352,1,178.125,6|0,1:2|0:0,0:0:0:0:
25,316,18842,2,0,L|144:304,1,118.75,8|0,1:0|0:0,0:0:0:0:
87,156,19107,1,2,0:0:0:0:
116,162,19195,2,0,L|243:179,1,118.75,0|2,1:0|0:0,0:0:0:0:
446,117,19460,1,0,0:0:0:0:
422,100,19548,2,0,P|381:90|360:91,1,59.375,8|0,1:0|0:0,0:0:0:0:
434,202,19724,2,0,P|463:201|491:192,1,59.375,2|0,0:0|0:0,0:0:0:0:
326,32,19901,6,0,L|316:163,1,118.75,0|2,1:0|0:0,0:0:0:0:
315,181,20165,1,0,0:0:0:0:
313,211,20254,1,8,1:0:0:0:
186,55,20430,1,2,0:0:0:0:
190,84,20518,1,2,0:0:0:0:
194,114,20607,2,0,P|126:120|77:94,1,118.75,0|2,1:0|0:0,0:0:0:0:
18,8,20960,1,8,1:0:0:0:
3,207,21136,2,0,L|66:202,1,59.375,2|0,0:0|0:0,0:0:0:0:
175,223,21312,6,0,L|35:215,1,118.75,2|0,1:2|0:0,0:0:0:0:
14,358,21577,1,2,0:0:0:0:
32,336,21665,2,0,B|73:302|73:302|201:308,1,178.125,8|2,1:0|0:0,0:0:0:0:
310,347,22018,2,0,P|351:292|333:231,1,118.75,0|2,1:0|0:0,0:0:0:0:
180,134,22283,1,0,0:0:0:0:
178,163,22371,2,0,L|174:222,1,59.375,8|0,1:0|0:0,0:0:0:0:
32,256,22548,2,0,L|20:192,1,59.375,2|0,0:0|0:0,0:0:0:0:
121,82,22724,6,0,L|265:94,1,118.75,0|2,1:0|0:0,0:0:0:0:
298,98,22989,1,2,0:0:0:0:
356,104,23077,2,0,B|381:221|327:160|355:278,1,178.125,8|2,1:0|0:0,0:0:0:0:
474,303,23430,6,0,P|468:249|453:218,1,71.2500027179719,2|0,1:2|0:0,0:0:0:0:
417,149,23607,2,0,P|388:102|362:80,1,71.2500027179719,4|2,0:0|0:0,0:0:0:0:
239,20,23783,6,0,P|223:72|203:100,1,71.2500027179719,8|0,1:0|0:0,0:0:0:0:
156,161,23960,2,0,P|120:201|90:218,1,71.2500027179719,6|0,0:0|0:0,0:0:0:0:
22,17,24136,6,0,L|141:23,1,95,4|2,1:2|0:0,0:0:0:0:
247,201,24489,2,0,L|69:212,1,142.5,8|2,1:0|0:0,0:0:0:0:
43,314,24842,2,0,P|89:308|126:335,1,95,0|2,1:0|0:0,0:0:0:0:
148,333,25107,1,2,0:0:0:0:
172,331,25195,1,8,1:0:0:0:
257,217,25371,1,2,0:0:0:0:
313,347,25548,6,0,L|411:342,1,95,0|2,1:0|0:0,0:0:0:0:
415,320,25812,1,2,0:0:0:0:
422,296,25901,1,8,1:0:0:0:
284,199,26077,2,0,P|286:237|299:260,1,47.5,0|2,0:0|0:0,0:0:0:0:
340,162,26254,2,0,L|198:157,1,142.5,0|0,1:0|0:0,0:0:0:0:
152,236,26607,1,8,1:0:0:0:
116,60,26783,1,2,0:0:0:0:
31,218,26960,6,0,P|6:106|38:37,1,178.125,4|0,1:2|0:0,0:0:0:0:
116,60,27312,1,8,1:0:0:0:
152,236,27489,1,2,0:0:0:0:
287,117,27665,2,0,L|426:122,1,118.75,4|2,1:2|3:2,0:0:0:0:
407,134,27901,1,2,3:2:0:0:
410,147,27960,1,2,3:2:0:0:
413,159,28019,2,0,P|406:198|391:223,1,59.375,8|0,1:0|0:0,0:0:0:0:
301,281,28195,2,0,P|288:254|284:224,1,59.375,2|0,0:0|0:0,0:0:0:0:
340,33,28372,6,0,P|281:19|201:67,1,142.500005435944,4|2,1:2|0:0,0:0:0:0:
430,302,28724,2,0,P|361:315|301:281,1,142.500005435944,4|2,1:2|0:0,0:0:0:0:
477,159,29077,2,2,L|248:171,1,213.750008153916,4|0,1:2|0:1,0:0:0:0:
249,171,29430,1,0,3:0:0:0:
301,281,29607,1,2,3:0:0:0:
179,271,29783,6,0,L|184:374,1,95,4|0,1:2|0:0,0:0:0:0:
98,322,30136,1,0,1:0:0:0:
301,281,30312,2,0,P|363:287|392:299,1,95,2|0,0:0|1:0,0:0:0:0:
470,353,30665,1,2,0:0:0:0:
506,265,30842,2,0,L|497:158,1,95,0|2,1:0|0:0,0:0:0:0:
488,27,31195,5,0,1:0:0:0:
403,70,31371,2,0,L|362:63,3,31.6666666666667,2|2|2|0,0:0|0:0|0:0|1:0,0:0:0:0:
277,48,31724,1,2,0:0:0:0:
285,223,31901,2,0,P|312:185|309:138,1,95,0|0,1:0|0:0,0:0:0:0:
179,54,32254,2,0,L|80:59,1,95,0|2,1:0|0:0,0:0:0:0:
247,165,32607,6,0,L|57:149,1,190,0|0,1:0|1:0,0:0:0:0:
68,253,33136,1,0,0:0:0:0:
78,274,33224,1,0,0:0:0:0:
89,295,33312,2,0,L|197:286,1,95,2|2,1:2|0:0,0:0:0:0:
193,273,33547,1,2,0:0:0:0:
202,260,33607,1,2,0:0:0:0:
211,247,33665,2,0,P|258:248|312:283,1,95,0|0,1:0|0:0,0:0:0:0:
367,336,34018,5,0,1:0:0:0:
480,247,34195,1,0,0:0:0:0:
460,105,34372,1,0,1:0:0:0:
348,194,34548,1,0,0:0:0:0:
392,364,34724,5,0,1:0:0:0:
505,275,34901,1,0,0:0:0:0:
485,133,35078,1,0,1:0:0:0:
373,222,35254,2,0,P|333:226|306:233,1,47.5,2|2,0:0|0:0,0:0:0:0:
235,283,35430,6,0,P|222:228|227:188,1,95,0|0,1:0|0:0,0:0:0:0:
316,89,35783,2,0,L|205:81,1,95,0|2,1:0|0:0,0:0:0:0:
197,79,36048,1,2,0:0:0:0:
173,76,36136,2,0,P|125:96|77:90,1,95,0|0,1:0|0:0,0:0:0:0:
5,37,36489,1,2,1:2:0:0:
83,190,36665,1,0,0:0:0:0:
79,213,36753,1,2,0:0:0:0:
76,237,36842,6,0,L|176:230,1,95,0|0,1:0|0:0,0:0:0:0:
187,247,37107,1,0,0:0:0:0:
203,263,37195,2,0,L|253:266,1,47.5,0|0,1:0|0:0,0:0:0:0:
320,270,37371,2,0,L|370:273,1,47.5,2|0,0:0|0:0,0:0:0:0:
439,278,37548,2,0,P|457:226|451:183,1,95,2|0,1:2|0:0,0:0:0:0:
316,100,37901,2,0,P|312:146|329:190,1,95,0|2,1:2|0:0,0:0:0:0:
434,62,38254,6,0,L|238:50,1,190,2|0,1:2|1:0,0:0:0:0:
138,153,38783,2,0,L|195:149,1,47.5,2|0,0:0|0:0,0:0:0:0:
270,194,38960,2,0,P|272:241|257:285,1,95,0|2,1:0|0:0,0:0:0:0:
134,347,39312,2,0,L|122:244,1,95,2|2,1:2|0:0,0:0:0:0:
43,34,39665,5,0,1:0:0:0:
69,58,39753,1,2,0:0:0:0:
81,91,39841,1,2,0:0:0:0:
77,126,39929,1,2,0:0:0:0:
57,156,40018,5,0,1:0:0:0:
26,191,40106,1,2,0:0:0:0:
17,237,40194,1,2,0:0:0:0:
32,282,40282,1,2,0:0:0:0:
67,313,40372,5,0,1:0:0:0:
124,321,40460,1,0,3:0:0:0:
175,292,40548,1,0,3:0:0:0:
197,239,40636,1,0,3:0:0:0:
181,182,40724,6,0,L|184:120,1,47.5,8|0,1:0|0:0,0:0:0:0:
193,34,40901,1,2,0:0:0:0:
89,143,41077,6,0,L|194:134,1,95,4|0,1:2|0:0,0:0:0:0:
279,125,41430,1,4,1:3:0:0:
400,207,41607,1,0,0:0:0:0:
397,197,41695,1,2,0:0:0:0:
417,185,41783,2,0,L|404:307,1,95,0|2,1:0|0:0,0:0:0:0:
271,264,42136,1,4,1:3:0:0:
331,338,42312,1,2,0:0:0:0:
197,323,42489,6,0,L|99:331,1,95,0|2,1:0|0:0,0:0:0:0:
85,313,42754,1,2,0:0:0:0:
68,296,42842,2,0,L|75:201,1,95,4|0,1:3|0:0,0:0:0:0:
256,140,43195,2,0,P|196:156|88:92,1,190,0|4,1:0|1:3,0:0:0:0:
197,28,43724,1,2,0:0:0:0:
347,99,43901,6,0,L|334:207,1,95,2|0,1:2|0:0,0:0:0:0:
176,288,44254,2,0,L|164:189,1,95,4|2,1:3|0:0,0:0:0:0:
160,169,44518,1,0,0:0:0:0:
157,146,44607,1,2,1:2:0:0:
32,240,44784,1,2,3:2:0:0:
33,229,44842,1,2,3:2:0:0:
35,219,44901,1,2,3:2:0:0:
37,208,44960,2,0,P|41:159|18:109,1,95,4|2,1:3|0:0,0:0:0:0:
33,95,45224,1,2,0:0:0:0:
41,72,45312,6,0,L|141:76,1,95,0|2,1:0|0:0,0:0:0:0:
297,139,45665,2,0,L|203:143,1,95,4|2,1:3|0:0,0:0:0:0:
365,71,46018,1,2,1:2:0:0:
365,71,46371,1,4,1:3:0:0:
456,104,46548,1,2,0:0:0:0:
452,127,46636,1,2,0:0:0:0:
448,150,46724,6,0,L|456:246,1,95,0|2,1:0|0:0,0:0:0:0:
464,340,47077,1,4,1:3:0:0:
318,206,47254,1,2,0:0:0:0:
341,208,47342,1,2,0:0:0:0:
365,210,47430,2,0,P|376:153|353:108,1,95,0|2,1:0|0:0,0:0:0:0:
348,100,47695,1,2,0:0:0:0:
330,83,47783,2,0,L|228:91,1,95,4|0,1:3|0:0,0:0:0:0:
218,73,48048,1,0,0:0:0:0:
201,56,48136,5,0,1:0:0:0:
64,192,48312,1,2,0:0:0:0:
86,185,48400,1,0,0:0:0:0:
110,183,48488,1,4,1:3:0:0:
134,185,48576,1,0,0:0:0:0:
156,191,48664,1,0,0:0:0:0:
178,202,48753,1,0,0:0:0:0:
197,216,48842,2,0,P|241:222|300:201,1,95,2|0,1:2|0:0,0:0:0:0:
386,95,49195,1,4,1:3:0:0:
388,118,49283,1,0,0:0:0:0:
391,142,49371,1,2,0:0:0:0:
393,165,49459,1,0,0:0:0:0:
396,189,49547,5,0,1:0:0:0:
369,227,49636,1,0,0:0:0:0:
328,250,49724,1,2,0:0:0:0:
281,252,49812,1,0,0:0:0:0:
238,233,49901,1,4,1:3:0:0:
211,194,49989,1,0,0:0:0:0:
170,171,50077,1,2,0:0:0:0:
123,169,50165,1,2,0:0:0:0:
80,188,50254,2,0,L|71:76,1,95,0|2,1:0|0:0,0:0:0:0:
89,76,50518,1,2,0:0:0:0:
105,58,50607,2,0,P|151:78|209:63,1,95,4|0,1:3|0:0,0:0:0:0:
343,20,50960,6,0,P|308:13|293:13,1,47.5,0|0,1:0|0:0,0:0:0:0:
331,100,51136,2,0,P|354:98|377:92,1,47.5,0|0,0:0|0:0,0:0:0:0:
472,16,51312,2,0,L|469:71,1,47.5,2|0,1:3|0:0,0:0:0:0:
464,158,51489,2,0,L|461:213,1,47.5,0|0,0:0|0:0,0:0:0:0:
456,300,51665,6,0,P|403:317|355:303,1,95,2|4,1:3|3:0,0:0:0:0:
348,292,51930,1,0,0:0:0:0:
330,275,52018,2,0,L|249:280,1,71.2500027179719,14|4,1:3|3:0,0:0:0:0:
132,176,52371,6,2,P|181:203|247:190,1,106.875004076958,4|0,1:1|0:1,0:0:0:0:
349,150,52724,6,0,B|311:187|311:187|330:275,1,142.500005435944,8|0,1:0|0:0,0:0:0:0:
482,209,52989,2,0,B|501:121|501:121|463:83,1,142.500005435944,14|0,1:3|0:0,0:0:0:0:
360,0,53254,2,0,L|376:73,1,71.2500027179719,4|2,1:3|0:0,0:0:0:0:
186,139,53430,6,2,B|226:110|275:119|302:155|309:177|309:177|349:149|349:149|372:169|398:163,1,249.375002378225,10|0,1:0|0:1,0:0:0:0:
238,252,53783,6,0,L|234:205,1,47.5,0|0,1:0|0:0,0:0:0:0:
112,73,53960,2,0,L|103:147,1,71.2500027179719,2|0,3:0|0:0,0:0:0:0:
85,277,54136,1,8,1:0:0:0:
41,85,54312,5,2,3:2:0:0:
112,73,54401,2,2,B|171:66|171:66|188:76|188:76|268:68,1,142.500005435944,2|0,1:3|0:1,0:0:0:0:
483,28,54666,5,0,1:2:0:0:
503,73,54754,1,2,1:2:0:0:
485,119,54842,2,2,B|358:109|358:109|301:127|301:127|326:107|328:69,1,249.375002378225,8|0,1:1|0:0,0:0:0:0:
442,203,55195,6,0,L|330:210,1,95,14|0,1:3|0:0,0:0:0:0:
330,225,55460,1,2,0:0:0:0:
313,241,55548,5,8,1:0:0:0:
267,204,55636,1,2,0:0:0:0:
209,203,55724,1,2,0:0:0:0:
163,238,55812,1,0,0:0:0:0:
149,295,55901,6,0,P|101:281|65:279,1,71.2500027179719,2|0,1:0|0:0,0:0:0:0:
12,154,56077,2,0,P|47:149|80:137,1,71.2500027179719,4|0,1:3|0:0,0:0:0:0:
245,18,56254,6,0,L|136:5,1,83.1250007927418,10|0,1:0|0:0,0:0:0:0:
209,203,56430,2,0,L|291:193,1,83.1250007927418,0|0,0:0|0:0,0:0:0:0:
399,128,56607,5,2,1:2:0:0:
384,88,56695,1,2,0:0:0:0:
360,54,56783,1,2,0:0:0:0:
325,30,56871,1,0,0:0:0:0:
286,18,56959,1,2,1:3:0:0:
245,18,57048,1,2,0:0:0:0:
206,31,57136,1,0,3:0:0:0:
173,56,57224,1,0,3:0:0:0:
148,89,57312,1,0,1:0:0:0:
135,128,57401,1,2,0:0:0:0:
135,169,57489,1,2,0:0:0:0:
148,209,57577,1,2,0:0:0:0:
172,243,57666,6,0,L|229:238,1,47.5,2|0,1:3|0:0,0:0:0:0:
333,192,57842,2,0,L|389:197,1,47.5,0|0,0:0|0:0,0:0:0:0:
477,272,58018,5,4,1:2:0:0:
497,229,58106,1,2,0:0:0:0:
504,182,58194,1,2,0:0:0:0:
498,135,58282,1,2,0:0:0:0:
478,92,58370,1,8,1:0:0:0:
446,57,58459,1,2,0:0:0:0:
406,32,58547,5,4,1:2:0:0:
372,64,58636,1,2,0:0:0:0:
331,89,58724,1,2,0:0:0:0:
286,104,58812,1,2,0:0:0:0:
239,109,58900,1,2,0:0:0:0:
192,104,58989,1,2,0:0:0:0:
147,90,59077,1,8,1:0:0:0:
107,65,59165,1,2,0:0:0:0:
61,70,59253,1,2,1:2:0:0:
26,101,59341,1,2,0:0:0:0:
16,146,59429,5,4,1:2:0:0:
61,160,59518,1,2,0:0:0:0:
95,193,59606,1,2,0:0:0:0:
111,237,59694,1,2,0:0:0:0:
105,284,59782,1,8,1:0:0:0:
80,323,59871,1,2,0:0:0:0:
39,347,59959,5,6,0:0:0:0:
83,330,60048,1,2,0:0:0:0:
130,325,60136,1,2,0:0:0:0:
177,334,60224,1,2,0:0:0:0:
219,355,60312,1,0,1:0:0:0:
262,374,60400,1,2,0:0:0:0:
309,367,60488,1,12,1:2:0:0:
345,337,60576,1,2,0:0:0:0:
360,293,60664,1,2,0:0:0:0:
349,247,60753,1,2,0:0:0:0:
316,213,60841,5,4,1:2:0:0:
320,166,60930,1,2,0:0:0:0:
305,121,61018,1,2,0:0:0:0:
273,87,61106,1,2,0:0:0:0:
230,68,61194,1,8,1:0:0:0:
182,70,61283,1,2,0:0:0:0:
140,91,61371,1,6,0:0:0:0:
110,128,61459,1,2,0:0:0:0:
97,174,61548,6,0,L|103:237,1,47.5,2|0,1:2|0:0,0:0:0:0:
189,280,61724,1,8,1:0:0:0:
192,244,61812,1,2,1:2:0:0:
196,208,61900,1,2,1:2:0:0:
241,12,62077,5,2,0:0:0:0:
244,35,62165,1,2,0:0:0:0:
247,59,62254,1,8,1:0:0:0:
289,37,62342,1,2,0:0:0:0:
336,37,62430,1,4,1:2:0:0:
378,58,62518,1,2,0:0:0:0:
406,96,62606,1,2,0:0:0:0:
305,192,62783,6,0,L|313:127,1,47.5,8|0,1:0|0:0,0:0:0:0:
497,176,62960,2,0,L|395:185,1,95,4|0,1:2|1:0,0:0:0:0:
392,205,63224,1,0,1:0:0:0:
381,226,63313,6,2,B|230:195|325:260|162:220,1,213.750008153916,12|0,1:3|0:0,0:0:0:0:
103,183,63665,1,4,1:2:0:0:
103,183,68607,6,0,L|111:99,1,71.2500027179719,4|0,1:3|1:0,0:0:0:0:
97,99,68871,1,0,1:0:0:0:
84,86,68960,1,10,1:3:0:0:
308,136,69136,1,2,0:0:0:0:
212,232,69312,6,0,L|204:161,1,71.2500027179719,4|0,1:2|0:0,0:0:0:0:
408,104,69665,2,0,L|396:192,1,71.2500027179719,0|0,1:0|0:0,0:0:0:0:
256,48,70018,2,0,P|312:36|336:36,1,71.2500027179719,0|2,1:0|0:0,0:0:0:0:
372,260,70371,2,0,P|336:257|302:247,1,71.2500027179719,0|2,1:0|0:0,0:0:0:0:
188,140,70724,5,0,1:0:0:0:
109,251,70901,1,0,0:0:0:0:
112,267,70989,1,2,0:0:0:0:
116,284,71077,2,0,L|162:289,1,35.625001358986,0|2,1:0|0:0,0:0:0:0:
220,307,71254,2,0,L|266:302,1,35.625001358986,0|2,0:0|0:0,0:0:0:0:
302,247,71430,2,0,L|385:263,1,71.2500027179719,0|2,1:0|0:0,0:0:0:0:
469,134,71783,2,0,P|420:146|385:142,1,71.2500027179719,0|2,1:0|0:0,0:0:0:0:
228,53,72136,5,4,0:2:0:0:
417,33,72312,1,4,0:3:0:0:
282,106,72489,5,4,0:3:0:0:
469,134,72665,1,4,0:3:0:0:
320,171,72842,5,4,0:3:0:0:
493,246,73019,1,4,0:3:0:0:
339,243,73195,5,4,0:3:0:0:
487,360,73372,1,4,0:3:0:0:
338,317,73548,6,0,L|181:323,1,142.500005435944,2|2,3:1|0:0,0:0:0:0:
117,249,73812,1,2,0:1:0:0:
273,133,73989,2,0,P|266:177|249:201,2,71.2500027179719,2|2|0,0:1|0:0|0:0,0:0:0:0:
213,86,74254,2,0,L|372:102,1,142.500005435944,2|2,0:1|0:1,0:0:0:0:
467,281,74518,1,0,0:0:0:0:
467,281,74607,6,0,L|362:289,1,95,4|0,1:3|0:0,0:0:0:0:
252,199,74960,6,0,L|259:128,1,71.25,14|0,1:3|0:0,0:0:0:0:
373,75,75312,6,0,B|292:102|292:102|228:51,1,166.250001585484,10|4,1:0|0:3,0:0:0:0:
33,160,75577,2,0,B|96:109|96:109|177:136,1,166.250001585484,2|6,1:0|0:3,0:0:0:0:
106,302,75842,2,0,L|116:219,1,83.1250007927418,4|4,3:0|3:0,0:0:0:0:
297,253,76018,2,0,B|335:270|335:270|211:283,1,166.250001585484,10|2,1:0|3:1,0:0:0:0:
287,82,76371,5,4,1:3:0:0:
325,155,76459,2,0,B|430:172|430:172|460:117,1,166.250001585484,2|2,1:0|0:1,0:0:0:0:
424,12,76724,2,0,L|332:19,1,83.1250007927418,8|2,1:0|0:0,0:0:0:0:
164,188,76901,2,0,L|246:194,1,83.1250007927418,2|4,1:0|0:0,0:0:0:0:
20,56,77077,2,0,B|25:107|25:107|11:125|11:125|21:220,1,166.250001585484,2|6,1:0|3:0,0:0:0:0:
347,164,77430,6,2,P|382:75|328:157,1,285,10|0,1:1|0:1,0:0:0:0:
432,244,77783,6,0,L|315:252,1,106.875004076958,14|0,1:3|0:0,0:0:0:0:
272,324,78136,6,0,P|237:276|241:219,1,118.75,8|2,1:0|0:0,0:0:0:0:
325,155,78401,2,0,L|205:145,1,118.75,2|2,0:2|0:0,0:0:0:0:
73,198,78665,2,0,L|133:195,1,59.375,0|2,1:0|0:0,0:0:0:0:
152,0,78842,2,0,P|119:47|126:105,1,118.75,8|2,1:0|0:0,0:0:0:0:
378,214,79195,1,0,1:0:0:0:
396,192,79283,2,0,P|403:134|370:86,1,118.75,2|2,0:0|0:0,0:0:0:0:
266,148,79548,2,0,L|325:154,1,59.375,8|0,1:0|0:0,0:0:0:0:
482,306,79724,5,0,1:2:0:0:
437,269,79813,1,2,1:2:0:0:
381,248,79901,1,2,1:2:0:0:
322,246,79989,1,2,1:2:0:0:
266,264,80077,1,0,1:2:0:0:
218,298,80166,1,2,1:2:0:0:
184,347,80254,2,0,B|155:229|205:284|173:157,1,178.125,4|0,1:2|0:0,0:0:0:0:
99,35,80607,6,0,L|92:116,1,71.25,14|0,1:3|0:0,0:0:0:0:
338,106,80960,6,0,B|294:62|294:62|191:72,1,166.250001585484,10|4,1:0|0:0,0:0:0:0:
280,208,81224,2,0,B|383:218|383:218|427:174,1,166.250001585484,2|6,1:0|0:0,0:0:0:0:
367,9,81489,2,0,L|360:92,1,83.1250007927418,12|4,0:0|0:0,0:0:0:0:
264,220,81665,6,0,P|256:184|248:168,1,47.5,8|0,1:0|0:0,0:0:0:0:
128,144,81842,2,0,P|119:166|115:189,1,47.5,2|0,3:0|0:0,0:0:0:0:
157,326,82018,5,12,1:3:0:0:
240,316,82107,2,0,B|360:304|360:304|296:340,1,166.250001585484,2|4,1:0|0:0,0:0:0:0:
264,220,82371,2,0,L|276:132,1,83.1250007927418,10|2,1:0|0:0,0:0:0:0:
223,16,82548,6,0,P|215:52|219:76,1,47.5,6|0,0:0|0:0,0:0:0:0:
362,140,82724,2,0,P|361:116|354:93,1,47.5,2|0,1:1|0:0,0:0:0:0:
169,215,82901,6,0,L|264:220,1,95,14|0,1:3|0:0,0:0:0:0:
421,275,83077,2,2,B|344:270|344:270|309:317|309:317|149:308,1,285,8|0,1:1|0:0,0:0:0:0:
95,258,83430,6,0,L|101:364,1,106.875004076958,14|0,1:3|0:0,0:0:0:0:
169,215,83783,6,0,P|111:171|49:185,1,118.75,8|2,1:0|0:0,0:0:0:0:
18,100,84048,2,0,P|81:91|151:67,1,118.75,2|2,0:0|0:0,0:0:0:0:
268,14,84312,2,0,P|239:13|195:-5,1,59.375,2|0,1:3|0:0,0:0:0:0:
242,147,84489,1,8,1:0:0:0:
278,121,84577,1,2,0:0:0:0:
320,106,84665,1,2,0:1:0:0:
364,104,84753,1,2,0:0:0:0:
407,116,84842,6,0,L|400:198,1,71.2500027179719,4|0,1:2|0:0,0:0:0:0:
512,232,85107,2,0,L|442:247,1,71.2500027179719,2|0,0:0|0:0,0:0:0:0:
433,367,85372,2,0,L|397:306,1,71.2500027179719,2|0,0:0|0:0,0:0:0:0:
280,333,85636,2,0,L|327:280,1,71.2500027179719,2|0,0:0|0:0,0:0:0:0:
264,178,85901,6,0,L|330:206,1,71.2500027179719,8|0,1:0|0:0,0:0:0:0:
330,206,86254,6,0,B|356:111|314:160|336:66,1,142.5,4|0,1:3|0:0,0:0:0:0:
509,28,86607,6,0,P|493:93|427:108,1,142.500005435944,10|0,1:0|0:0,0:0:0:0:
282,1,86871,2,0,B|210:9|210:9|248:92,1,142.500005435944,2|0,0:1|0:0,0:0:0:0:
330,206,87136,2,0,L|249:215,1,71.2500027179719,4|0,1:3|0:0,0:0:0:0:
48,274,87312,2,2,B|70:304|113:316|159:308|185:272|185:272|159:276|131:259,1,213.750008153916,10|0,1:1|0:1,0:0:0:0:
164,126,87665,6,0,P|178:158|177:193,1,71.2500027179719,0|0,1:0|0:0,0:0:0:0:
16,144,87842,2,0,P|15:108|29:76,1,71.2500027179719,2|2,0:1|0:0,0:0:0:0:
104,0,88018,1,8,1:0:0:0:
367,135,88195,6,0,B|268:140|268:140|255:120|255:120|163:125,1,213.750008153916,2|0,1:1|0:0,0:0:0:0:
220,238,88548,2,0,L|290:246,1,71.2500027179719,6|0,1:3|0:0,0:0:0:0:
56,313,88724,2,2,B|91:274|99:224|81:160|81:160|96:192|112:199,1,213.750008153916,10|0,1:1|0:1,0:0:0:0:
12,68,89077,6,2,B|70:71|70:71|91:52|91:52|147:55,1,142.5,14|0,1:3|0:0,0:0:0:0:
242,64,89430,5,8,1:0:0:0:
152,217,89607,2,0,B|219:238|219:238|286:184,1,142.500005435944,2|2,0:1|0:0,0:0:0:0:
402,67,89960,2,0,L|406:138,1,71.2500027179719,0|0,1:0|0:0,0:0:0:0:
414,244,90136,1,10,1:0:0:0:
205,145,90312,1,4,1:2:0:0:
294,341,90489,6,0,P|205:323|145:333,1,142.500005435944,2|2,0:0|0:1,0:0:0:0:
72,354,90754,1,2,0:0:0:0:
13,291,90842,2,0,B|6:185|6:185|36:223,1,142.500005435944,8|2,1:0|0:1,0:0:0:0:
229,291,91195,2,2,L|245:121,1,142.500005435944,0|4,1:0|0:2,0:0:0:0:
35,31,91548,2,0,P|42:79|57:107,1,71.2500027179719,8|2,1:0|3:0,0:0:0:0:
332,45,91724,6,0,B|187:78|271:9|123:47,1,213.750008153916,6|0,1:2|0:0,0:0:0:0:
104,171,92077,1,0,0:0:0:0:
316,144,92254,2,0,L|309:214,1,71.2500027179719,8|0,1:0|0:0,0:0:0:0:
229,291,92430,2,0,P|213:185|219:78,1,213.750008153916,4|0,1:2|0:0,0:0:0:0:
412,35,92783,2,0,P|405:74|370:115,1,71.2500027179719,8|2,1:0|3:0,0:0:0:0:
262,10,92960,1,4,1:2:0:0:
256,192,93048,12,4,94018,1:2:0:0:
307,203,94371,5,4,1:2:0:0:
76,89,94548,1,2,3:0:0:0:
79,106,94636,1,2,3:0:0:0:
82,123,94724,5,4,1:2:0:0:
235,47,94901,1,0,1:0:0:0:
307,203,95077,1,8,1:0:0:0:
72,154,95254,5,4,1:2:0:0:
210,52,95431,1,0,1:0:0:0:
308,193,95607,1,8,1:0:0:0:
68,186,95783,5,4,1:2:0:0:
186,62,95960,1,0,1:0:0:0:
307,184,96136,1,8,1:0:0:0:
70,219,96312,6,0,L|85:333,1,95,4|0,1:2|1:0,0:0:0:0:
176,328,96665,1,6,3:0:0:0:
270,342,96842,1,0,0:0:0:0:
364,356,97019,1,0,0:0:0:0:
443,233,97195,6,0,P|348:235|254:252,1,190,6|4,1:3|0:0,0:0:0:0:
254,252,103195,6,0,L|168:246,1,71.2500027179719,4|2,1:2|0:0,0:0:0:0:
140,149,103548,2,0,L|229:144,1,71.2500027179719,2|2,0:0|0:0,0:0:0:0:
275,59,103901,1,2,0:0:0:0:
73,30,104077,1,0,0:0:0:0:
69,47,104165,1,2,0:0:0:0:
66,64,104253,1,2,0:0:0:0:
99,220,104430,6,0,L|187:228,1,71.2500027179719,2|0,0:0|0:0,0:0:0:0:
275,59,104783,1,0,0:0:0:0:
258,63,104871,1,2,0:0:0:0:
241,66,104959,1,2,0:0:0:0:
306,181,105136,1,2,0:0:0:0:
323,183,105224,1,2,0:0:0:0:
340,186,105312,6,0,L|390:179,1,35.625001358986,2|0,0:0|0:0,0:0:0:0:
445,166,105489,2,0,L|495:159,1,35.625001358986,2|0,0:0|0:0,0:0:0:0:
508,80,105666,2,0,L|458:73,1,35.625001358986,2|0,0:0|0:0,0:0:0:0:
403,60,105842,2,0,L|353:53,1,35.625001358986,2|0,1:3|0:0,0:0:0:0:
296,102,106019,6,0,P|241:103|201:81,1,95,4|0,1:3|0:0,0:0:0:0:
132,25,106371,1,8,1:0:0:0:
16,108,106548,1,0,0:0:0:0:
18,131,106636,1,0,0:0:0:0:
21,155,106724,1,4,1:2:0:0:
196,233,106901,1,0,0:0:0:0:
200,209,106989,1,0,0:0:0:0:
205,186,107077,1,8,1:0:0:0:
58,329,107254,6,0,L|164:325,1,95,4|0,1:2|0:0,0:0:0:0:
205,186,107607,2,0,L|151:179,1,47.5,8|0,1:0|0:0,0:0:0:0:
90,112,107783,2,0,P|94:48|123:8,1,95,4|0,1:3|0:0,0:0:0:0:
333,107,108136,2,0,L|236:114,1,95,4|2,1:2|3:0,0:0:0:0:
226,106,108401,1,2,3:0:0:0:
214,98,108489,6,0,B|173:230|250:165|213:305,1,213.750008153916,12|0,1:0|0:0,0:0:0:0:
126,344,108842,6,0,L|299:358,1,142.500005435944,4|2,1:2|0:1,0:0:0:0:
436,144,109195,2,0,L|293:155,1,142.500005435944,8|2,1:0|0:1,0:0:0:0:
395,283,109548,1,2,1:0:0:0:
332,47,109724,1,2,0:1:0:0:
296,43,109812,1,2,0:0:0:0:
261,40,109901,2,0,P|211:48|186:61,1,71.2500027179719,8|0,1:0|0:0,0:0:0:0:
128,183,110077,2,0,P|160:196|196:199,1,71.2500027179719,2|0,0:1|0:0,0:0:0:0:
369,166,110254,6,0,L|358:311,1,142.500005435944,0|2,1:0|0:1,0:0:0:0:
288,316,110518,1,2,0:0:0:0:
217,327,110607,2,0,B|177:267|177:267|198:191,1,142.500005435944,8|2,1:0|0:1,0:0:0:0:
403,49,110960,2,0,L|247:38,1,142.500005435944,2|2,1:0|0:0,0:0:0:0:
189,34,111224,1,2,0:0:0:0:
117,29,111312,1,10,1:0:0:0:
292,132,111489,1,2,0:1:0:0:
228,164,111577,1,2,0:0:0:0:
165,197,111665,6,0,P|152:268|188:336,1,142.500005435944,2|2,1:0|3:2,0:0:0:0:
196,324,111901,1,2,3:2:0:0:
211,319,111960,1,2,3:2:0:0:
225,314,112019,2,0,L|374:320,1,142.500005435944,10|2,1:0|0:1,0:0:0:0:
509,187,112371,2,0,L|349:203,1,142.500005435944,2|2,1:0|0:0,0:0:0:0:
297,182,112636,1,2,0:0:0:0:
228,164,112724,1,8,1:0:0:0:
329,61,112901,1,2,0:1:0:0:
445,230,113077,6,0,P|452:316|411:368,1,142.500005435944,0|2,1:0|0:1,0:0:0:0:
213,305,113430,2,0,L|228:164,1,142.500005435944,8|2,1:0|0:1,0:0:0:0:
279,111,113695,1,2,0:0:0:0:
329,61,113783,2,0,P|380:74|405:95,1,71.2500027179719,2|2,1:0|0:0,0:0:0:0:
502,190,113960,2,0,P|455:218|439:240,1,71.2500027179719,4|2,0:0|0:0,0:0:0:0:
367,324,114136,1,8,1:0:0:0:
402,326,114224,1,2,0:0:0:0:
438,328,114312,1,2,0:0:0:0:
473,330,114400,1,2,0:0:0:0:
509,332,114489,6,0,L|499:149,1,142.500005435944,4|2,1:2|0:1,0:0:0:0:
404,29,114842,2,0,P|389:111|327:145,1,142.500005435944,8|2,1:0|0:1,0:0:0:0:
181,91,115195,1,2,1:0:0:0:
218,257,115371,1,2,0:0:0:0:
229,222,115460,1,2,0:0:0:0:
239,188,115548,2,0,L|157:196,1,71.2500027179719,8|0,1:0|0:0,0:0:0:0:
94,330,115724,2,0,L|177:351,1,71.2500027179719,2|0,0:1|0:0,0:0:0:0:
337,292,115901,6,0,B|323:197|357:235|338:151,1,142.500005435944,2|2,1:0|0:0,0:0:0:0:
295,85,116165,1,2,0:0:0:0:
219,104,116254,2,0,B|156:138|156:138|92:84,1,142.500005435944,8|2,1:0|0:1,0:0:0:0:
165,48,116518,1,2,0:0:0:0:
241,29,116607,2,0,L|406:43,1,142.500005435944,2|2,1:0|3:2,0:0:0:0:
387,56,116842,1,2,3:2:0:0:
391,71,116901,1,2,3:2:0:0:
395,86,116960,2,0,P|392:130|380:155,1,71.2500027179719,10|0,1:0|0:0,0:0:0:0:
290,237,117136,2,0,P|276:204|275:168,1,71.2500027179719,2|0,0:1|0:0,0:0:0:0:
376,279,117312,6,0,L|204:288,1,142.500005435944,4|2,1:2|0:1,0:0:0:0:
153,67,117665,2,0,L|312:87,1,142.500005435944,8|2,1:0|0:1,0:0:0:0:
502,198,118018,2,0,P|504:105|453:76,1,142.500005435944,4|2,1:2|0:1,0:0:0:0:
397,94,118283,1,2,0:0:0:0:
447,149,118371,1,8,1:0:0:0:
426,1,118548,1,2,0:1:0:0:
432,220,118724,6,0,L|340:213,1,71.2500027179719,4|0,1:3|0:0,0:0:0:0:
302,305,118901,2,0,L|373:309,1,71.2500027179719,4|0,1:3|0:0,0:0:0:0:
254,208,119077,2,0,L|182:203,1,71.2500027179719,4|0,1:3|0:0,0:0:0:0:
123,293,119254,2,0,L|194:297,1,71.2500027179719,4|0,1:3|0:0,0:0:0:0:
74,197,119430,5,4,1:3:0:0:
44,153,119518,1,4,1:3:0:0:
39,100,119606,1,4,1:3:0:0:
60,52,119694,1,4,1:3:0:0:
102,20,119782,1,4,1:3:0:0:
154,12,119871,1,4,1:3:0:0:
204,31,119959,1,2,1:2:0:0:
238,72,120047,1,2,1:2:0:0:
248,123,120136,6,0,L|396:131,1,142.5,4|0,1:2|0:0,0:0:0:0:
478,93,120489,2,0,L|491:204,1,95,2|2,1:2|0:0,0:0:0:0:
477,208,120754,1,2,0:0:0:0:
465,228,120842,2,0,P|394:233|371:202,1,95,0|2,1:0|0:0,0:0:0:0:
324,175,121107,1,2,0:0:0:0:
256,198,121195,2,0,L|269:309,1,95,0|2,1:0|0:0,0:0:0:0:
100,343,121548,6,0,L|119:236,1,95,0|2,1:0|0:0,0:0:0:0:
109,226,121812,1,2,0:0:0:0:
101,203,121901,2,0,P|102:153|131:108,1,95,0|2,1:0|0:0,0:0:0:0:
257,64,122254,2,0,L|456:77,1,190,0|0,1:0|1:0,0:0:0:0:
433,273,122783,1,4,0:0:0:0:
348,228,122960,6,0,L|231:234,1,95,2|0,1:2|0:0,0:0:0:0:
126,297,123312,2,0,P|120:238|93:208,1,95,2|0,1:2|0:0,0:0:0:0:
75,205,123577,1,2,0:0:0:0:
52,198,123665,2,0,L|61:84,1,95,2|0,1:2|0:0,0:0:0:0:
71,32,123930,1,2,0:0:0:0:
126,76,124018,2,0,P|187:78|228:53,1,95,0|2,1:0|0:0,0:0:0:0:
396,18,124371,6,0,L|384:136,1,95,2|2,1:2|0:0,0:0:0:0:
382,136,124636,1,0,0:0:0:0:
379,159,124724,1,0,1:0:0:0:
285,140,124901,1,2,0:0:0:0:
300,298,125077,6,0,P|314:266|315:230,1,71.2500027179719,2|0,1:2|0:0,0:0:0:0:
116,177,125253,2,0,P|117:212|131:244,1,71.2500027179719,4|0,0:0|0:0,0:0:0:0:
203,340,125430,6,0,L|122:345,1,71.2500027179719,0|0,1:0|0:0,0:0:0:0:
214,130,125607,2,0,L|313:144,1,71.2500027179719,2|0,0:0|0:0,0:0:0:0:
458,227,125783,6,0,L|301:231,1,142.5,6|0,1:2|0:0,0:0:0:0:
267,321,126136,2,0,L|385:330,1,95,0|2,1:0|3:2,0:0:0:0:
433,336,126401,1,2,3:2:0:0:
503,344,126489,1,0,1:0:0:0:
374,149,126665,2,0,P|352:158|328:158,1,47.5,2|0,0:0|0:0,0:0:0:0:
267,121,126842,2,0,L|161:126,1,95,0|2,1:0|0:0,0:0:0:0:
127,308,127195,6,0,L|227:316,1,95,2|2,1:2|0:0,0:0:0:0:
244,319,127460,1,2,0:0:0:0:
267,321,127548,1,0,1:0:0:0:
379,185,127724,1,2,0:0:0:0:
497,265,127901,2,0,L|389:271,1,95,2|0,1:2|0:0,0:0:0:0:
357,143,128254,6,2,P|388:107|367:175,1,213.750008153916,4|0,1:2|0:1,0:0:0:0:
296,197,128607,6,0,L|218:194,1,71.2500027179719,4|0,1:3|0:0,0:0:0:0:
65,164,128783,2,0,L|136:161,1,71.2500027179719,4|0,1:3|0:0,0:0:0:0:
285,112,128960,2,0,L|207:109,1,71.2500027179719,4|0,1:3|0:0,0:0:0:0:
53,78,129136,2,0,L|124:75,1,71.2500027179719,4|0,1:3|0:0,0:0:0:0:
274,27,129312,5,4,1:2:0:0:
309,29,129400,1,0,1:0:0:0:
345,32,129488,1,0,1:0:0:0:
381,36,129576,1,0,1:0:0:0:
416,38,129665,2,0,L|420:119,1,71.2500027179719,2|0,1:3|0:0,0:0:0:0:
425,180,129842,2,0,L|429:261,1,71.2500027179719,2|0,1:3|0:0,0:0:0:0:
434,322,130018,6,0,L|277:309,1,142.500005435944,4|2,1:2|0:0,0:0:0:0:
142,123,130371,2,0,L|299:110,1,142.500005435944,4|2,1:2|0:0,0:0:0:0:
83,328,130724,1,6,1:2:0:0:
11,144,130901,1,8,1:3:0:0:
15,130,131077,1,4,3:0:0:0:
246,214,131254,6,0,P|163:216|95:201,1,142.500005435944,4|0,0:0|0:0,0:0:0:0:
59,67,131783,2,0,P|94:65|127:52,1,71.2500027179719,0|0,0:0|0:0,0:0:0:0:
283,5,132136,1,0,0:0:0:0:
232,54,132313,1,0,0:0:0:0:
211,122,132489,1,0,0:0:0:0:
225,191,132665,1,0,0:0:0:0:
365,173,133371,5,2,0:0:0:0:
