osu file format v14

[General]
AudioFilename: Cherry Blossom.mp3
AudioLeadIn: 0
PreviewTime: 108848
Countdown: 0
SampleSet: Soft
StackLeniency: 0.5
Mode: 0
LetterboxInBreaks: 0
WidescreenStoryboard: 0

[Editor]
Bookmarks: 7201,12848,18495,24142,29789,35436,41083,52377,74966,97554,108848,120142,131436
DistanceSpacing: 1
BeatDivisor: 3
GridSize: 4
TimelineZoom: 0.6999999

[Metadata]
Title:Cherry Blossom
TitleUnicode:Cherry Blossom
Artist:Memme
ArtistUnicode:Memme
Creator:Priti
Version:Normal
Source:Music & Beat (O2Jam)
Tags:SoundCloud ParkMemme Electronic Bonzi Asphyxia Karen Leader rrtyui
BeatmapID:964133
BeatmapSetID:442581

[Difficulty]
HPDrainRate:5
CircleSize:3.5
OverallDifficulty:5
ApproachRate:5
SliderMultiplier:1.3
SliderTickRate:1

[Events]
//Background and Video events
0,0,"Cherry Blossom.jpg",0,0
//Break Periods
2,13042,14465
2,63865,70936
2,97748,104818
//Storyboard Layer 0 (Background)
//Storyboard Layer 1 (Fail)
//Storyboard Layer 2 (Pass)
//Storyboard Layer 3 (Foreground)
//Storyboard Sound Samples

[TimingPoints]
1548.26472818128,352.941176470588,4,2,2,80,1,0
12842,-100,4,2,2,70,0,0
18136,-100,4,2,1,70,0,0
18489,-100,4,2,2,80,0,0
29783,-100,4,2,2,65,0,0
41077,-100,4,2,2,75,0,0
52371,-100,4,2,1,90,0,0
63665,-100,4,2,1,75,0,0
72136,-100,4,1,1,85,0,0
73548,-100,4,2,1,85,0,0
85901,-100,4,2,2,85,0,0
86254,-100,4,2,1,75,0,0
106018,-100,4,2,2,75,0,0
108842,-100,4,2,2,95,0,1
120136,-100,4,2,2,85,0,0
131254,-100,4,2,2,50,0,0
131960,-100,4,2,2,45,0,0
132136,-100,4,2,2,40,0,0
132312,-100,4,2,2,30,0,0
133371,-100,4,2,2,25,0,0

[Colours]
Combo1 : 95,104,216
Combo2 : 249,100,137
Combo3 : 105,197,252
Combo4 : 244,104,206

[HitObjects]
60,112,1548,6,0,L|71:262,1,130,4|0,1:2|0:0,0:0:0:0:
169,325,2254,1,0,0:0:0:0:
242,217,2607,1,0,0:0:0:0:
350,288,2960,2,0,P|371:217|249:87,1,260,0|0,0:0|0:0,0:0:0:0:
140,138,4018,1,0,0:0:0:0:
45,48,4371,6,0,L|72:333,1,260,0|0,0:0|0:0,0:0:0:0:
326,350,5783,2,0,P|359:287|342:211,2,130,0|0|0,0:0|0:0|0:0,0:0:0:0:
66,329,7195,6,0,L|56:193,1,130,4|8,1:2|1:0,0:0:0:0:
119,85,7901,2,0,L|191:89,1,65,0|0,0:0|1:0,0:0:0:0:
216,92,8253,1,8,1:0:0:0:
167,212,8607,2,0,P|158:275|184:334,1,130,0|8,0:0|1:0,0:0:0:0:
311,362,9312,2,0,L|391:357,1,65,2|4,0:0|1:2,0:0:0:0:
398,334,9665,2,0,L|478:339,1,65,8|4,1:0|0:0,0:0:0:0:
485,361,10018,6,0,P|516:304|505:231,1,130,0|8,0:0|1:0,0:0:0:0:
401,168,10724,2,0,L|327:173,1,65,0|8,1:0|1:0,0:0:0:0:
234,254,11254,1,4,0:0:0:0:
256,192,11430,12,4,12842,1:2:0:0:
160,241,15665,6,0,L|153:96,1,130,4|0,1:2|1:0,0:0:0:0:
267,46,16371,2,0,L|273:175,1,130,4|0,1:2|1:0,0:0:0:0:
372,260,17077,2,0,P|398:201|394:136,2,130,4|4|0,1:3|1:3|1:0,0:0:0:0:
257,322,18136,1,8,1:0:0:0:
168,226,18489,6,0,L|38:233,1,130,6|8,1:2|1:0,0:0:0:0:
25,203,19018,1,0,0:0:0:0:
15,171,19195,2,0,P|18:97|48:48,1,130,0|8,1:0|1:0,0:0:0:0:
170,12,19901,1,0,1:0:0:0:
273,90,20254,2,0,L|402:82,1,130,8|0,1:0|1:0,0:0:0:0:
486,182,20960,1,8,1:0:0:0:
400,280,21312,6,0,L|259:288,1,130,2|8,1:2|1:0,0:0:0:0:
164,210,22018,1,0,1:0:0:0:
44,260,22371,1,8,1:0:0:0:
60,131,22725,2,0,P|120:86|188:81,1,130,0|8,1:0|1:0,0:0:0:0:
291,132,23430,2,0,L|359:128,1,65,2|4,1:2|0:0,0:0:0:0:
388,126,23783,1,8,1:0:0:0:
443,243,24136,6,0,L|313:234,1,130,4|8,1:2|1:0,0:0:0:0:
283,247,24665,1,0,0:0:0:0:
253,260,24842,2,0,P|188:258|135:223,1,130,0|8,1:0|1:0,0:0:0:0:
42,132,25548,2,0,P|90:99|180:103,2,130,0|8|0,1:0|1:0|1:0,0:0:0:0:
8,258,26607,1,8,1:0:0:0:
135,223,26960,6,0,L|281:231,1,130,4|8,1:2|1:0,0:0:0:0:
367,310,27665,2,0,L|440:305,1,65,4|2,1:2|3:2,0:0:0:0:
454,282,28018,2,0,P|454:249|442:219,1,65,8|2,1:0|0:0,0:0:0:0:
417,198,28371,1,4,1:2:0:0:
293,157,28724,1,4,1:2:0:0:
390,70,29078,1,4,1:2:0:0:
456,321,29783,6,0,P|385:303|306:316,1,130,4|0,1:2|1:0,0:0:0:0:
301,325,30312,2,0,L|166:320,1,130,2|2,0:0|0:0,0:0:0:0:
147,297,30842,1,0,1:0:0:0:
236,202,31195,2,0,P|240:137|180:79,1,130,0|0,1:0|1:0,0:0:0:0:
170,76,31724,2,0,L|106:70,1,65,2|0,0:0|1:0,0:0:0:0:
56,191,32254,2,0,L|120:185,1,65,0|2,1:0|0:0,0:0:0:0:
143,208,32607,6,0,L|135:343,1,130,0|0,1:0|1:0,0:0:0:0:
263,360,33312,2,0,L|254:282,2,65,2|2|0,1:2|0:0|1:0,0:0:0:0:
387,321,34018,2,0,P|395:257|359:205,1,130,0|0,1:0|1:0,0:0:0:0:
233,173,34724,2,0,L|98:181,1,130,0|0,1:0|1:0,0:0:0:0:
80,203,35254,1,2,0:0:0:0:
57,225,35430,5,0,1:0:0:0:
9,103,35783,2,0,P|14:65|37:31,1,65,0|2,1:0|0:0,0:0:0:0:
57,32,36136,1,0,1:0:0:0:
177,81,36489,1,2,1:2:0:0:
291,19,36842,2,0,L|299:164,1,130,0|0,1:0|1:0,0:0:0:0:
306,278,37548,1,2,1:2:0:0:
189,221,37901,2,0,P|128:232|112:245,1,65,0|2,1:2|0:0,0:0:0:0:
101,252,38254,6,0,P|56:191|72:129,1,130,2|0,1:2|1:0,0:0:0:0:
164,58,38960,1,0,1:0:0:0:
289,90,39312,1,2,1:2:0:0:
401,24,39665,2,0,L|411:183,1,130,0|0,1:0|1:0,0:0:0:0:
411,186,40195,1,2,0:0:0:0:
413,218,40371,2,0,P|356:251|283:233,1,130,0|8,1:0|1:0,0:0:0:0:
180,179,41077,6,0,P|102:187|118:307,1,195,4|0,1:2|0:0,0:0:0:0:
112,312,41783,2,0,L|254:303,1,130,0|4,1:0|1:3,0:0:0:0:
344,223,42489,2,0,L|486:232,1,130,0|4,1:0|1:3,0:0:0:0:
481,262,43018,1,0,0:0:0:0:
489,293,43195,1,0,1:0:0:0:
377,359,43548,2,0,P|335:341|305:344,1,65,4|2,1:3|0:0,0:0:0:0:
285,351,43901,6,0,P|189:339|156:311,1,130,2|4,1:2|1:3,0:0:0:0:
132,196,44607,2,0,P|188:164|252:165,1,130,2|4,1:2|1:3,0:0:0:0:
283,176,45136,1,2,0:0:0:0:
313,186,45312,2,0,L|306:53,1,130,0|4,1:0|1:3,0:0:0:0:
177,74,46018,2,0,L|47:67,1,130,2|4,1:2|1:3,0:0:0:0:
17,194,46724,6,0,P|23:249|40:268,1,65,0|2,1:0|0:0,0:0:0:0:
52,276,47077,1,4,1:3:0:0:
175,234,47431,2,0,L|251:238,1,65,0|2,1:0|0:0,0:0:0:0:
272,239,47783,1,4,1:3:0:0:
349,343,48136,2,0,L|184:352,1,130,0|4,1:0|1:3,0:0:0:0:
89,332,48842,1,2,1:2:0:0:
175,234,49195,2,0,P|166:182|148:157,1,65,4|2,1:3|0:0,0:0:0:0:
142,144,49548,6,0,B|269:118|205:167|334:143,1,195,0|2,1:0|0:0,0:0:0:0:
355,118,50254,2,0,L|342:267,1,130,0|4,1:0|1:3,0:0:0:0:
260,342,50960,2,0,P|193:351|134:321,1,130,0|2,1:0|1:3,0:0:0:0:
60,220,51665,2,0,L|69:89,1,130,2|14,1:3|1:3,0:0:0:0:
94,69,52195,1,4,3:0:0:0:
119,48,52371,6,0,B|197:62|197:62|250:47,1,130,4|8,1:1|1:0,0:0:0:0:
371,13,53077,2,0,P|384:42|385:74,1,65,0|4,0:0|1:3,0:0:0:0:
375,105,53430,1,10,1:0:0:0:
285,199,53783,2,0,L|150:192,1,130,0|8,1:0|1:0,0:0:0:0:
132,169,54312,2,0,P|104:228|121:306,1,130,2|0,3:2|1:2,0:0:0:0:
135,314,54842,1,8,1:1:0:0:
259,351,55195,6,0,L|394:344,1,130,14|8,1:3|1:0,0:0:0:0:
475,247,55901,2,0,L|340:240,1,130,2|10,1:0|1:0,0:0:0:0:
255,145,56607,2,0,P|300:143|329:125,1,65,2|2,1:2|0:0,0:0:0:0:
342,113,56960,1,2,1:3:0:0:
261,11,57312,2,0,L|112:18,1,130,0|2,1:0|1:3,0:0:0:0:
66,130,58018,6,0,P|59:194|77:256,1,130,4|8,1:2|1:0,0:0:0:0:
101,279,58548,2,0,P|167:262|289:330,1,195,4|0,1:2|0:0,0:0:0:0:
300,336,59254,1,2,1:2:0:0:
322,358,59430,2,0,L|468:349,1,130,4|8,1:2|1:0,0:0:0:0:
474,326,59960,2,0,P|488:260|435:144,1,195,6|12,0:0|1:2,0:0:0:0:
321,89,60842,6,0,L|191:96,1,130,4|8,1:2|1:0,0:0:0:0:
82,168,61548,2,0,P|84:218|96:238,1,65,2|8,1:2|1:0,0:0:0:0:
110,256,61901,1,2,1:2:0:0:
233,215,62254,2,0,L|362:222,1,130,8|2,1:0|0:0,0:0:0:0:
385,198,62783,1,8,1:0:0:0:
408,174,62960,2,0,P|411:112|373:49,1,130,4|12,1:2|1:3,0:0:0:0:
250,78,63665,5,4,1:2:0:0:
256,192,72136,12,2,73548,3:1:0:0:
164,107,74607,6,0,L|171:176,1,65,4|0,1:3|0:0,0:0:0:0:
175,203,74960,5,14,1:3:0:0:
291,259,75312,2,0,P|343:261|392:235,2,97.5,10|2|4,1:0|1:0|3:0,0:0:0:0:
278,229,76018,1,10,1:0:0:0:
332,110,76371,2,0,L|473:115,1,130,4|8,1:3|1:0,0:0:0:0:
492,101,76901,2,0,P|508:157|505:247,1,130,2|6,1:0|3:0,0:0:0:0:
484,250,77430,1,10,1:1:0:0:
361,206,77783,6,0,L|220:211,1,130,14|8,1:3|1:0,0:0:0:0:
208,233,78312,1,2,0:0:0:0:
96,164,78665,1,0,1:0:0:0:
96,164,78842,2,0,L|104:88,1,65,8|2,1:0|0:0,0:0:0:0:
125,76,79195,2,0,P|172:56|260:67,1,130,0|8,1:0|1:0,0:0:0:0:
275,81,79724,2,0,B|402:106|338:57|467:81,1,195,0|4,1:2|1:2,0:0:0:0:
505,205,80607,5,14,1:3:0:0:
396,276,80960,2,0,P|340:274|294:249,2,97.5,10|2|12,1:0|1:0|0:0,0:0:0:0:
426,265,81665,1,8,1:0:0:0:
369,147,82018,2,0,L|211:156,1,130,12|10,1:3|1:0,0:0:0:0:
206,157,82548,1,6,0:0:0:0:
173,160,82724,2,0,P|161:196|161:229,2,65,2|14|8,1:1|1:3|1:1,0:0:0:0:
227,41,83430,6,0,P|163:61|86:56,1,130,14|8,1:3|1:0,0:0:0:0:
70,47,83960,2,0,P|30:104|49:174,1,130,2|2,0:0|1:3,0:0:0:0:
64,181,84489,2,0,L|54:245,1,65,8|2,1:0|0:1,0:0:0:0:
49,277,84842,2,0,B|124:273|124:273|165:290|165:290|245:286,2,195,4|2|8,1:2|0:0|1:0,0:0:0:0:
9,152,86254,5,4,1:3:0:0:
114,75,86607,2,0,P|154:91|222:86,2,97.5,10|2|4,1:0|0:1|1:3,0:0:0:0:
90,53,87312,1,10,1:1:0:0:
9,152,87665,2,0,L|16:286,1,130,0|8,1:0|1:0,0:0:0:0:
38,305,88195,2,0,P|90:283|172:292,1,130,2|6,1:1|1:3,0:0:0:0:
190,304,88724,1,10,1:1:0:0:
305,243,89077,6,0,L|298:113,1,130,14|8,1:3|1:0,0:0:0:0:
295,80,89607,1,2,0:1:0:0:
292,47,89783,2,0,P|239:77|168:62,1,130,2|10,0:0|1:0,0:0:0:0:
146,46,90312,2,0,P|72:33|2:124,1,195,4|8,1:2|1:0,0:0:0:0:
108,193,91195,2,0,L|191:186,2,65,0|4|8,1:0|0:2|1:0,0:0:0:0:
84,216,91724,6,0,B|67:344|67:344|151:329,1,195,6|8,1:2|1:0,0:0:0:0:
161,318,92430,2,0,P|228:310|299:345,1,130,4|8,1:2|1:0,0:0:0:0:
310,353,92960,2,0,P|381:373|327:263,1,260,4|0,1:2|0:0,0:0:0:0:
227,206,94018,2,0,P|217:128|247:70,1,130,4|4,1:2|1:2,0:0:0:0:
258,57,94548,1,2,3:0:0:0:
287,41,94724,5,4,1:2:0:0:
256,192,94901,12,4,97548,0:0:0:0:
427,216,106018,6,0,P|355:247|285:222,1,130,4|8,1:3|1:0,0:0:0:0:
278,220,106548,1,0,0:0:0:0:
252,199,106724,1,4,1:2:0:0:
282,72,107077,2,0,L|366:78,1,65,8|4,1:0|1:2,0:0:0:0:
473,46,107607,1,8,1:0:0:0:
473,46,107783,2,0,P|479:105|461:174,1,130,4|4,1:3|1:2,0:0:0:0:
363,259,108489,1,12,1:0:0:0:
252,199,108842,6,0,L|113:206,1,130,4|8,1:2|1:0,0:0:0:0:
83,80,109548,2,0,L|212:73,1,130,2|8,1:0|1:0,0:0:0:0:
339,103,110254,2,0,P|374:165|375:238,1,130,0|8,1:0|1:0,0:0:0:0:
365,252,110783,1,2,0:1:0:0:
342,275,110960,2,0,L|471:281,1,130,2|10,1:0|1:0,0:0:0:0:
492,153,111665,6,0,L|486:84,1,65,2|2,1:0|3:2,0:0:0:0:
463,65,112018,1,10,1:0:0:0:
339,103,112371,2,0,P|274:105|206:55,1,130,2|8,1:0|1:0,0:0:0:0:
194,51,112901,1,2,0:1:0:0:
178,22,113077,2,0,L|183:165,1,130,0|8,1:0|1:0,0:0:0:0:
286,230,113783,2,0,L|281:373,1,130,2|8,1:0|1:0,0:0:0:0:
162,305,114489,6,0,P|116:313|100:324,1,65,4|2,1:2|0:1,0:0:0:0:
81,348,114842,1,8,1:0:0:0:
18,233,115195,2,0,P|25:158|44:93,1,130,2|8,1:0|1:0,0:0:0:0:
156,48,115901,2,0,P|213:82|279:65,1,130,2|8,1:0|1:0,0:0:0:0:
299,51,116430,1,2,0:1:0:0:
326,33,116607,2,0,L|399:36,1,65,2|2,1:0|3:2,0:0:0:0:
413,58,116960,2,0,L|486:55,1,65,10|2,1:0|0:1,0:0:0:0:
500,32,117312,6,0,L|485:180,1,130,4|8,1:2|1:0,0:0:0:0:
482,193,117842,1,2,0:1:0:0:
477,225,118018,1,4,1:2:0:0:
354,181,118371,2,0,P|299:185|285:197,1,65,8|2,1:0|0:1,0:0:0:0:
273,215,118724,2,0,L|140:211,1,130,4|4,1:3|1:3,0:0:0:0:
168,339,119430,2,0,L|297:335,1,130,4|4,1:3|1:3,0:0:0:0:
399,253,120136,6,0,P|398:175|363:118,1,130,4|2,1:2|1:2,0:0:0:0:
347,111,120665,1,2,0:0:0:0:
316,98,120842,2,0,L|179:107,1,130,0|0,1:0|1:0,0:0:0:0:
61,144,121548,2,0,P|62:66|97:9,2,130,0|0|0,1:0|1:0|1:0,0:0:0:0:
156,233,122607,1,0,1:0:0:0:
126,359,122960,6,0,L|267:355,1,130,2|2,1:2|1:2,0:0:0:0:
277,331,123489,1,0,0:0:0:0:
298,307,123665,1,2,1:2:0:0:
419,353,124018,2,0,P|427:321|427:289,1,65,0|2,1:0|0:0,0:0:0:0:
405,264,124371,2,0,P|377:186|383:118,1,130,2|0,1:2|1:0,0:0:0:0:
452,32,125077,2,0,L|296:25,1,130,2|0,1:2|1:0,0:0:0:0:
291,38,125607,1,2,0:0:0:0:
260,50,125783,6,0,P|194:65|122:49,1,130,6|0,1:2|1:0,0:0:0:0:
104,39,126312,1,2,3:2:0:0:
74,24,126489,2,0,L|83:164,1,130,0|0,1:0|1:0,0:0:0:0:
5,259,127195,2,0,P|63:249|138:302,1,130,2|0,1:2|1:0,0:0:0:0:
227,360,127901,2,0,P|285:370|360:317,1,130,2|4,1:2|1:2,0:0:0:0:
380,212,128607,6,0,L|376:136,2,65,4|4|4,1:3|1:3|1:3,0:0:0:0:
486,287,129312,2,0,L|482:351,2,65,4|0|2,1:2|1:0|1:3,0:0:0:0:
494,156,130018,1,4,1:2:0:0:
401,65,130371,1,4,1:2:0:0:
281,115,130724,2,0,L|203:108,2,65,6|8|4,1:2|1:3|3:0,0:0:0:0:
304,138,131254,6,0,P|317:195|315:284,1,130,4|0,0:0|0:0,0:0:0:0:
301,294,131783,1,0,0:0:0:0:
178,250,132136,2,0,P|138:252|108:267,1,65,0|0,0:0|0:0,0:0:0:0:
90,282,132489,2,0,P|50:280|20:265,1,65,0|0,0:0|0:0,0:0:0:0:
12,75,133371,5,2,0:0:0:0:
