osu file format v9

[General]
AudioFilename: BSPower Explosion1.mp3
AudioLeadIn: 2000
PreviewTime: 68538
Countdown: 0
SampleSet: Normal
StackLeniency: 0.6
Mode: 1
LetterboxInBreaks: 0

[Editor]
Bookmarks: 6205,11205,16538,21872,29872,37872,43205,53872,69872,80538,91205,104538,125872,137538
DistanceSpacing: 1.2
BeatDivisor: 6
GridSize: 4

[Metadata]
Title:BSPower Explosion
Artist:Memme
Creator:yeahyeahyeahhh
Version:lepidon! - Taiko Oni
Source:O2jam Analog
Tags:streams deathstreams lepidopodus

[Difficulty]
HPDrainRate:5
CircleSize:5
OverallDifficulty:6
ApproachRate:5
SliderMultiplier:1.4
SliderTickRate:1

[Events]
//Background and Video events
0,0,"Untitled.png"
//Break Periods
//Storyboard Layer 0 (Background)
//Storyboard Layer 1 (Fail)
//Storyboard Layer 2 (Pass)
//Storyboard Layer 3 (Foreground)
//Storyboard Sound Samples
//Background Colour Transformations
3,100,255,170,213

[TimingPoints]
549,333.333333333333,4,1,1,100,1,0
11215,-100,4,1,1,100,0,1
21715,-50,4,1,1,100,0,1
21882,-50,4,1,1,100,0,0
24048,-100,4,1,1,100,0,0
27132,-50,4,1,1,100,0,0
29382,-100,4,1,1,100,0,0
59215,333.333333333333,3,1,1,100,1,0
67215,333.333333333333,4,1,1,100,1,0
69881,-100,4,1,1,100,0,1
80548,-100,4,1,1,100,0,0
103798,-25,4,1,1,100,0,0
104464,-100,4,1,1,100,0,0
125381,-50,4,1,1,100,0,0
125881,-50,4,1,1,100,0,1
131131,-33.33333333333,4,1,1,100,0,1
136381,-25,4,1,1,100,0,1
137381,-16.66666666666,4,1,1,100,0,1
137881,-100,4,1,1,100,0,0

[HitObjects]
400,140,549,1,8
444,172,715,1,0
464,156,882,1,0
464,156,1048,1,8
504,176,1215,1,0
108,180,1382,1,8
232,140,1548,1,0
400,140,1715,1,8
444,172,1882,1,0
444,172,1965,1,0
444,172,2048,1,8
444,172,2132,1,8
444,172,2215,1,8
464,156,2382,1,8
428,208,2548,1,4
428,208,2715,1,4
408,224,2882,1,4
232,164,3215,1,0
264,164,3298,1,0
264,164,3382,1,0
368,144,3465,1,8
368,144,3548,1,8
284,76,3715,1,8
440,168,3882,1,0
440,168,4048,1,8
440,168,4132,1,8
428,208,4215,1,0
408,224,4382,1,0
284,184,4548,1,0
284,184,4632,1,0
440,168,4715,1,8
440,168,4798,1,8
440,168,4882,1,8
440,168,5048,1,8
280,156,5215,2,0,B|80:248,1,210
460,152,5882,5,8
496,192,6048,1,0
460,152,6215,1,0
440,168,6382,1,8
440,168,6548,1,0
472,176,6715,1,8
496,192,6882,1,0
496,192,7048,1,8
460,152,7215,1,0
440,168,7298,1,0
496,192,7382,1,8
472,176,7465,1,8
472,176,7548,1,8
472,176,7715,1,8
440,168,7882,1,4
428,200,8048,1,4
416,248,8215,1,4
132,164,8548,1,0
132,164,8632,1,0
132,164,8715,1,0
428,200,8798,1,8
428,200,8882,1,8
404,184,9048,1,8
440,168,9215,1,0
472,168,9382,1,8
472,168,9465,1,8
472,168,9548,1,0
456,188,9715,1,0
300,204,9882,1,0
300,204,9965,1,0
300,204,10048,1,0
300,204,10132,1,0
428,200,10215,1,8
428,200,10298,1,8
428,200,10382,1,8
428,200,10465,1,8
100,184,10548,2,0,B|328:132,1,210
408,136,11215,5,0
464,200,11382,1,8
464,200,11465,1,8
464,200,11549,1,8
464,200,11715,1,8
356,272,11882,1,0
356,272,12049,1,8
356,272,12132,1,8
464,200,12215,1,0
428,184,12382,1,8
460,132,12549,1,0
464,200,12715,1,8
464,200,12799,1,8
464,200,12882,1,8
464,200,13049,1,8
380,176,13215,1,0
464,200,13382,1,0
400,292,13549,1,0
400,292,13632,1,0
464,200,13715,1,8
444,216,13799,1,8
444,216,13882,1,8
428,184,14049,1,8
428,184,14132,1,8
428,184,14215,1,8
428,184,14382,1,8
464,200,14549,1,0
464,200,14632,1,0
464,200,14715,1,8
464,200,14882,1,0
428,184,15049,1,8
132,196,15215,1,0
428,184,15382,1,8
404,200,15465,1,8
404,200,15549,1,8
404,200,15715,1,8
336,280,15882,1,8
336,280,15965,1,8
336,280,16049,1,8
336,280,16132,1,8
436,212,16215,1,0
416,160,16382,1,12
128,112,16549,5,0
416,160,16715,1,8
416,160,16799,1,8
388,168,16882,1,8
388,168,17049,1,8
272,100,17215,1,0
440,172,17382,1,8
440,172,17465,1,8
456,192,17549,1,0
456,192,17715,1,8
456,192,17882,1,0
440,172,18049,1,8
440,172,18132,1,8
440,172,18215,1,8
440,172,18382,1,8
388,252,18549,1,0
440,172,18715,1,8
440,172,18882,1,0
440,172,18965,1,0
440,172,19049,1,8
456,192,19132,1,8
456,192,19215,1,8
324,260,19382,1,8
324,260,19465,1,8
324,260,19548,1,8
324,260,19715,1,8
420,144,19882,1,0
420,144,20048,1,8
420,144,20104,1,8
420,144,20160,1,8
440,172,20215,1,0
476,248,20382,1,8
440,172,20548,1,4
384,264,20882,1,4
212,192,21215,2,4,B|52:240,1,140
452,136,21882,5,12
416,180,22215,1,12
460,184,22382,1,4
416,180,22548,1,12
416,180,22882,1,12
416,200,23048,1,4
452,136,23215,1,12
452,136,23382,1,4
472,156,23548,1,12
492,180,23715,1,4
492,180,23882,1,12
416,200,24215,1,8
104,176,24548,1,0
448,212,24632,1,0
416,200,24715,1,8
416,200,24798,1,8
448,212,24882,1,0
164,232,25048,1,8
416,200,25215,1,8
448,108,25382,1,8
448,108,25437,1,8
448,108,25493,1,8
448,212,25548,1,0
304,264,25715,1,0
144,144,25882,1,0
280,144,26048,1,0
280,144,26132,1,0
416,200,26215,1,8
400,228,26382,1,8
368,232,26548,1,8
416,200,26715,1,0
448,212,26771,1,0
448,212,26826,1,0
448,212,26882,1,8
440,184,27048,1,0
432,128,27215,5,12
432,128,27548,1,12
448,212,27715,1,4
448,212,27882,1,12
440,184,28215,1,12
448,212,28382,1,4
412,148,28548,1,12
440,184,28715,1,4
448,212,28882,1,12
448,212,29048,1,12
448,212,29215,1,4
308,200,29548,1,0
412,148,29882,1,8
412,148,29965,1,8
440,184,30048,1,0
440,184,30132,1,0
440,184,30215,1,8
448,212,30382,1,0
448,92,30548,1,8
448,212,30715,1,8
448,212,30771,1,8
448,212,30826,1,8
472,192,30882,1,0
428,252,31048,1,0
300,208,31215,1,0
300,208,31382,1,0
440,184,31465,1,8
440,184,31548,1,0
440,184,31715,1,8
356,124,31882,1,8
356,124,32048,1,0
356,124,32104,1,0
356,124,32160,1,0
472,192,32215,1,8
424,152,32382,1,0
464,96,32548,5,12
328,260,32715,1,0
328,260,32798,1,0
328,260,32882,1,0
404,312,33048,1,0
440,184,33215,1,12
424,240,33382,1,0
424,240,33465,1,0
424,240,33548,1,0
424,240,33715,1,0
424,152,33882,1,12
440,184,34048,1,4
472,176,34215,1,12
472,176,34382,1,4
440,184,34548,1,12
312,236,34882,1,0
460,264,35048,1,8
248,188,35215,1,0
288,164,35298,1,0
288,164,35382,1,0
288,164,35465,1,0
288,164,35548,1,0
424,160,35715,1,8
420,108,35882,1,0
424,160,36048,1,8
424,160,36104,1,8
424,160,36160,1,8
448,208,36215,1,0
448,208,36382,1,0
336,276,36548,1,0
336,276,36715,1,0
336,276,36798,1,0
448,208,36882,1,8
432,240,37048,1,8
336,152,37215,1,8
448,208,37382,1,0
448,208,37437,1,0
448,208,37493,1,0
448,208,37548,1,8
424,160,37715,1,0
444,128,37882,5,12
376,212,38048,1,0
376,212,38132,1,0
300,204,38215,1,0
300,204,38382,1,8
424,160,38548,1,12
424,160,38715,1,0
424,160,38798,1,0
424,160,38882,1,0
452,168,39048,1,8
424,160,39215,1,12
476,192,39382,1,4
476,192,39549,1,12
452,168,39715,1,12
448,208,39882,1,4
336,84,40215,1,8
336,84,40299,1,8
392,112,40382,1,8
392,112,40465,1,8
448,80,40549,1,0
344,240,40715,1,0
344,240,40799,1,0
380,200,40882,1,8
380,200,41049,1,8
452,168,41215,1,0
424,160,41382,1,8
424,160,41437,1,8
424,160,41493,1,8
488,124,41549,1,0
160,160,41715,1,0
320,108,41882,1,0
292,116,41965,1,0
424,108,42049,1,8
448,80,42132,1,8
452,248,42215,1,0
436,284,42299,1,0
416,236,42382,1,8
356,264,42465,1,8
276,156,42549,1,8
200,252,42882,1,0
224,240,43049,1,8
212,104,43215,5,0
212,104,43299,1,0
416,176,43382,1,8
416,176,43465,1,8
444,152,43549,1,0
444,200,43715,1,0
228,176,43882,1,0
264,176,43965,1,0
444,152,44049,1,8
416,176,44215,1,0
444,200,44299,1,8
444,200,44382,1,8
368,100,44549,1,8
368,100,44715,1,8
368,100,44799,1,8
444,108,44882,1,0
444,108,44965,1,0
420,132,45049,1,8
352,240,45215,1,8
352,240,45299,1,8
352,240,45382,1,8
352,240,45465,1,8
304,216,45549,1,0
304,216,45632,1,0
304,216,45715,1,0
236,144,45882,1,0
236,144,45965,1,0
280,120,46049,1,0
444,180,46132,1,8
448,208,46215,1,0
444,108,46382,1,8
368,132,46549,1,0
444,144,46715,1,8
444,144,46799,1,8
468,164,46882,1,0
444,180,47049,1,8
328,244,47215,1,0
444,180,47299,1,0
340,288,47382,1,8
368,132,47549,1,0
444,144,47632,1,8
444,144,47715,1,8
252,160,47882,1,8
252,160,47965,1,8
252,160,48049,1,8
252,160,48132,1,8
404,252,48215,1,0
404,252,48299,1,0
404,252,48382,1,0
272,64,48549,5,0
428,116,48632,1,8
428,116,48715,1,8
428,116,48799,1,8
444,180,48882,1,0
444,180,49049,1,8
472,184,49215,1,0
444,180,49382,1,8
444,180,49465,1,8
444,180,49549,1,0
416,176,49715,1,8
332,244,49882,1,8
304,188,50049,1,8
304,188,50132,1,8
384,136,50215,1,0
384,136,50299,1,0
428,116,50382,1,8
352,120,50549,1,8
352,120,50632,1,8
384,136,50715,1,8
384,136,50799,1,8
416,176,50882,1,0
416,176,50965,1,0
416,176,51049,1,0
244,160,51215,1,8
244,160,51299,1,8
384,240,51382,1,0
448,156,51549,1,8
456,232,51715,1,0
396,64,51882,1,0
396,64,51965,1,0
424,108,52049,1,0
424,108,52132,1,8
448,156,52215,1,0
448,156,52299,1,0
452,184,52382,1,8
452,184,52465,1,8
288,256,52549,1,8
328,160,52715,1,8
416,212,52799,1,0
416,212,52882,1,0
456,232,53049,1,8
376,180,53215,1,12
376,180,53382,1,12
376,180,53549,1,12
408,108,53882,5,4
348,124,54049,1,8
348,124,54132,1,8
376,180,54215,1,0
376,180,54382,1,0
436,176,54549,1,8
436,176,54715,1,8
436,176,54799,1,8
436,176,54882,1,0
436,176,55049,1,0
436,176,55215,1,8
464,152,55382,1,8
428,220,55465,1,0
428,220,55549,1,0
424,264,55715,1,0
404,116,55882,1,8
404,116,56049,1,8
436,176,56132,1,0
412,188,56215,1,0
428,220,56382,1,0
320,128,56549,1,4
404,116,56715,1,8
404,116,56799,1,8
436,176,56882,1,0
380,168,57049,1,0
412,188,57215,1,8
416,152,57382,1,8
416,152,57465,1,8
436,176,57549,1,0
412,188,57715,1,4
448,140,57882,1,8
404,116,58049,1,4
168,200,58215,1,0
296,296,58382,1,0
292,128,58549,1,8
292,128,58715,1,8
420,236,58799,1,8
144,136,58882,1,0
144,136,58965,1,0
412,188,59049,1,8
384,184,59132,1,8
256,84,59215,5,0
256,84,59298,1,0
288,80,59381,1,0
288,80,59465,1,0
404,116,59548,1,8
404,116,59631,1,8
404,116,59715,1,8
404,116,59798,1,0
176,200,59881,1,8
412,188,59965,1,0
420,236,60048,1,8
280,244,60215,1,0
316,256,60298,1,0
316,256,60381,1,0
316,256,60465,1,0
412,188,60548,1,8
412,188,60631,1,8
384,184,60715,1,8
412,188,60798,1,0
272,148,60881,1,8
272,148,60965,1,8
420,236,61048,1,0
200,176,61215,1,0
200,176,61298,1,0
200,176,61381,1,0
200,176,61465,1,0
416,120,61548,1,8
416,120,61631,1,8
456,164,61715,1,0
456,164,61798,1,8
408,212,61881,1,8
452,216,61965,1,0
452,216,62048,1,8
376,220,62215,1,0
376,220,62298,1,0
376,220,62381,1,0
376,220,62465,1,0
408,212,62548,1,8
420,236,62631,1,8
408,212,62715,1,0
408,212,62798,1,8
408,212,62881,1,0
420,236,62965,1,8
356,136,63048,1,0
232,184,63215,5,0
260,196,63298,1,0
412,160,63381,1,8
440,168,63465,1,8
440,168,63548,1,0
440,168,63631,1,0
440,168,63715,1,8
440,168,63798,1,0
440,168,63881,1,8
440,168,63965,1,0
440,168,64048,1,8
128,128,64215,1,0
128,128,64298,1,0
356,136,64381,1,8
356,136,64465,1,8
388,80,64548,1,0
412,160,64631,1,0
412,160,64715,1,8
440,168,64798,1,0
480,168,64881,1,8
480,168,64965,1,8
452,220,65048,1,0
252,232,65215,1,0
284,232,65298,1,0
380,184,65381,1,8
380,184,65465,1,8
312,168,65548,1,0
312,168,65631,1,8
448,140,65715,1,8
448,140,65798,1,0
448,140,65881,1,8
440,168,65965,1,0
440,168,66048,1,8
132,152,66215,1,0
132,152,66298,1,0
372,116,66381,1,8
372,116,66465,1,8
448,240,66548,1,0
400,236,66631,1,8
400,236,66715,1,8
296,268,66798,1,0
452,88,66881,1,8
280,76,66965,1,8
364,228,67048,1,0
176,104,67215,5,0
208,128,67298,1,0
244,164,67381,1,8
264,184,67464,1,0
392,192,67548,1,8
392,192,67631,1,8
392,192,67714,1,0
392,192,67798,1,8
440,144,67881,1,8
440,144,67964,1,8
452,180,68048,1,0
452,180,68131,1,0
380,276,68214,1,8
380,276,68298,1,0
428,216,68381,1,8
304,88,68548,1,4
152,180,68714,1,0
152,180,68798,1,0
392,192,68881,1,8
376,144,69048,1,0
376,144,69131,1,0
376,144,69214,1,8
376,144,69298,1,8
376,144,69381,1,8
376,144,69464,1,8
392,192,69548,1,0
392,192,69631,1,0
392,192,69714,1,0
408,136,69881,5,0
464,200,70048,1,8
464,200,70131,1,8
464,200,70214,1,8
464,200,70381,1,8
356,272,70548,1,0
356,272,70714,1,8
356,272,70798,1,8
464,200,70881,1,0
428,184,71048,1,8
460,132,71214,1,0
464,200,71381,1,8
464,200,71464,1,8
464,200,71548,1,8
464,200,71714,1,8
380,176,71881,1,0
464,200,72048,1,0
400,292,72214,1,0
400,292,72298,1,0
464,200,72381,1,8
444,216,72464,1,8
444,216,72548,1,8
428,184,72714,1,8
428,184,72798,1,8
428,184,72881,1,8
428,184,73048,1,8
464,200,73214,1,0
464,200,73298,1,0
464,200,73381,1,8
464,200,73548,1,0
428,184,73714,1,8
132,196,73881,1,0
428,184,74048,1,8
404,200,74131,1,8
404,200,74214,1,8
404,200,74381,1,8
336,280,74548,1,8
336,280,74631,1,8
336,280,74714,1,8
336,280,74798,1,8
436,212,74881,1,0
416,160,75048,1,12
128,112,75214,5,0
416,160,75381,1,8
416,160,75464,1,8
388,168,75548,1,8
388,168,75714,1,8
272,100,75881,1,0
440,172,76048,1,8
440,172,76131,1,8
456,192,76214,1,0
456,192,76381,1,8
456,192,76548,1,0
440,172,76714,1,8
440,172,76798,1,8
440,172,76881,1,8
440,172,77048,1,8
388,252,77214,1,0
440,172,77381,1,8
440,172,77548,1,0
440,172,77631,1,0
440,172,77714,1,8
456,192,77798,1,8
456,192,77881,1,8
324,260,78048,1,8
324,260,78131,1,8
324,260,78214,1,8
324,260,78381,1,8
420,144,78548,1,0
420,144,78714,1,8
420,144,78770,1,8
420,144,78826,1,8
440,172,78881,1,0
476,248,79048,1,8
440,172,79214,1,4
420,144,79381,1,8
420,144,79548,1,4
440,172,79714,1,8
420,144,79881,1,4
424,212,80048,1,0
424,212,80131,1,0
424,212,80214,1,0
452,112,80381,1,8
212,104,80548,5,0
212,104,80631,1,0
416,176,80714,1,8
416,176,80798,1,8
444,152,80881,1,0
444,200,81048,1,0
228,176,81214,1,0
264,176,81298,1,0
444,152,81381,1,8
416,176,81548,1,0
444,200,81631,1,8
444,200,81714,1,8
128,168,81881,1,0
128,168,81964,1,0
128,168,82048,1,0
128,168,82131,1,0
416,176,82214,1,8
416,176,82298,1,8
416,176,82381,1,8
352,240,82548,1,8
352,240,82631,1,8
352,240,82714,1,8
352,240,82798,1,8
304,216,82881,1,0
304,216,82964,1,0
304,216,83048,1,0
236,144,83214,1,0
236,144,83298,1,0
280,120,83381,1,0
444,180,83464,1,8
448,208,83548,1,0
444,108,83714,1,8
368,132,83881,1,0
444,144,84048,1,8
444,144,84131,1,8
468,164,84214,1,0
444,180,84381,1,8
156,200,84548,1,0
156,200,84631,1,0
188,216,84714,1,0
240,208,84798,1,0
392,208,84881,1,0
404,240,84964,1,8
404,240,85048,1,8
312,280,85214,1,8
312,280,85298,1,8
312,280,85381,1,8
456,264,85464,1,0
432,280,85548,1,0
432,280,85631,1,0
432,280,85714,1,0
272,64,85881,5,0
428,116,85964,1,8
428,116,86048,1,8
428,116,86131,1,8
444,180,86214,1,0
444,180,86381,1,8
472,184,86548,1,0
444,180,86714,1,8
444,180,86798,1,8
444,180,86881,1,0
416,176,87048,1,8
168,196,87214,1,0
168,196,87298,1,0
168,196,87381,1,0
408,236,87464,1,8
408,236,87548,1,8
408,236,87631,1,8
408,236,87714,1,8
384,240,87881,1,8
384,240,87964,1,8
384,240,88048,1,8
384,240,88131,1,8
384,240,88214,1,8
416,176,88298,1,0
416,176,88381,1,0
244,160,88548,1,8
244,160,88631,1,8
384,240,88714,1,0
448,156,88881,1,8
456,232,89048,1,0
396,64,89214,1,0
396,64,89298,1,0
424,108,89381,1,0
424,108,89464,1,8
448,156,89548,1,0
448,156,89631,1,0
452,184,89714,1,8
452,184,89798,1,8
288,256,89881,1,8
328,160,90048,1,8
416,212,90131,1,0
416,212,90214,1,0
456,232,90381,1,8
376,180,90548,1,12
376,180,90714,1,12
376,180,90881,1,12
384,68,91214,5,4
456,144,91381,1,8
468,168,91548,1,0
488,184,91714,1,8
488,184,91881,1,8
296,256,92048,1,0
296,256,92131,1,0
412,224,92214,1,8
448,288,92381,1,8
408,168,92548,1,0
356,176,92714,1,0
456,144,92881,1,8
440,216,93048,1,0
336,136,93214,1,0
344,248,93381,1,8
344,248,93464,1,8
448,288,93548,1,0
356,76,93881,1,4
408,168,94048,1,8
456,144,94214,1,0
476,176,94381,1,8
440,216,94548,1,8
272,252,94714,1,0
272,252,94798,1,0
360,184,94881,1,8
296,200,95048,1,8
384,112,95214,1,4
408,168,95381,1,0
408,168,95548,1,12
456,240,95714,1,0
408,168,95881,1,4
448,120,96048,1,8
448,120,96131,1,8
328,68,96214,1,0
408,80,96381,1,0
408,80,96437,1,0
408,80,96492,1,0
408,80,96548,5,0
440,176,96714,1,8
440,176,96881,1,0
136,200,96964,1,0
440,176,97048,1,8
432,228,97214,1,8
348,224,97381,1,0
348,224,97464,1,0
384,192,97548,1,8
384,192,97714,1,8
436,136,97881,1,4
468,156,98048,1,0
440,176,98214,1,12
440,176,98381,1,0
440,176,98548,1,4
396,144,98714,1,8
396,144,98798,1,8
412,200,98881,1,0
384,192,98964,1,0
384,192,99048,1,0
384,192,99131,1,0
112,120,99214,1,0
440,176,99381,1,8
440,176,99548,1,0
136,200,99631,1,0
440,176,99714,1,8
432,228,99881,1,8
348,224,100048,1,0
348,224,100131,1,0
384,192,100214,1,8
384,192,100381,1,8
436,136,100548,1,4
468,156,100714,1,0
440,176,100881,1,12
440,176,101048,1,0
440,176,101214,1,4
352,104,101381,1,8
352,104,101437,1,8
352,104,101492,1,8
384,192,101548,1,0
152,160,101881,5,8
184,160,102048,1,8
212,164,102131,1,8
200,208,102214,1,0
232,216,102381,1,0
344,208,102548,1,8
344,208,102714,1,8
344,208,102798,1,8
368,252,102881,1,0
368,252,103048,1,0
372,168,103214,1,12
372,168,103381,1,8
404,232,103464,1,0
404,232,103548,1,0
372,168,103714,1,0
256,192,103881,12,0,104381
184,124,104548,5,0
232,120,104714,1,0
392,148,104798,1,8
388,112,104881,1,0
496,152,104964,1,8
496,184,105048,1,0
448,180,105131,1,8
428,228,105214,1,0
280,192,105381,1,0
280,192,105464,1,8
280,192,105548,1,8
280,192,105714,1,8
392,148,105881,1,8
440,112,106048,1,0
388,252,106214,1,8
388,252,106381,1,8
388,252,106464,1,8
392,148,106548,1,0
480,164,106631,1,8
480,164,106714,1,0
480,164,106798,1,8
448,184,106881,1,0
392,148,107048,1,0
392,148,107131,1,0
392,148,107214,1,8
400,204,107381,1,8
488,132,107464,1,8
480,164,107548,1,0
480,164,107631,1,8
504,180,107714,1,0
504,180,107798,1,0
484,204,107881,1,8
404,280,108048,1,8
416,248,108131,1,8
400,204,108214,1,0
400,204,108381,1,0
448,184,108464,1,8
380,236,108548,1,0
136,180,108714,1,0
404,112,108881,1,8
456,140,109048,1,0
448,184,109131,1,8
404,156,109214,1,0
448,184,109381,1,8
464,220,109548,1,0
284,152,109881,5,0
284,152,110048,1,0
404,112,110131,1,8
404,112,110214,1,8
448,184,110298,1,0
448,184,110381,1,0
480,168,110464,1,8
464,220,110548,1,8
228,196,110631,1,8
448,184,110714,1,0
372,184,110798,1,8
404,112,110881,1,0
480,168,110964,1,8
416,184,111048,1,0
460,128,111214,1,8
460,128,111381,1,0
416,184,111548,1,8
172,248,111714,1,0
172,248,111798,1,0
416,184,111881,1,8
416,184,111964,1,8
448,184,112048,1,0
448,184,112131,1,8
448,184,112214,1,0
448,184,112298,1,8
448,184,112381,1,0
372,224,112548,1,0
460,128,112714,1,8
448,184,112798,1,0
448,184,112881,1,8
448,184,113048,1,0
428,152,113214,1,8
428,152,113381,1,8
488,180,113464,1,0
488,180,113548,1,8
448,184,113714,1,0
284,164,113881,1,0
284,164,113964,1,0
428,152,114048,1,8
348,152,114131,1,0
348,152,114214,1,0
348,152,114298,1,0
428,152,114381,1,8
428,152,114464,1,8
428,152,114548,1,8
428,152,114631,1,8
472,148,114714,1,0
428,152,114798,1,8
428,152,114881,1,8
428,152,114964,1,8
388,196,115048,1,0
184,124,115214,5,0
232,120,115381,1,0
392,148,115464,1,8
388,112,115548,1,0
496,152,115631,1,8
496,184,115714,1,0
448,180,115798,1,8
428,228,115881,1,0
280,192,116048,1,0
280,192,116131,1,8
280,192,116214,1,8
280,192,116381,1,8
392,148,116548,1,8
440,112,116714,1,0
388,252,116881,1,8
388,252,117048,1,8
388,252,117131,1,8
392,148,117214,1,0
480,164,117298,1,8
480,164,117381,1,0
480,164,117464,1,8
448,184,117548,1,0
392,148,117714,1,0
392,148,117798,1,0
392,148,117881,1,8
400,204,118048,1,8
488,132,118131,1,8
480,164,118214,1,0
480,164,118298,1,8
504,180,118381,1,0
504,180,118464,1,0
484,204,118548,1,8
404,280,118714,1,8
416,248,118798,1,8
400,204,118881,1,0
400,204,119048,1,0
448,184,119131,1,8
380,236,119214,1,0
136,180,119381,1,0
404,112,119548,1,8
456,140,119714,1,0
448,184,119798,1,8
404,156,119881,1,0
448,184,120048,1,8
464,220,120214,1,0
212,248,120548,5,0
288,220,120714,1,0
288,220,120798,1,0
404,156,120881,1,8
404,184,120964,1,0
404,184,121048,1,0
432,160,121131,1,8
404,184,121214,1,0
456,140,121298,1,8
448,184,121381,1,0
448,184,121464,1,0
364,184,121548,1,8
448,184,121631,1,0
448,184,121714,1,8
348,104,121881,1,0
348,104,122048,1,0
432,160,122214,1,8
308,192,122381,1,0
308,192,122464,1,0
364,184,122548,1,8
364,184,122631,1,8
432,160,122714,1,0
448,184,122798,1,8
448,184,122881,1,0
448,184,122964,1,0
364,184,123048,1,8
276,124,123214,1,0
276,124,123298,1,0
276,124,123381,1,0
392,176,123464,1,8
392,176,123548,1,8
392,176,123714,1,8
352,120,123881,1,0
432,160,123964,1,8
432,160,124048,1,0
472,168,124131,1,8
472,168,124214,1,0
432,160,124298,1,8
432,160,124381,1,8
232,212,124548,1,0
392,176,124631,1,8
448,192,124714,1,0
472,168,124798,1,8
432,256,124881,1,0
472,168,124964,1,8
472,168,125048,1,0
472,168,125131,1,8
424,204,125214,1,0
424,120,125548,1,4
432,160,125714,1,12
408,136,125881,5,0
464,200,126048,1,8
464,200,126131,1,8
464,200,126214,1,8
464,200,126381,1,8
356,272,126548,1,0
356,272,126714,1,8
356,272,126798,1,8
464,200,126881,1,0
428,184,127048,1,8
460,132,127214,1,0
464,200,127381,1,8
464,200,127464,1,8
464,200,127548,1,8
464,200,127714,1,8
380,176,127881,1,0
464,200,128048,1,0
400,292,128214,1,0
400,292,128298,1,0
464,200,128381,1,8
444,216,128464,1,8
444,216,128548,1,8
428,184,128714,1,8
428,184,128798,1,8
428,184,128881,1,8
428,184,129048,1,8
464,200,129214,1,0
464,200,129298,1,0
464,200,129381,1,8
464,200,129548,1,0
428,184,129714,1,8
132,196,129881,1,0
428,184,130048,1,8
404,200,130131,1,8
404,200,130214,1,8
404,200,130381,1,8
336,280,130548,1,8
336,280,130631,1,8
336,280,130714,1,8
336,280,130798,1,8
436,212,130881,1,0
416,160,131048,1,12
128,112,131214,5,0
416,160,131381,1,8
416,160,131464,1,8
388,168,131548,1,8
388,168,131714,1,8
272,100,131881,1,0
440,172,132048,1,8
440,172,132131,1,8
456,192,132214,1,0
456,192,132381,1,8
456,192,132548,1,0
440,172,132714,1,8
440,172,132798,1,8
440,172,132881,1,8
440,172,133048,1,8
388,252,133214,1,0
440,172,133381,1,8
440,172,133548,1,0
440,172,133631,1,0
440,172,133714,1,8
456,192,133798,1,8
456,192,133881,1,8
324,260,134048,1,8
324,260,134131,1,8
324,260,134214,1,8
324,260,134381,1,8
420,144,134548,1,0
420,144,134714,1,8
420,144,134770,1,8
420,144,134826,1,8
440,172,134881,1,0
476,248,135048,1,8
184,128,135214,1,4
184,128,135548,1,4
184,128,135881,1,4
332,172,136214,1,12
420,120,136548,5,12
432,176,136714,1,4
488,180,136881,1,12
488,180,137048,1,4
488,180,137214,1,12
264,152,137548,1,4
