osu file format v11

[General]
AudioFilename: BSPower Explosion_.mp3
AudioLeadIn: 1522
PreviewTime: 68538
Countdown: 1
SampleSet: Normal
StackLeniency: 0.7
Mode: 0
LetterboxInBreaks: 1

[Editor]
DistanceSpacing: 0.5
BeatDivisor: 4
GridSize: 4

[Metadata]
Title:BSPower Explosion
TitleUnicode:BSPower Explosion
Artist:Memme
ArtistUnicode:Memme
Creator:murasaki_sk
Version:Extra
Source:O2jam Analog
Tags:
BeatmapID:195363
BeatmapSetID:65999

[Difficulty]
HPDrainRate:6
CircleSize:5
OverallDifficulty:7
ApproachRate:9
SliderMultiplier:2.6
SliderTickRate:1

[Events]
//Background and Video events
0,0,"bg.jpg"
//Break Periods
2,91405,92938
//Storyboard Layer 0 (Background)
//Storyboard Layer 1 (Fail)
//Storyboard Layer 2 (Pass)
//Storyboard Layer 3 (Foreground)
//Storyboard Sound Samples
//Background Colour Transformations
3,100,163,162,255

[TimingPoints]
539,333.333333333333,4,1,1,80,1,0
93872,-200,4,1,1,80,0,0
95205,-100,4,1,1,80,0,0
103205,-66.6666666666667,4,1,1,80,0,0
103538,-133.333333333333,4,1,1,80,0,0
103872,-100,4,1,1,80,0,0
104538,-90.9090909090909,4,1,1,80,0,1
136205,-76.9230769230769,4,1,1,80,0,1
137372,-90.9090909090909,4,1,1,80,0,0
137455,-90.9090909090909,4,1,1,80,0,1
137622,-90.9090909090909,4,1,1,80,0,0

[Colours]
Combo1 : 255,98,227
Combo2 : 87,253,146
Combo3 : 83,238,255
Combo4 : 255,136,136

[HitObjects]
212,168,539,1,0,0:0:0
444,64,705,1,0,0:0:0
412,136,872,1,0,0:0:0
180,240,1038,1,0,0:0:0
240,96,1205,2,0,P|368:76,1,130
380,212,1538,2,0,P|252:232,1,130
72,100,1872,5,0,0:0:0
72,100,1955,1,0,0:0:0
72,100,2038,2,0,P|40:156,1,65
120,172,2205,2,0,P|104:208|104:208|136:292,1,130
344,340,2538,2,0,P|476:340,2,130
304,88,3205,5,0,0:0:0
340,60,3288,1,0,0:0:0
384,60,3372,1,0,0:0:0
424,84,3455,1,0,0:0:0
444,124,3538,2,0,P|452:188|424:248,1,130
200,256,3872,6,0,P|144:276|144:276|152:316|192:320,1,130
200,256,4122,1,0,0:0:0
200,256,4205,2,0,P|188:212|128:224|120:160,1,130
256,60,4538,5,0,0:0:0
256,104,4622,1,0,0:0:0
256,148,4705,1,0,0:0:0
256,192,4788,1,0,0:0:0
256,236,4872,2,0,P|256:368,2,130
456,192,5372,5,2,0:0:0
56,192,5538,1,2,0:0:0
456,192,5705,1,2,0:0:0
192,60,5872,6,0,P|168:120|108:136,1,130
320,324,6205,2,0,P|344:264|404:248,1,130
354,91,6538,1,0,0:0:0
158,292,6705,1,0,0:0:0
354,91,6872,1,0,0:0:0
158,292,7038,1,0,0:0:0
88,144,7205,6,0,P|64:84,1,65
204,136,7372,2,0,P|144:160,1,65,0|0,0:0|0:0,0:0:0
84,32,7538,2,0,P|144:8|144:8|204:32,1,130
448,128,7872,5,0,0:0:0
448,128,8038,1,0,0:0:0
448,128,8205,1,0,0:0:0
256,288,8538,5,0,0:0:0
276,328,8622,1,0,0:0:0
316,348,8705,1,0,0:0:0
360,344,8788,1,0,0:0:0
396,316,8872,2,0,P|328:296|304:244,1,130
116,68,9205,2,0,P|184:88|208:140,1,130
136,140,9455,2,0,P|92:192,1,65
94,189,9705,1,0,0:0:0
181,335,9872,5,0,0:0:0
237,320,9955,1,0,0:0:0
283,285,10038,1,0,0:0:0
299,228,10122,1,0,0:0:0
294,169,10205,5,0,0:0:0
300,111,10288,1,0,0:0:0
334,63,10372,1,0,0:0:0
387,39,10455,1,0,0:0:0
443,52,10538,2,0,P|399:128|279:138|215:75,2,260
472,240,11372,6,0,P|432:188,1,65
320,152,11538,2,0,P|360:204|360:204|360:268,1,130
130,314,11872,1,0,0:0:0
256,344,12038,1,0,0:0:0
72,200,12205,2,0,P|132:318,1,130
216,84,12538,5,0,0:0:0
388,120,12705,1,0,0:0:0
404,80,12788,1,0,0:0:0
416,36,12872,2,0,P|352:44|296:12,2,130
464,192,13372,1,0,0:0:0
372,328,13538,6,0,P|316:292,1,65
308,184,13705,2,0,P|252:220,1,65
176,344,13872,2,0,P|116:316|116:316|84:260,1,130
56,192,14122,1,0,0:0:0
84,124,14205,2,0,P|116:68|116:68|176:40,2,130
172,220,14705,1,0,0:0:0
288,160,14872,1,0,0:0:0
327,35,15038,1,0,0:0:0
192,136,15205,6,0,P|256:148|316:128,1,130
372,92,15455,1,0,0:0:0
416,44,15538,2,0,P|464:80|496:144,1,130
448,264,15872,1,0,0:0:0
324,232,16038,1,0,0:0:0
384,348,16205,1,0,0:0:0
168,311,16371,1,0,0:0:0
44,160,16538,5,0,0:0:0
168,44,16705,1,0,0:0:0
168,44,16788,1,0,0:0:0
168,44,16872,1,0,0:0:0
220,204,17038,1,0,0:0:0
462,137,17205,2,0,P|408:169|340:173,1,130
205,150,17538,2,0,P|259:118|327:114,1,130
428,304,17872,6,0,P|364:320|316:284,1,130
284,252,18122,1,0,0:0:0
240,252,18205,1,0,0:0:0
80,308,18372,1,0,0:0:0
208,164,18538,1,0,0:0:0
240,304,18705,1,0,0:0:0
60,200,18872,2,0,P|48:128,1,65
128,132,19038,2,0,P|124:60,1,65
256,32,19205,6,0,P|220:84|232:148,1,130
272,200,19455,2,0,P|212:228,1,65
92,276,19705,1,0,0:0:0
156,64,19872,1,0,0:0:0
336,188,20038,1,0,0:0:0
116,192,20205,1,0,0:0:0
296,316,20372,1,0,0:0:0
336,100,20538,5,0,0:0:0
496,305,20872,1,0,0:0:0
316,276,21205,2,0,P|228:232|240:352|140:312,1,195
96,304,21538,2,0,P|52:304|16:264|32:212,1,130
136,32,21872,5,0,0:0:0
236,244,22205,1,0,0:0:0
96,180,22372,1,0,0:0:0
136,32,22538,1,0,0:0:0
308,272,22872,5,0,0:0:0
168,208,23039,1,0,0:0:0
208,60,23205,5,0,0:0:0
308,272,23372,1,0,0:0:0
168,208,23538,1,0,0:0:0
308,272,23705,1,0,0:0:0
168,208,23872,2,0,P|208:60|208:60|264:64|312:36,1,260
310,36,24372,1,0,0:0:0
464,240,24538,6,0,P|412:200|384:144,1,130
280,340,24872,2,0,P|319:287|332:226,2,130
116,300,25372,1,0,0:0:0
116,256,25455,1,0,0:0:0
132,216,25538,1,0,0:0:0
216,40,25705,1,0,0:0:0
28,144,25872,5,0,0:0:0
232,180,26038,1,0,0:0:0
276,172,26122,1,0,0:0:0
312,144,26205,1,0,0:0:0
480,44,26372,1,0,0:0:0
480,44,26538,6,0,P|464:104|412:148,1,130
232,92,26872,1,0,0:0:0
204,128,26955,1,0,0:0:0
200,172,27038,1,0,0:0:0
216,216,27122,1,0,0:0:0
256,240,27205,1,0,0:0:0
488,124,27538,5,0,0:0:0
288,160,27705,1,0,0:0:0
488,124,27872,1,0,0:0:0
152,264,28205,5,0,0:0:0
352,228,28372,1,0,0:0:0
152,264,28539,1,0,0:0:0
288,160,28705,1,0,0:0:0
324,352,28872,1,0,0:0:0
152,264,29038,1,0,0:0:0
460,248,29205,1,0,0:0:0
460,248,29538,6,0,P|480:292|464:336|420:356,1,130
336,152,29872,2,0,P|384:108|444:116,2,130
320,320,30372,1,0,0:0:0
152,308,30538,2,0,P|95:345|34:349,1,130
110,196,30872,2,0,P|82:134|90:72,1,130
226,213,31205,2,0,P|291:197|350:214,1,130
392,236,31455,1,0,0:0:0
424,268,31538,1,0,0:0:0
256,352,31705,1,0,0:0:0
256,140,31872,1,0,0:0:0
476,32,32038,5,2,0:0:0
224,60,32205,1,2,0:0:0
453,175,32372,1,2,0:0:0
176,164,32538,6,0,P|72:196|32:304|32:304|64:344,1,260
64,344,33038,1,0,0:0:0
336,220,33205,2,0,P|440:188|480:80|480:80|448:40,1,260
448,40,33705,1,0,0:0:0
256,88,33872,6,0,P|216:132|148:132,1,130
256,296,34205,2,0,P|296:252|364:252,1,130
328,104,34538,2,0,P|248:192|114:192,1,260
188,68,35038,1,0,0:0:0
424,144,35205,6,0,P|456:84|456:84|416:36,1,130
328,256,35538,2,0,P|330:323|330:323|388:345,1,130
272,128,35872,2,0,P|212:96|212:96|164:136,2,130
440,272,36372,1,0,0:0:0
280,320,36538,1,0,0:0:0
84,232,36705,5,0,0:0:0
84,276,36788,1,0,0:0:0
120,304,36872,1,0,0:0:0
232,196,37038,1,0,0:0:0
232,152,37121,1,0,0:0:0
196,124,37205,1,0,0:0:0
64,44,37372,1,0,0:0:0
120,156,37538,1,0,0:0:0
140,191,37622,1,0,0:0:0
160,226,37705,1,0,0:0:0
180,261,37788,1,0,0:0:0
204,292,37872,6,0,P|256:328|324:340,1,130
472,228,38205,1,0,0:0:0
332,260,38372,1,0,0:0:0
212,116,38538,2,0,P|264:152|332:164,1,130
480,52,38871,1,0,0:0:0
340,84,39038,1,0,0:0:0
24,248,39205,5,0,0:0:0
164,216,39372,1,0,0:0:0
168,96,39538,2,0,P|128:76|128:76|44:96,2,130
104,288,40038,2,0,P|76:348,2,65
168,96,40372,1,0,0:0:0
168,96,40455,1,0,0:0:0
168,96,40538,6,0,P|256:180|276:312,1,260
140,208,41038,1,0,0:0:0
332,256,41205,2,0,P|271:281|209:264,1,130
176,236,41455,1,0,0:0:0
140,208,41538,2,0,P|77:208|25:248,2,130
392,192,42038,2,0,P|456:216,2,65
252,36,42372,2,0,P|188:12,2,65
460,36,42705,5,2,0:0:0
416,266,42872,1,2,0:0:0
330,50,43038,1,2,0:0:0
224,200,43205,6,0,P|208:264|120:296|64:264,1,195
28,236,43538,1,0,0:0:0
136,56,43705,1,0,0:0:0
180,48,43788,1,0,0:0:0
220,68,43872,2,0,P|228:116|280:132|324:104,1,130
484,20,44205,2,0,P|488:88|464:144,1,130
332,336,44538,2,0,P|328:268|352:212,2,130
444,208,45038,5,0,0:0:0
416,172,45122,1,0,0:0:0
372,160,45205,1,0,0:0:0
188,228,45372,1,0,0:0:0
216,264,45456,1,0,0:0:0
260,276,45539,1,0,0:0:0
264,80,45705,1,0,0:0:0
236,44,45789,1,0,0:0:0
192,32,45872,6,0,P|128:36|72:68,2,130
372,60,46372,1,0,0:0:0
462,218,46538,1,0,0:0:0
304,307,46705,1,0,0:0:0
214,149,46872,1,0,0:0:0
372,60,47038,1,0,0:0:0
368,236,47205,5,0,0:0:0
138,198,47372,1,0,0:0:0
345,93,47538,1,0,0:0:0
240,299,47705,1,0,0:0:0
203,71,47872,1,0,0:0:0
48,208,48038,5,0,0:0:0
48,208,48122,1,0,0:0:0
48,208,48205,1,0,0:0:0
184,368,48372,1,0,0:0:0
184,368,48455,1,0,0:0:0
184,368,48538,6,0,P|292:372|300:268|300:268|368:216,1,260
496,192,49038,1,0,0:0:0
372,284,49205,2,0,P|312:264|300:204,1,130
308,172,49455,1,0,0:0:0
320,140,49538,1,0,0:0:0
452,28,49705,1,0,0:0:0
400,196,49872,5,0,0:0:0
270,19,50038,1,0,0:0:0
140,196,50205,1,0,0:0:0
9,19,50372,1,0,0:0:0
140,196,50538,5,0,0:0:0
168,232,50622,1,0,0:0:0
212,248,50705,2,0,P|244:248|276:240,1,65
408,176,50872,1,0,0:0:0
380,140,50956,1,0,0:0:0
336,124,51039,2,0,P|304:124|272:132,1,65
140,196,51205,5,0,0:0:0
21,251,51372,1,0,0:0:0
141,299,51538,1,0,0:0:0
22,355,51705,1,0,0:0:0
324,304,51872,6,0,P|368:256,1,65
292,220,52038,2,0,P|322:162,1,65,0|0,0:0|0:0,0:0:0
436,280,52205,2,0,P|480:232,1,65
264,128,52371,2,0,P|278:64,1,65,0|0,0:0|0:0,0:0:0
452,64,52538,6,0,P|424:124|376:164,1,130
340,180,52788,1,0,0:0:0
304,192,52872,1,0,0:0:0
264,192,52955,1,0,0:0:0
228,180,53038,1,0,0:0:0
80,32,53205,1,0,0:0:0
56,180,53372,1,0,0:0:0
232,48,53538,1,0,0:0:0
144,236,53872,5,0,0:0:0
272,260,54038,2,0,P|336:272,2,65
144,236,54372,1,0,0:0:0
272,260,54538,5,0,0:0:0
212,116,54705,2,0,P|188:56,2,65
272,260,55038,1,0,0:0:0
212,116,55205,5,0,0:0:0
392,88,55372,2,0,P|456:72,2,65
212,116,55705,1,0,0:0:0
392,88,55872,5,0,0:0:0
356,292,56038,2,0,P|340:360,2,65
392,88,56538,5,0,0:0:0
268,48,56705,1,0,0:0:0
152,108,56872,2,0,P|276:148,1,130
436,200,57205,2,0,P|312:240,2,130
436,200,57705,1,0,0:0:0
436,200,58038,1,0,0:0:0
436,200,58205,6,0,P|416:136|416:136|376:88,1,130
332,224,58538,2,0,P|300:283|300:283|295:345,1,130
204,252,58872,2,0,P|172:196,1,65
140,104,59038,2,0,P|108:160,1,65
84,296,59205,5,0,0:0:0
204,348,59372,1,0,0:0:0
268,236,59538,1,0,0:0:0
327,91,59705,1,0,0:0:0
287,71,59788,1,0,0:0:0
240,76,59872,1,0,0:0:0
199,90,59955,1,0,0:0:0
168,122,60038,1,0,0:0:0
336,208,60205,5,0,0:0:0
480,120,60372,1,0,0:0:0
444,284,60538,1,0,0:0:0
280,328,60705,1,0,0:0:0
236,316,60788,1,0,0:0:0
192,304,60872,1,0,0:0:0
148,292,60955,1,0,0:0:0
104,280,61038,1,0,0:0:0
56,64,61205,5,0,0:0:0
208,164,61372,1,0,0:0:0
56,64,61538,1,0,0:0:0
208,164,61705,1,0,0:0:0
252,180,61788,1,0,0:0:0
296,172,61872,1,0,0:0:0
336,152,61955,1,0,0:0:0
356,112,62038,5,0,0:0:0
244,24,62372,5,0,0:0:0
276,112,62538,2,0,P|316:236,1,130
452,348,62872,2,0,P|412:224,1,130
180,192,63205,6,0,P|220:316,2,130
344,36,63705,1,0,0:0:0
460,160,63872,1,0,0:0:0
292,164,64038,1,0,0:0:0
132,108,64205,6,0,P|44:204,2,130
380,116,64705,1,0,0:0:0
440,288,64872,1,0,0:0:0
264,244,65038,1,0,0:0:0
176,84,65205,6,0,P|52:124,2,130
372,236,65705,1,0,0:0:0
180,348,65872,1,0,0:0:0
208,136,66038,1,0,0:0:0
288,336,66372,1,0,0:0:0
288,336,66538,2,0,P|196:324|148:212|208:136,1,260
240,104,66955,1,0,0:0:0
284,88,67038,1,0,0:0:0
328,88,67122,1,0,0:0:0
368,104,67205,6,0,P|384:192|308:252,1,195
304,164,67538,2,0,P|390:186|412:280,1,195
312,336,67872,2,0,P|248:316|224:260,1,130
180,140,68205,2,0,P|173:204,1,65
96,144,68372,2,0,P|89:79,1,65
188,68,68538,5,0,0:0:0
332,156,68705,1,0,0:0:0
372,132,68788,1,0,0:0:0
396,92,68872,1,0,0:0:0
252,128,69038,1,0,0:0:0
240,172,69122,1,0,0:0:0
260,212,69205,6,0,P|300:264,1,65
460,256,69372,2,0,P|420:204,1,65
288,100,69538,2,0,P|328:152,1,65
488,144,69705,2,0,P|448:92,1,65
344,52,69872,5,0,0:0:0
176,36,70038,1,0,0:0:0
176,36,70122,1,0,0:0:0
176,36,70205,2,0,P|132:80|100:140,1,130
100,348,70538,1,0,0:0:0
176,168,70705,1,0,0:0:0
176,272,70872,1,0,0:0:0
252,92,71039,1,0,0:0:0
444,32,71205,5,0,0:0:0
388,176,71372,2,0,P|400:240,1,65
476,252,71538,2,0,P|452:124,1,130
288,244,71872,2,0,P|363:349,2,130
256,212,72288,1,0,0:0:0
212,204,72372,1,0,0:0:0
168,216,72455,1,0,0:0:0
136,248,72538,1,0,0:0:0
20,124,72705,5,0,0:0:0
40,164,72788,1,0,0:0:0
84,172,72872,1,0,0:0:0
188,24,73038,1,0,0:0:0
232,12,73122,1,0,0:0:0
272,36,73205,2,0,P|300:92|276:152,1,130
100,96,73538,2,0,P|232:96,1,130
468,96,73872,5,0,0:0:0
288,168,74038,1,0,0:0:0
288,168,74122,1,0,0:0:0
288,168,74205,1,0,0:0:0
332,4,74372,1,0,0:0:0
396,160,74538,5,0,0:0:0
424,196,74622,1,0,0:0:0
432,240,74705,1,0,0:0:0
424,284,74788,1,0,0:0:0
400,320,74872,1,0,0:0:0
364,344,74955,1,0,0:0:0
320,352,75038,1,0,0:0:0
276,344,75122,1,0,0:0:0
236,320,75205,6,0,P|196:264|140:248,1,130
108,280,75455,1,0,0:0:0
128,320,75538,2,0,P|188:304|212:244,1,130
100,100,75872,2,0,P|40:116|16:176,2,130
296,172,76372,1,0,0:0:0
332,144,76455,1,0,0:0:0
336,100,76538,6,0,P|296:48|236:28,1,130
200,56,76788,1,0,0:0:0
188,100,76872,1,0,0:0:0
240,320,77038,1,0,0:0:0
412,156,77205,1,0,0:0:0
440,336,77372,1,0,0:0:0
272,236,77538,6,0,P|216:204,1,65
352,140,77705,2,0,P|408:172,1,65
340,204,77872,2,0,P|224:136,1,130
227,138,78122,1,0,0:0:0
227,138,78205,1,0,0:0:0
56,200,78372,2,0,P|0:232,2,65
228,60,78705,2,0,P|284:28,2,65
20,112,79038,1,0,0:0:0
392,248,79205,5,0,0:0:0
168,116,79372,1,0,0:0:0
120,248,79538,1,0,0:0:0
344,116,79705,1,0,0:0:0
256,244,79872,5,0,0:0:0
256,256,79955,1,0,0:0:0
256,268,80038,1,0,0:0:0
256,280,80122,1,0,0:0:0
256,292,80205,1,0,0:0:0
256,304,80288,1,0,0:0:0
256,316,80372,1,0,0:0:0
256,328,80455,1,0,0:0:0
256,340,80538,6,0,P|340:388|440:356|464:260,1,260
416,84,81038,1,0,0:0:0
234,119,81205,2,0,P|165:187|170:292|257:340,1,260
464,320,81705,1,0,0:0:0
304,188,81872,1,0,0:0:0
112,220,82038,5,0,0:0:0
68,232,82121,1,0,0:0:0
44,268,82204,1,0,0:0:0
236,300,82372,1,0,0:0:0
280,288,82455,1,0,0:0:0
304,252,82538,1,0,0:0:0
308,56,82705,1,0,0:0:0
264,68,82788,1,0,0:0:0
240,104,82871,1,0,0:0:0
412,196,83038,1,0,0:0:0
416,152,83122,1,0,0:0:0
400,108,83205,6,0,P|344:108|316:120|288:160,1,130
160,308,83538,1,0,0:0:0
32,160,83705,1,0,0:0:0
224,196,83872,1,0,0:0:0
364,332,84038,1,0,0:0:0
364,332,84122,1,0,0:0:0
364,332,84205,2,0,P|416:340|448:296|448:296|432:268,1,130
300,140,84538,6,0,P|256:136|216:176|224:224,1,130
144,344,84872,2,0,P|100:344|64:296|72:252,1,130
192,92,85205,6,0,P|144:136,1,65
252,144,85372,2,0,P|204:188,1,65
294,244,85538,2,0,P|313:181,1,65
372,260,85705,2,0,P|391:197,1,65
432,80,85872,6,0,P|432:72|432:72|428:76|428:76|424:68|424:68|420:72|420:72|416:64|416:64|412:68|412:68|408:60|408:60|404:64|404:64|400:56|400:56|396:60|396:60|392:52|392:52|388:56|388:56|384:48|384:48|336:24|296:24|228:60,1,260
104,168,86372,1,0,0:0:0
168,324,86538,2,0,P|260:352|260:352|292:336,1,130
332,316,86788,1,0,0:0:0
372,292,86872,2,0,P|420:264|420:264|432:244|432:244|476:216,1,130
140,192,87205,2,0,P|92:164|92:164|80:144|80:144|36:116,1,130
372,100,87538,2,0,P|420:72|420:72|432:52|432:52|476:24,1,130
256,44,87872,5,0,0:0:0
256,200,88038,1,0,0:0:0
256,220,88122,1,0,0:0:0
256,240,88205,1,0,0:0:0
256,260,88288,1,0,0:0:0
256,280,88372,1,0,0:0:0
256,300,88455,1,0,0:0:0
256,320,88538,6,0,P|204:356|140:352,1,130
256,200,88872,2,0,P|308:164|372:168,1,130
420,316,89205,5,0,0:0:0
376,324,89288,1,0,0:0:0
332,312,89372,1,0,0:0:0
296,284,89455,1,0,0:0:0
256,260,89538,1,0,0:0:0
220,232,89621,1,0,0:0:0
176,220,89705,1,0,0:0:0
132,228,89788,1,0,0:0:0
88,244,89872,1,0,0:0:0
164,352,90038,5,0,0:0:0
164,352,90122,1,0,0:0:0
164,352,90205,1,0,0:0:0
368,212,90372,1,0,0:0:0
368,212,90455,1,0,0:0:0
368,212,90538,1,0,0:0:0
208,40,90705,1,0,0:0:0
256,296,90872,1,0,0:0:0
256,296,91205,5,0,0:0:0
256,192,93538,5,0,0:0:0
452,320,93872,6,0,P|388:316|328:288,1,130
60,320,94538,2,0,P|124:316|184:288,1,130
456,136,95205,6,0,P|392:152|328:160,1,130
56,136,95538,2,0,P|120:152|184:160,1,130
416,200,95872,1,0,0:0:0
300,76,96038,1,0,0:0:0
256,60,96122,1,0,0:0:0
212,76,96205,1,0,0:0:0
96,200,96372,2,0,P|64:228,3,43.3333333333333
480,192,96872,5,0,0:0:0
256,28,97205,1,0,0:0:0
32,192,97539,1,0,0:0:0
256,356,97872,5,0,0:0:0
176,115,98039,1,0,0:0:0
128,264,98205,1,0,0:0:0
332,115,98372,1,0,0:0:0
380,263,98538,1,0,0:0:0
256,220,98705,1,0,0:0:0
256,220,98788,1,0,0:0:0
256,220,98872,1,0,0:0:0
256,220,99038,1,0,0:0:0
224,40,99205,6,0,P|184:56|168:92|168:92|64:92|48:168|48:168|76:164,1,260
256,132,99705,1,0,0:0:0
288,40,99872,2,0,P|328:56|344:92|344:92|448:92|464:168|464:168|436:164,1,260
256,132,100372,1,0,0:0:0
68,204,100538,5,0,0:0:0
384,320,100705,1,0,0:0:0
128,320,100872,1,0,0:0:0
444,204,101039,1,0,0:0:0
256,244,101205,5,0,0:0:0
256,244,101288,1,0,0:0:0
256,244,101372,2,0,P|256:288,3,43.3333333333333
124,88,101872,5,0,0:0:0
320,156,102038,1,0,0:0:0
320,156,102122,1,0,0:0:0
320,156,102205,1,0,0:0:0
124,88,102372,1,0,0:0:0
320,156,102538,5,0,0:0:0
56,207,102704,1,0,0:0:0
56,207,102788,1,0,0:0:0
56,207,102871,1,0,0:0:0
320,156,103038,1,0,0:0:0
164,300,103205,6,0,P|300:340|404:248,1,292.50001115799
404,248,103538,6,0,P|384:212|352:212|352:212|332:256|296:272,1,146.250005578995
216,272,103872,6,0,P|160:236,1,65
172,108,104038,2,0,P|228:144,1,65
100,176,104205,2,0,P|44:140,1,65
56,12,104371,2,0,P|112:48,1,65
256,96,104538,5,0,0:0:0
412,28,104705,1,0,0:0:0
412,28,104788,1,0,0:0:0
412,28,104872,2,0,P|452:56|464:112|440:156,1,143.000004364014
408,192,105122,2,0,P|384:160|380:128,1,71.5000021820069
288,40,105372,5,0,0:0:0
248,56,105455,1,0,0:0:0
216,84,105538,1,0,0:0:0
300,200,105705,1,0,0:0:0
260,184,105788,1,0,0:0:0
216,176,105872,2,0,P|96:160|32:264|32:264,1,214.500006546021
16,304,106205,6,0,P|76:364|148:324|148:324,1,143.000004364014
187,306,106455,1,0,0:0:0
222,282,106538,1,0,0:0:0
264,272,106622,1,0,0:0:0
305,283,106705,1,0,0:0:0
341,305,106788,1,0,0:0:0
373,333,106872,1,0,0:0:0
488,276,107038,5,0,0:0:0
464,240,107122,1,0,0:0:0
452,200,107205,1,0,0:0:0
396,68,107372,1,0,0:0:0
384,108,107455,1,0,0:0:0
356,140,107538,2,0,P|324:152|288:160,1,71.5000021820069
216,56,107705,2,0,P|249:61|284:72,1,71.5000021820069
196,172,107872,2,0,P|104:196|80:116|80:116,1,143.000004364014
64,76,108122,1,0,0:0:0
76,36,108205,1,0,0:0:0
285,73,108372,5,0,0:0:0
304,112,108456,1,0,0:0:0
308,156,108538,2,0,P|312:224|252:260,1,143.000004364014
225,227,108788,1,0,0:0:0
256,196,108872,2,0,P|320:200|360:264,1,143.000004364014
352,304,109122,1,0,0:0:0
328,340,109205,2,0,P|252:352|208:308,2,143.000004364014
432,104,109872,5,0,0:0:0
400,228,110038,1,0,0:0:0
361,248,110122,1,0,0:0:0
318,249,110205,1,0,0:0:0
279,229,110288,1,0,0:0:0
253,194,110372,1,0,0:0:0
247,151,110455,1,0,0:0:0
238,109,110538,6,0,P|172:76,1,71.5000021820069
80,188,110705,2,0,P|146:221,1,71.5000021820069
156,148,110872,2,0,P|104:120|104:120|80:72|104:40,1,143.000004364014
280,28,111205,2,0,P|344:76|340:152|340:152,1,143.000004364014
340,296,111538,2,0,P|276:248|280:172|280:172,1,143.000004364014
404,52,111872,5,0,0:0:0
436,80,111955,1,0,0:0:0
458,116,112038,1,0,0:0:0
468,157,112122,1,0,0:0:0
470,199,112205,1,0,0:0:0
460,240,112288,1,0,0:0:0
438,277,112372,1,0,0:0:0
276,284,112538,5,0,0:0:0
111,293,112705,2,0,P|39:305,1,71.5000021820069
40,304,112872,2,0,P|52:228|124:196|124:196,1,143.000004364014
276,284,113205,5,0,0:0:0
164,164,113372,2,0,P|108:116,1,71.5000021820069
110,118,113539,2,0,P|175:78|246:112|246:112,1,143.000004364014
372,280,113872,5,0,0:0:0
372,280,113955,1,0,0:0:0
372,280,114038,1,0,0:0:0
372,280,114122,1,0,0:0:0
372,280,114205,2,0,P|452:256|456:176|456:176,1,143.000004364014
456,104,114455,1,0,0:0:0
408,52,114538,2,0,P|347:-5|275:31|275:31,1,143.000004364014
216,72,114788,1,0,0:0:0
195,140,114871,2,0,P|175:221|243:264|243:264,1,143.000004364014
396,168,115205,6,0,P|380:76|292:100|292:100,1,143.000004364014
248,104,115455,1,0,0:0:0
208,112,115538,2,0,P|136:124,1,71.5000021820069
68,216,115705,2,0,P|140:204,1,71.5000021820069
252,184,115872,2,0,P|324:172|324:172|308:240,1,143.000004364014
292,280,116122,1,0,0:0:0
260,308,116205,2,0,P|188:304|120:280|120:280,1,143.000004364014
88,68,116538,6,0,P|212:112|156:244|156:244,1,214.500006546021
120,280,116872,2,0,P|28:272|28:188|28:188,1,143.000004364014
35,145,117122,1,0,0:0:0
60,110,117205,1,0,0:0:0
95,86,117288,1,0,0:0:0
137,77,117372,1,0,0:0:0
179,80,117455,1,0,0:0:0
219,94,117538,1,0,0:0:0
404,180,117705,5,0,0:0:0
404,180,117788,1,0,0:0:0
404,180,117872,2,0,P|436:272|344:288|344:288,1,143.000004364014
304,276,118122,1,0,0:0:0
272,248,118205,2,0,P|204:184|144:248|144:248,1,143.000004364014
128,288,118455,1,0,0:0:0
164,312,118538,2,0,P|228:264|200:184|200:184,1,143.000004364014
348,72,118872,2,0,P|284:120|312:200|312:200,1,143.000004364014
456,320,119205,6,0,P|504:212|436:116|436:116,1,214.500006546021
392,120,119538,2,0,P|300:168|284:72|284:72,1,143.000004364014
256,40,119788,1,0,0:0:0
212,32,119872,2,0,P|136:24|76:68|76:68,1,143.000004364014
60,260,120205,2,0,P|196:292|220:160|220:160,1,214.500006546021
228,116,120538,5,0,0:0:0
416,28,120705,2,0,P|444:52|444:52|464:80,1,71.5000021820069
380,184,120872,2,0,P|352:160|352:160|332:132,1,71.5000021820069
448,148,121038,2,0,P|476:172|476:172|496:200,1,71.5000021820069
408,300,121205,2,0,P|336:292,1,71.5000021820069
212,356,121372,2,0,P|284:348,1,71.5000021820069
248,232,121538,2,0,P|176:224,1,71.5000021820069
56,260,121705,2,0,P|136:224|128:144|128:144,1,143.000004364014
96,84,122205,5,0,0:0:0
36,44,122538,5,0,0:0:0
26,86,122622,1,0,0:0:0
38,126,122705,1,0,0:0:0
71,151,122788,1,0,0:0:0
114,153,122872,1,0,0:0:0
151,131,122955,1,0,0:0:0
169,92,123038,1,0,0:0:0
348,43,123205,5,0,0:0:0
390,37,123288,1,0,0:0:0
431,47,123372,1,0,0:0:0
459,78,123455,1,0,0:0:0
473,118,123538,2,0,P|496:200|416:236|416:236,1,143.000004364014
265,151,123872,5,0,0:0:0
222,153,123955,1,0,0:0:0
183,171,124038,1,0,0:0:0
154,203,124122,1,0,0:0:0
143,244,124205,1,0,0:0:0
150,286,124288,1,0,0:0:0
173,322,124372,1,0,0:0:0
348,244,124538,6,0,P|368:176,1,71.5000021820069
164,140,124705,2,0,P|144:208,1,71.5000021820069
440,268,124872,6,0,P|460:200,1,71.5000021820069
72,116,125038,2,0,P|52:184,1,71.5000021820069
256,192,125205,5,0,0:0:0
256,192,125538,6,0,P|296:55,1,143.000004364014
488,20,125872,1,0,0:0:0
364,176,126038,1,0,0:0:0
364,176,126122,1,0,0:0:0
364,176,126205,2,0,P|300:128|296:52|296:52,1,143.000004364014
488,152,126538,2,0,P|499:231|448:287|448:287,1,143.000004364014
252,352,126872,2,0,P|232:272|280:216|280:216,1,143.000004364014
432,336,127205,5,0,0:0:0
312,184,127372,1,0,0:0:0
277,158,127455,1,0,0:0:0
234,158,127538,2,0,P|156:156|120:232|120:232,1,143.000004364014
8,72,127872,2,0,P|86:70|122:146|122:146,1,143.000004364014
252,288,128205,1,0,0:0:0
293,299,128288,1,0,0:0:0
335,293,128372,1,0,0:0:0
372,272,128455,1,0,0:0:0
398,238,128538,6,0,P|440:176|416:100|416:100,1,143.000004364014
388,68,128788,1,0,0:0:0
344,72,128872,2,0,P|280:104|256:180|256:180,1,143.000004364014
192,348,129205,1,0,0:0:0
44,248,129372,1,0,0:0:0
148,104,129538,1,0,0:0:0
169,226,129705,1,0,0:0:0
40,92,129872,5,0,0:0:0
236,56,130038,1,0,0:0:0
236,56,130122,1,0,0:0:0
236,56,130205,2,0,P|264:128|240:196|240:196,1,143.000004364014
80,292,130538,2,0,P|172:360|288:332|312:224|312:224,1,286.000008728028
325,182,130955,1,0,0:0:0
334,140,131038,1,0,0:0:0
349,99,131122,1,0,0:0:0
370,62,131205,5,0,0:0:0
500,174,131372,1,0,0:0:0
479,211,131455,1,0,0:0:0
444,235,131538,1,0,0:0:0
272,224,131705,1,0,0:0:0
68,156,131872,2,0,P|148:124|200:180|200:180,1,143.000004364014
444,228,132205,2,0,P|364:260|312:204|312:204,1,143.000004364014
216,44,132538,5,0,0:0:0
268,208,132705,1,0,0:0:0
256,249,132788,1,0,0:0:0
230,284,132872,2,0,P|170:332|94:320|94:320,1,143.000004364014
32,160,133205,1,0,0:0:0
208,196,133372,1,0,0:0:0
312,340,133538,2,0,P|380:316,1,71.5000021820069
500,260,133705,2,0,P|432:236,1,71.5000021820069
324,116,133872,6,0,P|352:188|336:252,1,143.000004364014
264,278,134122,1,0,0:0:0
188,268,134205,2,0,P|160:196|176:132,1,143.000004364014
412,116,134538,5,0,0:0:0
444,252,134705,1,0,0:0:0
99,268,134872,5,0,0:0:0
69,134,135039,1,0,0:0:0
256,28,135205,5,0,0:0:0
256,100,135538,5,0,0:0:0
256,172,135872,5,0,0:0:0
192,244,136205,6,0,P|256:332|320:244,1,253.499988395691
310,202,136538,5,0,0:0:0
80,60,136705,1,0,0:0:0
202,202,136872,1,0,0:0:0
432,60,137039,1,0,0:0:0
256,192,137205,1,0,0:0:0
256,192,137538,5,0,0:0:0
