osu file format v13

[General]
AudioFilename: BSPower Explosion1.mp3
AudioLeadIn: 0
PreviewTime: 68538
Countdown: 0
SampleSet: Normal
StackLeniency: 0.7
Mode: 0
LetterboxInBreaks: 1
WidescreenStoryboard: 1

[Editor]
DistanceSpacing: 1.5
BeatDivisor: 4
GridSize: 4
TimelineZoom: 1.2

[Metadata]
Title:BSPower Explosion
TitleUnicode:BSPower Explosion
Artist:Memme
ArtistUnicode:Memme
Creator:Number5
Version:Hyper
Source:O2Jam Analog
Tags:
BeatmapID:463671
BeatmapSetID:195426

[Difficulty]
HPDrainRate:3
CircleSize:4
OverallDifficulty:3
ApproachRate:8
SliderMultiplier:1.5
SliderTickRate:1

[Events]
//Background and Video events
0,0,"BS_Power_Explosion.jpg",0,0
//Break Periods
//Storyboard Layer 0 (Background)
//Storyboard Layer 1 (Fail)
//Storyboard Layer 2 (Pass)
//Storyboard Layer 3 (Foreground)
//Storyboard Sound Samples
//Background Colour Transformations
3,100,163,162,255

[TimingPoints]
539,333.333333333333,4,1,2,100,1,0
4205,-100,4,1,2,100,0,0
11205,-100,4,1,2,100,0,1
21872,-100,4,1,2,100,0,0
41872,-100,4,1,2,100,0,0
53205,-100,4,1,2,100,0,0
69872,-100,4,1,2,100,0,1
80538,-100,4,1,2,100,0,0
82705,-90.9090909090909,4,1,2,100,0,0
82872,-83.3333333333333,4,1,2,100,0,0
83038,-76.9230769230769,4,1,2,100,0,0
83205,-100,4,1,2,100,0,0
90205,-200,4,1,2,100,0,0
90372,-100,4,1,2,100,0,0
91205,-200,4,1,2,100,0,0
101872,-100,4,1,2,100,0,0
125872,-100,4,1,2,100,0,1
137538,-100,4,1,2,100,0,0

[Colours]
Combo1 : 12,73,141
Combo2 : 172,6,106
Combo3 : 185,80,2
Combo4 : 14,2,155
Combo5 : 15,175,175

[HitObjects]
96,56,539,6,0,P|80:112|92:156,1,75
172,120,872,2,0,P|188:176|176:220,1,75
248,256,1205,1,0,0:0:0:0:
320,312,1372,1,0,0:0:0:0:
408,308,1538,1,0,0:0:0:0:
468,240,1705,1,0,0:0:0:0:
480,136,1872,6,0,L|452:96,4,37.5,0|0|0|0|0,0:0|0:0|0:0|0:0|0:0,0:0:0:0:
276,88,2372,1,0,0:0:0:0:
216,156,2538,5,10,0:0:0:0:
216,156,2705,1,10,0:0:0:0:
216,156,2872,1,10,0:0:0:0:
256,288,3205,6,0,L|312:296,4,37.5,0|0|0|0|0,0:0|0:0|0:0|0:0|0:0,0:0:0:0:
152,248,3705,1,0,0:0:0:0:
216,156,3872,2,0,P|216:84|204:56,1,75
136,40,4205,2,0,P|136:112|148:140,1,75
152,248,4538,6,0,L|164:304,4,37.5,0|0|0|0|0,0:0|0:0|0:0|0:0|0:0,0:0:0:0:
276,324,5038,1,0,0:0:0:0:
416,280,5205,1,0,0:0:0:0:
416,280,5538,1,0,0:0:0:0:
416,280,5872,6,0,P|424:212|416:188,1,75
340,240,6205,2,0,P|332:172|340:148,1,75
304,80,6538,1,0,0:0:0:0:
220,52,6705,1,0,0:0:0:0:
232,140,6872,1,0,0:0:0:0:
148,112,7038,1,0,0:0:0:0:
136,260,7205,6,0,L|144:320,4,37.5,0|0|0|0|0,0:0|0:0|0:0|0:0|0:0,0:0:0:0:
256,264,7705,1,0,0:0:0:0:
360,304,7872,6,0,P|368:252|356:216,2,75,10|10|10,0:0|0:0|0:0,0:0:0:0:
148,112,8538,6,0,L|132:68,4,37.5,0|0|0|0|0,0:0|0:0|0:0|0:0|0:0,0:0:0:0:
112,228,9038,1,0,0:0:0:0:
212,320,9205,2,0,B|220:276|204:240|220:216,1,75
316,136,9538,2,0,B|308:180|324:216|308:240,1,75
328,300,9872,6,0,L|376:308,3,37.5,0|0|0|0,0:0|0:0|0:0|0:0,0:0:0:0:
408,288,10205,2,0,L|444:272,3,37.5,0|0|0|0,0:0|0:0|0:0|0:0,0:0:0:0:
468,236,10538,5,0,0:0:0:0:
344,48,10872,1,0,0:0:0:0:
128,112,11205,5,0,0:0:0:0:
208,152,11372,1,0,0:0:0:0:
208,152,11455,1,0,0:0:0:0:
208,152,11538,2,0,P|212:200|200:228,1,75,2|0,0:0|0:0,0:0:0:0:
276,280,11872,2,0,P|328:272|372:288,1,75
384,192,12205,2,0,P|332:200|288:184,1,75,2|0,0:0|0:0,0:0:0:0:
344,112,12538,5,0,0:0:0:0:
264,68,12705,1,0,0:0:0:0:
264,68,12788,1,0,0:0:0:0:
264,68,12872,2,0,B|196:92|160:68,1,75,2|0,0:0|0:0,0:0:0:0:
120,136,13205,1,0,0:0:0:0:
104,224,13372,1,0,0:0:0:0:
168,288,13538,2,0,L|212:296,4,37.5,2|0|0|0|0,0:0|0:0|0:0|0:0|0:0,0:0:0:0:
212,208,14038,5,0,0:0:0:0:
212,208,14122,1,0,0:0:0:0:
212,208,14205,1,2,0:0:0:0:
260,132,14372,1,0,0:0:0:0:
308,208,14538,2,0,L|340:292,1,75
424,300,14872,2,0,L|388:216,1,75,2|0,0:0|0:0,0:0:0:0:
368,144,15205,5,0,0:0:0:0:
308,76,15372,1,0,0:0:0:0:
288,72,15455,1,0,0:0:0:0:
268,68,15538,2,0,P|208:64|172:72,1,75,2|0,0:0|0:0,0:0:0:0:
144,144,15872,1,0,0:0:0:0:
144,144,16205,2,0,P|160:208|160:236,1,75
248,208,16538,5,0,0:0:0:0:
340,204,16705,1,0,0:0:0:0:
360,204,16788,1,0,0:0:0:0:
380,208,16872,2,0,P|440:228|472:256,1,75,2|0,0:0|0:0,0:0:0:0:
488,320,17205,2,0,P|432:332|408:328,1,75
328,320,17538,2,0,P|276:304|240:308,1,75,2|0,0:0|0:0,0:0:0:0:
168,324,17872,5,0,0:0:0:0:
168,324,18038,2,0,L|128:292,2,37.5,0|0|2,0:0|0:0|0:0,0:0:0:0:
168,324,18372,2,0,P|192:280|232:268,1,75
300,252,18705,1,0,0:0:0:0:
360,184,18872,2,0,L|356:144,4,37.5,2|0|0|0|0,0:0|0:0|0:0|0:0|0:0,0:0:0:0:
272,164,19372,5,0,0:0:0:0:
272,164,19455,1,0,0:0:0:0:
272,164,19538,2,0,P|212:160|180:144,1,75,2|0,0:0|0:0,0:0:0:0:
164,72,19872,2,0,P|224:76|256:92,1,75,0|0,0:0|0:0,0:0:0:0:
328,84,20205,2,0,P|363:73|401:74,1,75,2|0,0:0|0:0,0:0:0:0:
440,156,20538,5,10,0:0:0:0:
268,304,20872,1,10,0:0:0:0:
88,168,21205,1,10,0:0:0:0:
268,80,21872,5,4,0:0:0:0:
120,180,22205,1,0,0:0:0:0:
184,244,22372,1,0,0:0:0:0:
252,304,22538,1,4,0:0:0:0:
396,196,22872,1,0,0:0:0:0:
372,283,23039,1,0,0:0:0:0:
354,372,23206,5,4,0:0:0:0:
496,260,23538,1,4,0:0:0:0:
408,104,23872,1,4,0:0:0:0:
232,148,24205,1,0,0:0:0:0:
232,148,24372,1,0,0:0:0:0:
232,148,24538,6,0,P|208:204|220:260,1,112.5
244,288,24872,1,0,0:0:0:0:
304,212,25038,1,0,0:0:0:0:
328,124,25205,6,0,P|292:76|264:56,1,75
183,62,25538,2,0,P|156:88|136:120,1,75
232,148,25872,5,0,0:0:0:0:
164,208,26038,2,0,P|156:248|172:300,1,75
232,348,26372,1,0,0:0:0:0:
252,248,26538,1,0,0:0:0:0:
252,248,26872,1,0,0:0:0:0:
252,248,27205,6,0,P|320:256|400:232,1,150,4|0,0:0|0:0,0:0:0:0:
412,144,27705,1,0,0:0:0:0:
400,56,27872,2,0,P|332:48|252:72,1,150,4|0,0:0|0:0,0:0:0:0:
140,148,28372,1,0,0:0:0:0:
140,148,28538,6,0,P|128:208|136:236,1,75,4|0,0:0|0:0,0:0:0:0:
208,200,28872,2,0,P|244:220|292:224,1,75,4|0,0:0|0:0,0:0:0:0:
268,144,29205,2,0,P|300:112|304:64,1,75,4|0,0:0|0:0,0:0:0:0:
232,80,29538,1,0,0:0:0:0:
144,56,29705,1,0,0:0:0:0:
68,104,29872,6,0,P|60:164|128:240,1,150
200,248,30372,1,0,0:0:0:0:
288,260,30538,2,0,L|340:280,4,37.5,0|0|0|0|0,0:0|0:0|0:0|0:0|0:0,0:0:0:0:
324,84,31205,6,0,L|368:72,3,37.5,0|0|0|0,0:0|0:0|0:0|0:0,0:0:0:0:
404,76,31538,2,0,P|420:132|416:164,1,75
340,196,31872,1,0,0:0:0:0:
160,196,32205,1,0,0:0:0:0:
248,80,32538,6,0,P|236:144|248:176,1,75
264,304,32872,2,0,P|276:240|264:208,1,75
348,128,33205,1,0,0:0:0:0:
238,152,33372,1,0,0:0:0:0:
128,176,33538,1,0,0:0:0:0:
18,200,33705,1,0,0:0:0:0:
88,288,33872,6,0,P|148:312|176:312,1,75
264,304,34205,2,0,P|300:296|333:279,2,75,0|0|0,0:0|0:0|0:0,0:0:0:0:
225,187,34705,2,0,L|241:143,5,37.5,0|0|0|0|0|0,0:0|0:0|0:0|0:0|0:0|0:0,0:0:0:0:
264,100,35205,6,0,P|348:87|417:125,1,150
384,240,35705,1,0,0:0:0:0:
276,312,35872,2,0,B|228:316|180:296,1,75
132,196,36205,2,0,B|180:192|228:212,1,75
312,188,36538,6,0,P|304:128|261:99,1,112.5
208,88,36872,2,0,L|124:104,2,75,0|0|0,0:0|0:0|0:0,0:0:0:0:
208,88,37538,1,0,0:0:0:0:
172,192,37872,6,0,B|256:164,1,75
356,172,38205,2,0,B|427:195,1,75
360,284,38538,1,0,0:0:0:0:
248,276,38705,1,0,0:0:0:0:
172,192,38872,1,0,0:0:0:0:
60,184,39039,1,0,0:0:0:0:
128,92,39205,6,0,L|216:64,1,75
305,118,39538,2,0,L|217:146,1,75
312,216,39872,1,0,0:0:0:0:
384,308,40038,1,0,0:0:0:0:
396,288,40122,1,0,0:0:0:0:
404,268,40205,2,0,P|420:212|412:176,1,75
412,84,40538,5,0,0:0:0:0:
304,118,40705,1,0,0:0:0:0:
284,122,40788,1,0,0:0:0:0:
264,122,40872,2,0,P|208:118|164:106,1,75
84,148,41205,1,0,0:0:0:0:
176,200,41372,1,0,0:0:0:0:
268,251,41538,1,0,0:0:0:0:
268,251,41872,6,0,B|260:243|260:243|268:235|260:227|260:227|268:219|260:211|260:211|268:203|260:195|260:195|268:187|260:179|260:179|268:171|260:163|260:163|268:155|260:147|260:147|268:139|260:131|260:131|268:123|260:115|260:115|268:107|260:99|268:95,2,150,0|0|0,0:0|0:0|0:0,0:0:0:0:
268,251,42872,2,0,P|240:300|196:312,1,75
156,220,43205,6,0,L|120:168,4,37.5,0|0|0|0|0,0:0|0:0|0:0|0:0|0:0,0:0:0:0:
268,251,43705,1,0,0:0:0:0:
372,204,43872,2,0,P|384:164|376:124,1,75
280,80,44205,2,0,P|268:115|272:152,1,75
268,251,44538,5,0,0:0:0:0:
215,347,44705,1,0,0:0:0:0:
103,329,44872,1,0,0:0:0:0:
87,217,45038,1,0,0:0:0:0:
188,167,45205,2,0,L|184:128,3,37.5,0|0|0|0,0:0|0:0|0:0|0:0,0:0:0:0:
200,76,45538,2,0,L|212:40,3,37.5,0|0|0|0,0:0|0:0|0:0|0:0,0:0:0:0:
260,12,45872,6,0,P|312:4|368:76,1,150
340,184,46372,1,0,0:0:0:0:
272,272,46538,1,0,0:0:0:0:
160,256,46705,1,0,0:0:0:0:
136,248,46788,1,0,0:0:0:0:
112,240,46872,2,0,P|60:212|24:176,1,75
100,100,47205,5,0,0:0:0:0:
196,44,47372,1,0,0:0:0:0:
304,76,47538,1,0,0:0:0:0:
340,184,47705,1,0,0:0:0:0:
272,276,47872,1,0,0:0:0:0:
160,256,48038,2,0,L|168:212,5,37.5,0|0|0|0|0|0,0:0|0:0|0:0|0:0|0:0|0:0,0:0:0:0:
197,171,48538,6,0,P|273:159|345:187,1,150
440,236,49038,1,0,0:0:0:0:
436,124,49205,1,0,0:0:0:0:
332,80,49372,1,0,0:0:0:0:
312,72,49455,1,0,0:0:0:0:
292,64,49538,2,0,P|248:48|192:48,1,75
116,92,49872,5,0,0:0:0:0:
197,171,50038,1,0,0:0:0:0:
308,148,50205,1,0,0:0:0:0:
389,227,50371,1,0,0:0:0:0:
324,320,50538,2,0,L|280:356,3,37.5,0|0|0|0,0:0|0:0|0:0|0:0,0:0:0:0:
240,348,50872,2,0,L|184:344,3,37.5,0|0|0|0,0:0|0:0|0:0|0:0,0:0:0:0:
148,336,51205,6,0,P|104:272|104:256,1,75
148,172,51538,2,0,P|192:236|192:252,1,75
304,240,51872,2,0,L|344:224,3,37.5,0|0|0|0,0:0|0:0|0:0|0:0,0:0:0:0:
380,188,52205,2,0,L|408:160,3,37.5,0|0|0|0,0:0|0:0|0:0|0:0,0:0:0:0:
440,116,52538,5,0,0:0:0:0:
336,76,52705,1,0,0:0:0:0:
316,72,52788,1,0,0:0:0:0:
292,68,52872,2,0,P|240:60|216:60,1,75
128,128,53205,5,4,0:0:0:0:
128,128,53372,1,4,0:0:0:0:
128,128,53538,1,4,0:0:0:0:
