osu file format v14

[General]
AudioFilename: BSPower Explosion1.mp3
AudioLeadIn: 0
PreviewTime: 68552
Countdown: 0
SampleSet: Soft
StackLeniency: 0.7
Mode: 3
LetterboxInBreaks: 0
SpecialStyle: 0
WidescreenStoryboard: 0

[Editor]
DistanceSpacing: 0.8
BeatDivisor: 4
GridSize: 16
TimelineZoom: 2.2

[Metadata]
Title:BSPower Explosion
TitleUnicode:BSPower Explosion
Artist:Memme
ArtistUnicode:Memme
Creator:LNP-
Version:Lv.22
Source:O2Jam Analog
Tags:Oriental core
BeatmapID:668727
BeatmapSetID:297960

[Difficulty]
HPDrainRate:8
CircleSize:4
OverallDifficulty:8
ApproachRate:5
SliderMultiplier:1.4
SliderTickRate:1

[Events]
//Background and Video events
0,0,"new BG.jpg",0,0
//Break Periods
//Storyboard Layer 0 (Background)
//Storyboard Layer 1 (Fail)
//Storyboard Layer 2 (Pass)
//Storyboard Layer 3 (Foreground)
//Storyboard Sound Samples

[TimingPoints]
553,333.333333333333,4,2,1,100,1,0
11219,-100,4,2,1,100,0,1
11302,-100,4,2,1,100,0,0
104552,-100,4,2,1,100,0,1
125886,-100,4,2,1,100,0,0

[HitObjects]
64,192,553,5,4,0:0:0:0:
448,192,553,1,2,0:0:0:0:
320,192,553,1,0,0:0:0:0:
192,192,719,1,0,0:0:0:0:
64,192,886,1,2,0:0:0:0:
320,192,886,1,8,0:0:0:0:
448,192,1052,1,8,0:0:0:0:
192,192,1052,1,0,0:0:0:0:
320,192,1219,1,2,0:0:0:0:
64,192,1386,1,0,0:0:0:0:
448,192,1386,1,8,0:0:0:0:
192,192,1552,1,2,0:0:0:0:
64,192,1719,1,0,0:0:0:0:
320,192,1719,1,8,0:0:0:0:
64,192,1886,1,2,0:0:0:0:
192,192,1886,1,8,0:0:0:0:
448,192,1969,1,8,0:0:0:0:
320,192,2052,1,8,0:0:0:0:
192,192,2136,1,8,0:0:0:0:
64,192,2219,1,8,0:0:0:0:
320,192,2219,1,2,0:0:0:0:
448,192,2386,1,0,0:0:0:0:
192,192,2386,1,8,0:0:0:0:
64,192,2552,1,0,0:0:0:0:
448,192,2552,1,2,0:0:0:0:
320,192,2552,1,0,0:0:0:0:
320,192,2719,1,0,0:0:0:0:
448,192,2719,1,2,0:0:0:0:
64,192,2719,1,0,0:0:0:0:
448,192,2886,1,2,0:0:0:0:
192,192,2886,1,0,0:0:0:0:
64,192,2886,1,4,0:0:0:0:
64,192,3219,1,2,0:0:0:0:
192,192,3219,1,0,0:0:0:0:
448,192,3219,1,4,0:0:0:0:
320,192,3302,1,0,0:0:0:0:
192,192,3386,1,0,0:0:0:0:
64,192,3469,1,0,0:0:0:0:
192,192,3552,1,0,0:0:0:0:
320,192,3552,1,8,0:0:0:0:
448,192,3719,1,8,0:0:0:0:
64,192,3719,1,0,0:0:0:0:
320,192,3886,1,4,0:0:0:0:
64,192,3886,1,0,0:0:0:0:
448,192,4052,1,2,0:0:0:0:
192,192,4052,1,0,0:0:0:0:
320,192,4136,1,0,0:0:0:0:
192,192,4219,1,8,0:0:0:0:
64,192,4386,1,2,0:0:0:0:
320,192,4386,1,0,0:0:0:0:
192,192,4552,1,2,0:0:0:0:
448,192,4552,1,4,0:0:0:0:
320,192,4636,1,0,0:0:0:0:
64,192,4719,1,2,0:0:0:0:
192,192,4802,1,0,0:0:0:0:
448,192,4886,1,8,0:0:0:0:
320,192,4886,1,0,0:0:0:0:
64,192,5052,1,2,0:0:0:0:
448,192,5052,1,8,0:0:0:0:
64,192,5219,1,8,0:0:0:0:
320,192,5219,128,4,5886:0:0:0:0:
192,192,5386,1,2,0:0:0:0:
192,192,5552,1,2,0:0:0:0:
448,192,5552,1,0,0:0:0:0:
64,192,5719,1,2,0:0:0:0:
192,192,5802,1,2,0:0:0:0:
64,192,5886,1,2,0:0:0:0:
448,192,5886,1,4,0:0:0:0:
320,192,6052,1,0,0:0:0:0:
448,192,6219,1,8,0:0:0:0:
192,192,6219,1,2,0:0:0:0:
448,192,6386,1,8,0:0:0:0:
192,192,6386,1,0,0:0:0:0:
320,192,6552,1,2,0:0:0:0:
448,192,6719,1,8,0:0:0:0:
64,192,6719,1,0,0:0:0:0:
320,192,6886,1,2,0:0:0:0:
192,192,7052,1,8,0:0:0:0:
64,192,7052,1,0,0:0:0:0:
320,192,7219,1,8,0:0:0:0:
448,192,7219,1,2,0:0:0:0:
192,192,7302,1,8,0:0:0:0:
320,192,7386,1,8,0:0:0:0:
64,192,7469,1,8,0:0:0:0:
448,192,7552,1,2,0:0:0:0:
192,192,7552,1,8,0:0:0:0:
64,192,7719,1,8,0:0:0:0:
448,192,7719,1,0,0:0:0:0:
192,192,7886,1,2,0:0:0:0:
320,192,7886,1,0,0:0:0:0:
64,192,7886,1,0,0:0:0:0:
192,192,8052,1,2,0:0:0:0:
320,192,8052,1,0,0:0:0:0:
64,192,8052,1,0,0:0:0:0:
64,192,8219,1,2,0:0:0:0:
320,192,8219,1,0,0:0:0:0:
448,192,8219,1,4,0:0:0:0:
64,192,8552,1,4,0:0:0:0:
192,192,8552,1,0,0:0:0:0:
448,192,8552,1,2,0:0:0:0:
320,192,8636,1,0,0:0:0:0:
192,192,8719,1,0,0:0:0:0:
64,192,8802,1,0,0:0:0:0:
320,192,8886,1,8,0:0:0:0:
192,192,8886,1,2,0:0:0:0:
64,192,9052,1,8,0:0:0:0:
448,192,9052,1,2,0:0:0:0:
448,192,9219,1,2,0:0:0:0:
192,192,9219,1,0,0:0:0:0:
64,192,9219,1,4,0:0:0:0:
320,192,9386,1,2,0:0:0:0:
448,192,9441,1,2,0:0:0:0:
320,192,9497,1,2,0:0:0:0:
192,192,9552,1,2,0:0:0:0:
64,192,9552,1,8,0:0:0:0:
192,192,9719,1,2,0:0:0:0:
64,192,9719,1,0,0:0:0:0:
320,192,9886,1,8,0:0:0:0:
448,192,9886,1,2,0:0:0:0:
192,192,9969,1,8,0:0:0:0:
320,192,10052,1,8,0:0:0:0:
448,192,10136,1,8,0:0:0:0:
320,192,10219,1,8,0:0:0:0:
64,192,10219,1,2,0:0:0:0:
192,192,10302,1,8,0:0:0:0:
320,192,10386,1,8,0:0:0:0:
192,192,10469,1,8,0:0:0:0:
64,192,10552,128,2,11219:0:0:0:0:
320,192,10552,128,8,10886:0:0:0:0:
448,192,10886,128,8,11219:0:0:0:0:
192,192,11219,1,2,0:0:0:0:
320,192,11219,1,4,0:0:0:0:
320,192,11386,1,0,0:0:0:0:
320,192,11469,1,0,0:0:0:0:
64,192,11552,1,2,0:0:0:0:
192,192,11552,1,0,0:0:0:0:
448,192,11719,1,0,0:0:0:0:
320,192,11886,1,0,0:0:0:0:
192,192,11886,1,2,0:0:0:0:
192,192,12052,1,0,0:0:0:0:
64,192,12052,1,0,0:0:0:0:
448,192,12219,1,2,0:0:0:0:
192,192,12219,1,0,0:0:0:0:
64,192,12386,1,0,0:0:0:0:
320,192,12386,1,0,0:0:0:0:
448,192,12552,1,2,0:0:0:0:
64,192,12552,1,0,0:0:0:0:
320,192,12719,1,0,0:0:0:0:
320,192,12802,1,0,0:0:0:0:
64,192,12886,1,2,0:0:0:0:
192,192,12886,1,0,0:0:0:0:
320,192,13052,1,0,0:0:0:0:
64,192,13219,1,2,0:0:0:0:
448,192,13219,1,0,0:0:0:0:
320,192,13386,1,0,0:0:0:0:
64,192,13386,1,0,0:0:0:0:
192,192,13552,1,0,0:0:0:0:
64,192,13552,1,2,0:0:0:0:
448,192,13636,1,0,0:0:0:0:
320,192,13719,1,0,0:0:0:0:
192,192,13802,1,0,0:0:0:0:
448,192,13886,1,2,0:0:0:0:
64,192,13886,1,0,0:0:0:0:
448,192,14052,1,0,0:0:0:0:
448,192,14136,1,0,0:0:0:0:
320,192,14219,1,0,0:0:0:0:
64,192,14219,1,2,0:0:0:0:
192,192,14386,1,0,0:0:0:0:
64,192,14552,1,2,0:0:0:0:
448,192,14552,128,0,14719:0:0:0:0:
320,192,14719,128,0,14886:0:0:0:0:
64,192,14886,128,2,15052:0:0:0:0:
448,192,14886,1,0,0:0:0:0:
192,192,15052,128,0,15219:0:0:0:0:
320,192,15219,1,0,0:0:0:0:
448,192,15219,1,2,0:0:0:0:
64,192,15386,1,0,0:0:0:0:
64,192,15469,1,0,0:0:0:0:
192,192,15552,1,0,0:0:0:0:
448,192,15552,1,2,0:0:0:0:
320,192,15719,1,0,0:0:0:0:
64,192,15719,1,0,0:0:0:0:
448,192,15886,128,2,16219:0:0:0:0:
192,192,15886,1,0,0:0:0:0:
64,192,16052,1,0,0:0:0:0:
320,192,16219,1,4,0:0:0:0:
64,192,16219,1,2,0:0:0:0:
320,192,16386,1,0,0:0:0:0:
448,192,16552,1,4,0:0:0:0:
64,192,16552,1,2,0:0:0:0:
192,192,16552,1,0,0:0:0:0:
320,192,16719,1,0,0:0:0:0:
320,192,16802,1,0,0:0:0:0:
192,192,16886,1,2,0:0:0:0:
448,192,16886,1,0,0:0:0:0:
320,192,17052,1,0,0:0:0:0:
64,192,17052,1,0,0:0:0:0:
192,192,17219,1,0,0:0:0:0:
64,192,17219,1,2,0:0:0:0:
448,192,17386,1,0,0:0:0:0:
320,192,17552,1,0,0:0:0:0:
448,192,17552,1,2,0:0:0:0:
192,192,17719,1,0,0:0:0:0:
64,192,17719,1,0,0:0:0:0:
448,192,17886,1,0,0:0:0:0:
64,192,17886,1,2,0:0:0:0:
320,192,18052,1,0,0:0:0:0:
320,192,18136,1,0,0:0:0:0:
192,192,18219,1,0,0:0:0:0:
448,192,18219,1,2,0:0:0:0:
320,192,18386,1,0,0:0:0:0:
64,192,18386,1,0,0:0:0:0:
192,192,18552,1,2,0:0:0:0:
64,192,18552,1,0,0:0:0:0:
448,192,18719,1,0,0:0:0:0:
320,192,18886,1,2,0:0:0:0:
192,192,18886,1,0,0:0:0:0:
64,192,18969,1,0,0:0:0:0:
192,192,19052,1,0,0:0:0:0:
320,192,19136,1,0,0:0:0:0:
448,192,19219,1,2,0:0:0:0:
64,192,19219,1,0,0:0:0:0:
192,192,19386,1,0,0:0:0:0:
192,192,19469,1,0,0:0:0:0:
448,192,19552,1,2,0:0:0:0:
320,192,19552,1,0,0:0:0:0:
448,192,19719,1,0,0:0:0:0:
192,192,19719,1,0,0:0:0:0:
64,192,19886,1,0,0:0:0:0:
320,192,19886,128,2,20052:0:0:0:0:
64,192,20052,128,0,20219:0:0:0:0:
192,192,20219,1,0,0:0:0:0:
448,192,20219,128,2,20386:0:0:0:0:
192,192,20386,128,0,20552:0:0:0:0:
64,192,20552,1,4,0:0:0:0:
320,192,20552,1,0,0:0:0:0:
448,192,20552,1,2,0:0:0:0:
320,192,20886,1,2,0:0:0:0:
192,192,20886,1,0,0:0:0:0:
192,192,21219,128,2,21552:0:0:0:0:
64,192,21219,128,0,21552:0:0:0:0:
448,192,21552,128,0,21886:0:0:0:0:
320,192,21886,1,4,0:0:0:0:
192,192,21886,1,2,0:0:0:0:
64,192,21886,1,0,0:0:0:0:
64,192,22219,1,8,0:0:0:0:
320,192,22386,1,8,0:0:0:0:
192,192,22552,1,0,0:0:0:0:
448,192,22552,1,4,0:0:0:0:
64,192,22552,1,2,0:0:0:0:
64,192,22886,1,8,0:0:0:0:
320,192,23052,1,8,0:0:0:0:
448,192,23219,1,4,0:0:0:0:
192,192,23219,1,0,0:0:0:0:
64,192,23219,1,2,0:0:0:0:
192,192,23386,1,8,0:0:0:0:
64,192,23552,1,4,0:0:0:0:
320,192,23552,1,0,0:0:0:0:
448,192,23552,1,2,0:0:0:0:
320,192,23719,1,8,0:0:0:0:
64,192,23886,1,4,0:0:0:0:
448,192,23886,1,2,0:0:0:0:
192,192,23886,1,0,0:0:0:0:
320,192,24052,1,0,0:0:0:0:
448,192,24219,1,8,0:0:0:0:
320,192,24302,1,8,0:0:0:0:
64,192,24386,1,8,0:0:0:0:
192,192,24469,1,8,0:0:0:0:
320,192,24552,1,4,0:0:0:0:
448,192,24552,1,2,0:0:0:0:
64,192,24552,128,0,25052:0:0:0:0:
192,192,24719,1,0,0:0:0:0:
320,192,24886,1,2,0:0:0:0:
192,192,25052,1,0,0:0:0:0:
448,192,25052,1,0,0:0:0:0:
320,192,25219,1,2,0:0:0:0:
64,192,25219,1,0,0:0:0:0:
448,192,25386,1,0,0:0:0:0:
320,192,25441,1,0,0:0:0:0:
192,192,25497,1,0,0:0:0:0:
64,192,25552,1,0,0:0:0:0:
448,192,25552,1,2,0:0:0:0:
192,192,25719,1,0,0:0:0:0:
192,192,25886,1,0,0:0:0:0:
320,192,25886,1,2,0:0:0:0:
64,192,26052,1,0,0:0:0:0:
192,192,26136,1,0,0:0:0:0:
320,192,26219,1,0,0:0:0:0:
448,192,26219,1,2,0:0:0:0:
192,192,26386,1,0,0:0:0:0:
448,192,26386,1,0,0:0:0:0:
448,192,26552,128,2,27219:0:0:0:0:
64,192,26552,1,0,0:0:0:0:
64,192,26719,128,2,26886:0:0:0:0:
192,192,26886,1,2,0:0:0:0:
320,192,26886,1,0,0:0:0:0:
320,192,27052,1,0,0:0:0:0:
192,192,27052,1,2,0:0:0:0:
64,192,27219,1,0,0:0:0:0:
192,192,27219,1,2,0:0:0:0:
320,192,27219,1,4,0:0:0:0:
448,192,27552,1,8,0:0:0:0:
192,192,27719,1,8,0:0:0:0:
64,192,27886,1,4,0:0:0:0:
448,192,27886,1,0,0:0:0:0:
320,192,27886,1,2,0:0:0:0:
448,192,28219,1,8,0:0:0:0:
192,192,28386,1,8,0:0:0:0:
64,192,28552,1,4,0:0:0:0:
320,192,28552,1,0,0:0:0:0:
448,192,28552,1,2,0:0:0:0:
320,192,28719,1,8,0:0:0:0:
192,192,28886,1,0,0:0:0:0:
448,192,28886,1,2,0:0:0:0:
192,192,29052,1,8,0:0:0:0:
64,192,29219,1,4,0:0:0:0:
320,192,29219,1,0,0:0:0:0:
448,192,29219,1,2,0:0:0:0:
192,192,29386,1,0,0:0:0:0:
320,192,29469,1,8,0:0:0:0:
64,192,29552,1,8,0:0:0:0:
192,192,29636,1,8,0:0:0:0:
448,192,29719,1,8,0:0:0:0:
320,192,29802,1,8,0:0:0:0:
192,192,29886,1,4,0:0:0:0:
448,192,29886,128,2,30386:0:0:0:0:
64,192,30052,1,0,0:0:0:0:
192,192,30219,1,2,0:0:0:0:
320,192,30386,1,0,0:0:0:0:
64,192,30386,1,0,0:0:0:0:
192,192,30552,1,0,0:0:0:0:
64,192,30552,1,2,0:0:0:0:
320,192,30719,1,0,0:0:0:0:
192,192,30775,1,0,0:0:0:0:
64,192,30830,1,0,0:0:0:0:
448,192,30886,1,2,0:0:0:0:
320,192,30886,1,0,0:0:0:0:
192,192,31052,1,0,0:0:0:0:
64,192,31219,1,0,0:0:0:0:
448,192,31219,1,2,0:0:0:0:
448,192,31386,1,0,0:0:0:0:
320,192,31469,1,0,0:0:0:0:
192,192,31552,1,0,0:0:0:0:
64,192,31552,1,2,0:0:0:0:
64,192,31719,1,0,0:0:0:0:
320,192,31719,1,0,0:0:0:0:
64,192,31886,1,2,0:0:0:0:
448,192,31886,128,0,32552:0:0:0:0:
192,192,32052,128,2,32219:0:0:0:0:
64,192,32219,1,0,0:0:0:0:
320,192,32219,1,2,0:0:0:0:
64,192,32386,1,0,0:0:0:0:
320,192,32386,1,2,0:0:0:0:
320,192,32552,1,2,0:0:0:0:
192,192,32552,1,0,0:0:0:0:
64,192,32552,1,4,0:0:0:0:
192,192,32719,1,0,0:0:0:0:
320,192,32886,1,8,0:0:0:0:
448,192,32886,1,2,0:0:0:0:
192,192,33052,1,8,0:0:0:0:
64,192,33052,1,0,0:0:0:0:
320,192,33219,1,8,0:0:0:0:
448,192,33219,1,2,0:0:0:0:
192,192,33386,1,0,0:0:0:0:
448,192,33552,1,2,0:0:0:0:
320,192,33552,1,8,0:0:0:0:
192,192,33719,1,8,0:0:0:0:
64,192,33719,1,0,0:0:0:0:
320,192,33886,1,8,0:0:0:0:
448,192,33886,1,2,0:0:0:0:
192,192,34052,1,8,0:0:0:0:
64,192,34052,1,0,0:0:0:0:
64,192,34219,1,8,0:0:0:0:
448,192,34219,1,2,0:0:0:0:
320,192,34386,1,0,0:0:0:0:
192,192,34386,1,8,0:0:0:0:
448,192,34552,1,8,0:0:0:0:
192,192,34552,128,2,34886:0:0:0:0:
320,192,34719,1,0,0:0:0:0:
64,192,34886,1,0,0:0:0:0:
448,192,34886,1,2,0:0:0:0:
192,192,35052,1,0,0:0:0:0:
320,192,35219,1,2,0:0:0:0:
64,192,35219,128,0,35719:0:0:0:0:
448,192,35386,1,0,0:0:0:0:
320,192,35552,1,2,0:0:0:0:
448,192,35719,1,0,0:0:0:0:
192,192,35719,1,0,0:0:0:0:
320,192,35886,1,2,0:0:0:0:
64,192,35886,1,0,0:0:0:0:
448,192,36052,1,0,0:0:0:0:
320,192,36108,1,0,0:0:0:0:
192,192,36164,1,0,0:0:0:0:
448,192,36219,1,2,0:0:0:0:
64,192,36219,1,0,0:0:0:0:
320,192,36386,1,0,0:0:0:0:
192,192,36386,1,0,0:0:0:0:
320,192,36552,1,2,0:0:0:0:
448,192,36552,1,0,0:0:0:0:
448,192,36719,1,0,0:0:0:0:
320,192,36802,1,0,0:0:0:0:
192,192,36886,1,0,0:0:0:0:
64,192,36886,1,2,0:0:0:0:
320,192,37052,1,0,0:0:0:0:
64,192,37052,1,0,0:0:0:0:
64,192,37219,1,2,0:0:0:0:
448,192,37219,128,0,37886:0:0:0:0:
192,192,37386,1,2,0:0:0:0:
320,192,37469,1,2,0:0:0:0:
64,192,37552,1,2,0:0:0:0:
192,192,37552,1,0,0:0:0:0:
64,192,37719,1,2,0:0:0:0:
192,192,37719,1,0,0:0:0:0:
192,192,37886,1,0,0:0:0:0:
320,192,37886,1,4,0:0:0:0:
64,192,37886,1,2,0:0:0:0:
320,192,38052,1,0,0:0:0:0:
448,192,38219,1,2,0:0:0:0:
192,192,38219,1,8,0:0:0:0:
320,192,38386,1,0,0:0:0:0:
64,192,38386,1,8,0:0:0:0:
192,192,38552,1,4,0:0:0:0:
448,192,38552,1,8,0:0:0:0:
64,192,38552,1,2,0:0:0:0:
320,192,38719,1,0,0:0:0:0:
192,192,38886,1,8,0:0:0:0:
448,192,38886,1,2,0:0:0:0:
320,192,39052,1,0,0:0:0:0:
64,192,39052,1,8,0:0:0:0:
192,192,39219,1,8,0:0:0:0:
448,192,39219,1,2,0:0:0:0:
320,192,39386,1,8,0:0:0:0:
192,192,39386,1,0,0:0:0:0:
448,192,39552,1,2,0:0:0:0:
64,192,39552,1,8,0:0:0:0:
448,192,39719,1,0,0:0:0:0:
192,192,39719,1,8,0:0:0:0:
320,192,39886,1,2,0:0:0:0:
64,192,39886,128,8,40219:0:0:0:0:
320,192,40052,1,0,0:0:0:0:
192,192,40219,128,0,40552:0:0:0:0:
448,192,40219,1,2,0:0:0:0:
320,192,40386,128,0,40552:0:0:0:0:
64,192,40552,1,4,0:0:0:0:
448,192,40552,1,2,0:0:0:0:
192,192,40719,1,0,0:0:0:0:
64,192,40886,1,0,0:0:0:0:
448,192,40886,1,2,0:0:0:0:
320,192,41052,1,0,0:0:0:0:
64,192,41219,1,0,0:0:0:0:
192,192,41219,1,0,0:0:0:0:
448,192,41219,1,2,0:0:0:0:
320,192,41386,1,2,0:0:0:0:
448,192,41441,1,2,0:0:0:0:
320,192,41497,1,2,0:0:0:0:
192,192,41552,1,2,0:0:0:0:
64,192,41552,1,0,0:0:0:0:
192,192,41719,1,2,0:0:0:0:
64,192,41719,1,0,0:0:0:0:
448,192,41886,1,2,0:0:0:0:
320,192,41886,1,0,0:0:0:0:
64,192,41886,1,4,0:0:0:0:
192,192,42219,1,2,0:0:0:0:
320,192,42219,1,0,0:0:0:0:
64,192,42552,1,2,0:0:0:0:
192,192,42552,1,0,0:0:0:0:
448,192,42552,128,4,42886:0:0:0:0:
64,192,42886,128,0,43052:0:0:0:0:
320,192,42886,1,2,0:0:0:0:
192,192,43052,128,0,43219:0:0:0:0:
320,192,43052,1,2,0:0:0:0:
448,192,43219,128,4,43719:0:0:0:0:
64,192,43219,1,2,0:0:0:0:
192,192,43386,1,0,0:0:0:0:
320,192,43552,1,2,0:0:0:0:
64,192,43719,1,0,0:0:0:0:
192,192,43719,1,0,0:0:0:0:
192,192,43886,1,2,0:0:0:0:
320,192,43886,1,0,0:0:0:0:
320,192,44052,1,0,0:0:0:0:
448,192,44052,1,0,0:0:0:0:
64,192,44219,1,2,0:0:0:0:
320,192,44219,1,0,0:0:0:0:
192,192,44386,1,0,0:0:0:0:
448,192,44386,1,0,0:0:0:0:
448,192,44552,128,0,44719:0:0:0:0:
64,192,44552,1,2,0:0:0:0:
320,192,44719,128,0,44886:0:0:0:0:
192,192,44719,1,0,0:0:0:0:
192,192,44886,128,0,45052:0:0:0:0:
64,192,44886,1,2,0:0:0:0:
448,192,45052,128,0,45219:0:0:0:0:
320,192,45052,1,0,0:0:0:0:
64,192,45219,128,0,45719:0:0:0:0:
192,192,45219,1,2,0:0:0:0:
448,192,45386,1,0,0:0:0:0:
320,192,45552,1,2,0:0:0:0:
192,192,45719,1,0,0:0:0:0:
448,192,45719,1,0,0:0:0:0:
64,192,45886,128,0,46219:0:0:0:0:
320,192,45886,1,2,0:0:0:0:
320,192,46052,1,0,0:0:0:0:
448,192,46219,1,2,0:0:0:0:
192,192,46219,1,0,0:0:0:0:
448,192,46386,1,0,0:0:0:0:
320,192,46386,1,0,0:0:0:0:
192,192,46552,1,2,0:0:0:0:
64,192,46552,1,0,0:0:0:0:
320,192,46719,1,0,0:0:0:0:
192,192,46802,1,0,0:0:0:0:
64,192,46886,1,0,0:0:0:0:
320,192,46886,1,2,0:0:0:0:
448,192,47052,1,0,0:0:0:0:
64,192,47052,1,0,0:0:0:0:
320,192,47219,1,2,0:0:0:0:
192,192,47219,1,0,0:0:0:0:
64,192,47386,1,0,0:0:0:0:
448,192,47386,1,0,0:0:0:0:
448,192,47552,1,0,0:0:0:0:
64,192,47552,1,2,0:0:0:0:
320,192,47636,1,0,0:0:0:0:
192,192,47719,1,0,0:0:0:0:
320,192,47802,1,0,0:0:0:0:
448,192,47886,128,0,48219:0:0:0:0:
64,192,47886,1,2,0:0:0:0:
192,192,48052,1,0,0:0:0:0:
320,192,48219,1,0,0:0:0:0:
64,192,48219,1,2,0:0:0:0:
64,192,48386,1,2,0:0:0:0:
320,192,48386,1,0,0:0:0:0:
448,192,48552,1,0,0:0:0:0:
64,192,48552,1,2,0:0:0:0:
192,192,48552,128,4,49052:0:0:0:0:
320,192,48719,1,0,0:0:0:0:
448,192,48886,1,2,0:0:0:0:
320,192,49052,1,0,0:0:0:0:
64,192,49052,1,0,0:0:0:0:
192,192,49219,1,2,0:0:0:0:
448,192,49219,1,0,0:0:0:0:
320,192,49386,1,0,0:0:0:0:
192,192,49469,1,0,0:0:0:0:
64,192,49552,1,0,0:0:0:0:
448,192,49552,1,2,0:0:0:0:
64,192,49719,1,0,0:0:0:0:
320,192,49719,1,0,0:0:0:0:
64,192,49886,1,4,0:0:0:0:
192,192,49886,1,0,0:0:0:0:
448,192,49886,128,2,50052:0:0:0:0:
192,192,50052,1,0,0:0:0:0:
320,192,50052,128,0,50219:0:0:0:0:
448,192,50219,1,2,0:0:0:0:
64,192,50219,128,0,50386:0:0:0:0:
448,192,50386,1,0,0:0:0:0:
192,192,50386,128,0,50552:0:0:0:0:
320,192,50552,1,0,0:0:0:0:
448,192,50552,128,2,50886:0:0:0:0:
192,192,50719,1,0,0:0:0:0:
320,192,50886,1,2,0:0:0:0:
64,192,50886,1,0,0:0:0:0:
448,192,51052,1,0,0:0:0:0:
192,192,51052,1,0,0:0:0:0:
320,192,51219,1,2,0:0:0:0:
64,192,51219,1,0,0:0:0:0:
448,192,51219,1,4,0:0:0:0:
192,192,51386,1,0,0:0:0:0:
64,192,51386,1,0,0:0:0:0:
448,192,51552,1,2,0:0:0:0:
320,192,51552,1,0,0:0:0:0:
64,192,51719,1,0,0:0:0:0:
192,192,51719,1,0,0:0:0:0:
64,192,51886,1,2,0:0:0:0:
448,192,51886,1,4,0:0:0:0:
320,192,51886,1,0,0:0:0:0:
192,192,51969,1,0,0:0:0:0:
448,192,52052,1,0,0:0:0:0:
320,192,52136,1,0,0:0:0:0:
64,192,52219,1,2,0:0:0:0:
192,192,52219,1,0,0:0:0:0:
448,192,52302,1,0,0:0:0:0:
320,192,52386,1,0,0:0:0:0:
64,192,52469,1,0,0:0:0:0:
448,192,52552,1,2,0:0:0:0:
192,192,52552,1,0,0:0:0:0:
320,192,52552,1,4,0:0:0:0:
320,192,52802,1,2,0:0:0:0:
448,192,52802,1,0,0:0:0:0:
64,192,52886,1,2,0:0:0:0:
192,192,52886,1,0,0:0:0:0:
192,192,53052,1,0,0:0:0:0:
320,192,53052,1,2,0:0:0:0:
448,192,53219,1,0,0:0:0:0:
320,192,53219,1,0,0:0:0:0:
64,192,53219,1,2,0:0:0:0:
448,192,53386,1,0,0:0:0:0:
192,192,53386,1,0,0:0:0:0:
64,192,53386,1,2,0:0:0:0:
192,192,53552,1,0,0:0:0:0:
64,192,53552,1,2,0:0:0:0:
448,192,53552,1,0,0:0:0:0:
448,192,53886,1,8,0:0:0:0:
64,192,53886,1,2,0:0:0:0:
192,192,54052,1,2,0:0:0:0:
448,192,54052,1,8,0:0:0:0:
320,192,54136,1,8,0:0:0:0:
192,192,54219,1,8,0:0:0:0:
64,192,54386,1,8,0:0:0:0:
192,192,54552,1,8,0:0:0:0:
448,192,54552,1,0,0:0:0:0:
320,192,54719,1,0,0:0:0:0:
64,192,54719,1,8,0:0:0:0:
192,192,54802,1,8,0:0:0:0:
64,192,54886,1,8,0:0:0:0:
320,192,55052,1,8,0:0:0:0:
448,192,55219,1,0,0:0:0:0:
192,192,55219,1,8,0:0:0:0:
320,192,55386,1,0,0:0:0:0:
64,192,55386,1,8,0:0:0:0:
192,192,55469,1,8,0:0:0:0:
320,192,55552,1,8,0:0:0:0:
192,192,55719,1,8,0:0:0:0:
64,192,55886,1,8,0:0:0:0:
448,192,55886,1,0,0:0:0:0:
448,192,56052,1,0,0:0:0:0:
64,192,56052,1,8,0:0:0:0:
320,192,56136,1,8,0:0:0:0:
192,192,56219,128,8,56552:0:0:0:0:
64,192,56552,1,8,0:0:0:0:
448,192,56552,1,2,0:0:0:0:
448,192,56719,1,2,0:0:0:0:
192,192,56719,1,8,0:0:0:0:
320,192,56802,1,8,0:0:0:0:
192,192,56886,1,8,0:0:0:0:
64,192,57052,1,8,0:0:0:0:
192,192,57219,1,8,0:0:0:0:
448,192,57219,1,0,0:0:0:0:
320,192,57386,1,0,0:0:0:0:
64,192,57386,1,8,0:0:0:0:
192,192,57469,1,8,0:0:0:0:
64,192,57552,1,8,0:0:0:0:
320,192,57719,1,8,0:0:0:0:
448,192,57719,1,2,0:0:0:0:
64,192,57886,1,8,0:0:0:0:
448,192,57886,1,0,0:0:0:0:
320,192,58052,1,2,0:0:0:0:
64,192,58052,1,8,0:0:0:0:
192,192,58136,1,8,0:0:0:0:
320,192,58219,1,8,0:0:0:0:
192,192,58386,1,8,0:0:0:0:
64,192,58552,1,8,0:0:0:0:
448,192,58552,1,0,0:0:0:0:
192,192,58719,1,2,0:0:0:0:
320,192,58719,1,0,0:0:0:0:
448,192,58802,1,2,0:0:0:0:
192,192,58886,1,2,0:0:0:0:
64,192,58886,1,0,0:0:0:0:
320,192,59052,1,0,0:0:0:0:
64,192,59052,1,2,0:0:0:0:
448,192,59219,1,0,0:0:0:0:
192,192,59219,1,2,0:0:0:0:
192,192,59386,1,2,0:0:0:0:
448,192,59386,1,0,0:0:0:0:
192,192,59552,128,2,60052:0:0:0:0:
448,192,59552,128,8,60052:0:0:0:0:
320,192,60052,1,0,0:0:0:0:
64,192,60219,1,0,0:0:0:0:
320,192,60219,1,2,0:0:0:0:
320,192,60386,1,2,0:0:0:0:
64,192,60386,1,0,0:0:0:0:
64,192,60552,128,8,61052:0:0:0:0:
320,192,60552,128,2,61052:0:0:0:0:
192,192,61052,1,0,0:0:0:0:
448,192,61219,1,2,0:0:0:0:
64,192,61219,1,0,0:0:0:0:
64,192,61386,1,0,0:0:0:0:
448,192,61386,1,2,0:0:0:0:
64,192,61552,128,8,62052:0:0:0:0:
448,192,61552,128,2,62052:0:0:0:0:
192,192,62052,1,2,0:0:0:0:
320,192,62052,1,0,0:0:0:0:
192,192,62386,1,2,0:0:0:0:
320,192,62386,1,0,0:0:0:0:
192,192,62552,128,2,63219:0:0:0:0:
320,192,62552,128,8,63219:0:0:0:0:
64,192,63219,1,0,0:0:0:0:
448,192,63219,1,2,0:0:0:0:
320,192,63386,1,2,0:0:0:0:
64,192,63386,1,0,0:0:0:0:
192,192,63552,128,2,64052:0:0:0:0:
64,192,63552,128,8,64052:0:0:0:0:
320,192,64052,1,0,0:0:0:0:
448,192,64219,1,2,0:0:0:0:
64,192,64219,1,0,0:0:0:0:
192,192,64386,1,0,0:0:0:0:
448,192,64386,1,2,0:0:0:0:
320,192,64552,128,8,65052:0:0:0:0:
448,192,64552,128,2,65052:0:0:0:0:
64,192,65052,1,0,0:0:0:0:
192,192,65219,1,0,0:0:0:0:
448,192,65219,1,2,0:0:0:0:
64,192,65386,1,0,0:0:0:0:
320,192,65386,1,2,0:0:0:0:
64,192,65552,128,8,66052:0:0:0:0:
320,192,65552,128,2,66052:0:0:0:0:
192,192,66052,1,0,0:0:0:0:
448,192,66052,1,2,0:0:0:0:
192,192,66386,1,0,0:0:0:0:
448,192,66386,1,2,0:0:0:0:
448,192,66552,128,2,67052:0:0:0:0:
192,192,66552,128,8,67052:0:0:0:0:
320,192,67052,1,0,0:0:0:0:
64,192,67219,1,2,0:0:0:0:
448,192,67219,1,4,0:0:0:0:
192,192,67219,1,0,0:0:0:0:
320,192,67386,1,2,0:0:0:0:
192,192,67469,1,2,0:0:0:0:
64,192,67552,1,2,0:0:0:0:
320,192,67552,1,0,0:0:0:0:
192,192,67719,1,2,0:0:0:0:
320,192,67802,1,2,0:0:0:0:
192,192,67886,1,2,0:0:0:0:
448,192,67886,1,0,0:0:0:0:
320,192,68052,1,2,0:0:0:0:
192,192,68136,1,2,0:0:0:0:
64,192,68219,1,2,0:0:0:0:
448,192,68219,1,0,0:0:0:0:
320,192,68386,1,2,0:0:0:0:
192,192,68386,1,0,0:0:0:0:
448,192,68552,1,4,0:0:0:0:
64,192,68552,1,2,0:0:0:0:
192,192,68552,1,0,0:0:0:0:
64,192,68719,1,0,0:0:0:0:
192,192,68802,1,0,0:0:0:0:
320,192,68886,1,8,0:0:0:0:
448,192,68886,1,0,0:0:0:0:
64,192,69052,1,0,0:0:0:0:
192,192,69052,1,8,0:0:0:0:
320,192,69219,1,2,0:0:0:0:
448,192,69302,1,0,0:0:0:0:
320,192,69386,1,0,0:0:0:0:
192,192,69469,1,0,0:0:0:0:
64,192,69552,1,2,0:0:0:0:
448,192,69636,1,0,0:0:0:0:
320,192,69719,1,2,0:0:0:0:
192,192,69802,1,0,0:0:0:0:
64,192,69886,1,4,0:0:0:0:
320,192,69886,1,0,0:0:0:0:
448,192,69886,1,2,0:0:0:0:
192,192,70052,1,0,0:0:0:0:
192,192,70136,1,0,0:0:0:0:
320,192,70219,1,0,0:0:0:0:
448,192,70219,1,2,0:0:0:0:
64,192,70386,1,0,0:0:0:0:
448,192,70552,1,2,0:0:0:0:
192,192,70552,1,0,0:0:0:0:
320,192,70719,1,0,0:0:0:0:
64,192,70719,1,0,0:0:0:0:
320,192,70886,1,0,0:0:0:0:
448,192,70886,1,2,0:0:0:0:
64,192,71052,1,0,0:0:0:0:
192,192,71052,1,0,0:0:0:0:
320,192,71219,1,0,0:0:0:0:
448,192,71219,1,2,0:0:0:0:
192,192,71386,1,0,0:0:0:0:
192,192,71469,1,0,0:0:0:0:
448,192,71552,1,2,0:0:0:0:
320,192,71552,1,0,0:0:0:0:
64,192,71719,1,0,0:0:0:0:
448,192,71886,1,2,0:0:0:0:
192,192,71886,1,0,0:0:0:0:
320,192,72052,1,0,0:0:0:0:
64,192,72052,1,0,0:0:0:0:
192,192,72219,1,0,0:0:0:0:
64,192,72219,1,2,0:0:0:0:
448,192,72302,1,0,0:0:0:0:
320,192,72386,1,0,0:0:0:0:
192,192,72469,1,0,0:0:0:0:
448,192,72552,1,2,0:0:0:0:
64,192,72552,1,0,0:0:0:0:
448,192,72719,1,0,0:0:0:0:
448,192,72802,1,0,0:0:0:0:
320,192,72886,1,2,0:0:0:0:
64,192,72886,1,0,0:0:0:0:
192,192,73052,1,0,0:0:0:0:
320,192,73219,1,0,0:0:0:0:
448,192,73219,1,2,0:0:0:0:
64,192,73386,1,0,0:0:0:0:
192,192,73386,1,0,0:0:0:0:
448,192,73552,1,2,0:0:0:0:
192,192,73552,1,0,0:0:0:0:
320,192,73719,1,0,0:0:0:0:
64,192,73719,1,0,0:0:0:0:
448,192,73886,1,2,0:0:0:0:
192,192,73886,1,0,0:0:0:0:
192,192,74052,1,0,0:0:0:0:
192,192,74136,1,0,0:0:0:0:
320,192,74219,1,2,0:0:0:0:
64,192,74219,1,0,0:0:0:0:
192,192,74386,1,0,0:0:0:0:
64,192,74552,1,0,0:0:0:0:
448,192,74552,128,2,74886:0:0:0:0:
192,192,74719,1,0,0:0:0:0:
320,192,74886,1,4,0:0:0:0:
64,192,74886,1,2,0:0:0:0:
192,192,74886,1,0,0:0:0:0:
320,192,75052,1,0,0:0:0:0:
192,192,75219,1,0,0:0:0:0:
448,192,75219,1,4,0:0:0:0:
64,192,75219,1,2,0:0:0:0:
320,192,75386,1,0,0:0:0:0:
320,192,75469,1,0,0:0:0:0:
64,192,75552,1,0,0:0:0:0:
448,192,75552,1,2,0:0:0:0:
192,192,75719,1,0,0:0:0:0:
320,192,75886,1,0,0:0:0:0:
448,192,75886,128,2,76052:0:0:0:0:
64,192,76052,128,0,76219:0:0:0:0:
192,192,76052,1,0,0:0:0:0:
448,192,76219,128,2,76386:0:0:0:0:
320,192,76219,1,0,0:0:0:0:
320,192,76386,128,0,76552:0:0:0:0:
192,192,76386,1,0,0:0:0:0:
448,192,76552,1,2,0:0:0:0:
64,192,76552,1,4,0:0:0:0:
192,192,76552,1,0,0:0:0:0:
320,192,76719,1,0,0:0:0:0:
320,192,76802,1,0,0:0:0:0:
64,192,76886,1,0,0:0:0:0:
448,192,76886,1,2,0:0:0:0:
192,192,77052,1,0,0:0:0:0:
320,192,77219,1,0,0:0:0:0:
448,192,77219,128,2,77386:0:0:0:0:
192,192,77386,1,0,0:0:0:0:
64,192,77386,128,0,77552:0:0:0:0:
320,192,77552,1,0,0:0:0:0:
448,192,77552,1,2,0:0:0:0:
192,192,77636,1,0,0:0:0:0:
64,192,77719,1,0,0:0:0:0:
192,192,77802,1,0,0:0:0:0:
320,192,77886,1,0,0:0:0:0:
448,192,77886,1,2,0:0:0:0:
64,192,77886,1,4,0:0:0:0:
320,192,78052,1,0,0:0:0:0:
320,192,78136,1,0,0:0:0:0:
448,192,78219,1,0,0:0:0:0:
64,192,78219,1,2,0:0:0:0:
192,192,78386,128,0,78552:0:0:0:0:
320,192,78552,1,0,0:0:0:0:
64,192,78552,1,2,0:0:0:0:
448,192,78552,128,4,78719:0:0:0:0:
320,192,78719,128,0,78886:0:0:0:0:
192,192,78719,1,0,0:0:0:0:
192,192,78886,128,0,79052:0:0:0:0:
64,192,78886,1,2,0:0:0:0:
64,192,79052,128,0,79219:0:0:0:0:
448,192,79052,1,2,0:0:0:0:
192,192,79219,1,2,0:0:0:0:
448,192,79219,1,4,0:0:0:0:
64,192,79386,1,2,0:0:0:0:
320,192,79386,1,0,0:0:0:0:
192,192,79552,1,2,0:0:0:0:
448,192,79552,1,0,0:0:0:0:
64,192,79719,1,2,0:0:0:0:
320,192,79719,1,0,0:0:0:0:
448,192,79886,1,0,0:0:0:0:
192,192,79886,1,2,0:0:0:0:
320,192,79969,1,2,0:0:0:0:
192,192,80052,1,2,0:0:0:0:
64,192,80136,1,2,0:0:0:0:
320,192,80219,1,2,0:0:0:0:
448,192,80219,1,0,0:0:0:0:
192,192,80386,1,2,0:0:0:0:
64,192,80386,1,0,0:0:0:0:
192,192,80552,1,2,0:0:0:0:
448,192,80552,1,4,0:0:0:0:
320,192,80552,1,0,0:0:0:0:
64,192,80636,1,0,0:0:0:0:
192,192,80719,1,0,0:0:0:0:
320,192,80802,1,0,0:0:0:0:
448,192,80886,1,2,0:0:0:0:
64,192,80886,1,0,0:0:0:0:
192,192,80969,1,0,0:0:0:0:
448,192,81052,1,0,0:0:0:0:
320,192,81136,1,0,0:0:0:0:
64,192,81219,1,2,0:0:0:0:
192,192,81219,1,0,0:0:0:0:
320,192,81302,1,0,0:0:0:0:
192,192,81386,1,0,0:0:0:0:
64,192,81469,1,0,0:0:0:0:
192,192,81552,1,0,0:0:0:0:
448,192,81552,1,2,0:0:0:0:
320,192,81636,1,0,0:0:0:0:
192,192,81719,1,0,0:0:0:0:
320,192,81802,1,0,0:0:0:0:
448,192,81886,1,2,0:0:0:0:
64,192,81886,1,0,0:0:0:0:
320,192,81969,1,0,0:0:0:0:
192,192,82052,1,0,0:0:0:0:
64,192,82136,1,0,0:0:0:0:
192,192,82219,1,0,0:0:0:0:
448,192,82219,1,2,0:0:0:0:
320,192,82302,1,0,0:0:0:0:
192,192,82386,1,0,0:0:0:0:
320,192,82469,1,0,0:0:0:0:
448,192,82552,1,2,0:0:0:0:
64,192,82552,1,0,0:0:0:0:
192,192,82636,1,0,0:0:0:0:
320,192,82719,1,0,0:0:0:0:
448,192,82802,1,0,0:0:0:0:
64,192,82886,1,2,0:0:0:0:
320,192,82886,1,0,0:0:0:0:
192,192,82969,1,0,0:0:0:0:
320,192,83052,1,0,0:0:0:0:
192,192,83136,1,0,0:0:0:0:
64,192,83219,1,2,0:0:0:0:
320,192,83219,1,0,0:0:0:0:
448,192,83302,1,0,0:0:0:0:
192,192,83386,1,0,0:0:0:0:
320,192,83469,1,0,0:0:0:0:
192,192,83552,1,2,0:0:0:0:
448,192,83552,1,0,0:0:0:0:
64,192,83636,1,0,0:0:0:0:
192,192,83719,1,0,0:0:0:0:
320,192,83802,1,0,0:0:0:0:
448,192,83886,1,0,0:0:0:0:
192,192,83886,1,2,0:0:0:0:
64,192,83969,1,0,0:0:0:0:
320,192,84052,1,0,0:0:0:0:
192,192,84136,1,0,0:0:0:0:
320,192,84219,1,0,0:0:0:0:
64,192,84219,1,2,0:0:0:0:
448,192,84302,1,0,0:0:0:0:
320,192,84386,1,0,0:0:0:0:
192,192,84469,1,0,0:0:0:0:
320,192,84552,1,2,0:0:0:0:
448,192,84552,1,0,0:0:0:0:
64,192,84636,1,0,0:0:0:0:
192,192,84719,1,0,0:0:0:0:
320,192,84802,1,0,0:0:0:0:
192,192,84886,1,2,0:0:0:0:
448,192,84886,1,0,0:0:0:0:
64,192,84969,1,0,0:0:0:0:
192,192,85052,1,0,0:0:0:0:
320,192,85136,1,0,0:0:0:0:
64,192,85219,1,2,0:0:0:0:
448,192,85219,1,0,0:0:0:0:
192,192,85302,1,0,0:0:0:0:
448,192,85386,1,0,0:0:0:0:
320,192,85469,1,2,0:0:0:0:
192,192,85552,1,0,0:0:0:0:
64,192,85552,1,2,0:0:0:0:
320,192,85719,1,0,0:0:0:0:
448,192,85719,1,2,0:0:0:0:
64,192,85886,1,2,0:0:0:0:
192,192,85886,1,0,0:0:0:0:
448,192,85886,1,4,0:0:0:0:
320,192,85969,1,0,0:0:0:0:
192,192,86052,1,0,0:0:0:0:
320,192,86136,1,0,0:0:0:0:
448,192,86219,1,0,0:0:0:0:
64,192,86219,1,2,0:0:0:0:
192,192,86302,1,0,0:0:0:0:
320,192,86386,1,0,0:0:0:0:
192,192,86469,1,0,0:0:0:0:
64,192,86552,1,2,0:0:0:0:
448,192,86552,1,0,0:0:0:0:
320,192,86636,1,0,0:0:0:0:
64,192,86719,1,0,0:0:0:0:
192,192,86802,1,0,0:0:0:0:
320,192,86886,1,2,0:0:0:0:
448,192,86886,1,0,0:0:0:0:
192,192,86969,1,0,0:0:0:0:
64,192,87052,1,0,0:0:0:0:
192,192,87136,1,0,0:0:0:0:
64,192,87219,1,4,0:0:0:0:
320,192,87219,1,0,0:0:0:0:
448,192,87219,1,2,0:0:0:0:
192,192,87302,1,0,0:0:0:0:
320,192,87386,1,0,0:0:0:0:
192,192,87469,1,0,0:0:0:0:
448,192,87552,1,2,0:0:0:0:
64,192,87552,1,0,0:0:0:0:
192,192,87636,1,0,0:0:0:0:
320,192,87719,1,0,0:0:0:0:
448,192,87802,1,0,0:0:0:0:
320,192,87886,1,2,0:0:0:0:
64,192,87886,1,0,0:0:0:0:
192,192,87969,1,0,0:0:0:0:
320,192,88052,1,0,0:0:0:0:
448,192,88136,1,0,0:0:0:0:
320,192,88219,1,2,0:0:0:0:
64,192,88219,1,0,0:0:0:0:
192,192,88302,1,0,0:0:0:0:
320,192,88386,1,0,0:0:0:0:
448,192,88469,1,0,0:0:0:0:
192,192,88552,1,0,0:0:0:0:
320,192,88552,1,2,0:0:0:0:
64,192,88552,1,4,0:0:0:0:
448,192,88636,1,0,0:0:0:0:
320,192,88719,1,0,0:0:0:0:
192,192,88802,1,0,0:0:0:0:
64,192,88886,1,2,0:0:0:0:
320,192,88886,1,0,0:0:0:0:
448,192,88969,1,0,0:0:0:0:
192,192,89052,1,0,0:0:0:0:
320,192,89136,1,0,0:0:0:0:
448,192,89219,1,4,0:0:0:0:
64,192,89219,1,2,0:0:0:0:
192,192,89219,1,0,0:0:0:0:
320,192,89302,1,0,0:0:0:0:
192,192,89386,1,0,0:0:0:0:
320,192,89469,1,0,0:0:0:0:
448,192,89552,1,0,0:0:0:0:
64,192,89552,1,2,0:0:0:0:
192,192,89636,1,0,0:0:0:0:
320,192,89719,1,0,0:0:0:0:
448,192,89802,1,0,0:0:0:0:
64,192,89886,1,2,0:0:0:0:
192,192,89886,1,0,0:0:0:0:
320,192,89886,1,4,0:0:0:0:
192,192,90136,1,0,0:0:0:0:
448,192,90136,1,2,0:0:0:0:
320,192,90219,1,2,0:0:0:0:
64,192,90219,1,0,0:0:0:0:
320,192,90386,1,2,0:0:0:0:
64,192,90386,1,0,0:0:0:0:
448,192,90552,1,0,0:0:0:0:
192,192,90552,1,2,0:0:0:0:
64,192,90552,1,0,0:0:0:0:
64,192,90719,1,0,0:0:0:0:
192,192,90719,1,2,0:0:0:0:
448,192,90719,1,0,0:0:0:0:
448,192,90886,1,0,0:0:0:0:
192,192,90886,1,2,0:0:0:0:
64,192,90886,1,0,0:0:0:0:
448,192,91219,1,4,0:0:0:0:
320,192,91219,1,0,0:0:0:0:
64,192,91219,1,2,0:0:0:0:
192,192,93552,1,2,0:0:0:0:
448,192,93886,1,4,0:0:0:0:
64,192,93886,1,2,0:0:0:0:
448,192,94552,128,0,95219:0:0:0:0:
64,192,95219,1,2,0:0:0:0:
320,192,95219,1,4,0:0:0:0:
192,192,95552,1,2,0:0:0:0:
320,192,95886,1,2,0:0:0:0:
64,192,95886,1,4,0:0:0:0:
448,192,96219,1,2,0:0:0:0:
64,192,96386,1,2,0:0:0:0:
192,192,96441,1,2,0:0:0:0:
320,192,96497,1,2,0:0:0:0:
64,192,96552,1,2,0:0:0:0:
448,192,96552,1,4,0:0:0:0:
320,192,96886,1,2,0:0:0:0:
192,192,97219,1,2,0:0:0:0:
448,192,97219,128,0,97886:0:0:0:0:
64,192,97552,1,2,0:0:0:0:
192,192,97886,1,2,0:0:0:0:
64,192,97886,1,4,0:0:0:0:
320,192,98219,1,2,0:0:0:0:
448,192,98552,1,2,0:0:0:0:
64,192,98552,1,0,0:0:0:0:
192,192,98886,1,2,0:0:0:0:
64,192,98969,1,0,0:0:0:0:
320,192,99052,1,0,0:0:0:0:
192,192,99136,1,0,0:0:0:0:
448,192,99219,1,2,0:0:0:0:
64,192,99219,1,4,0:0:0:0:
192,192,99552,1,2,0:0:0:0:
64,192,99886,1,2,0:0:0:0:
448,192,99886,128,0,100552:0:0:0:0:
192,192,100219,1,2,0:0:0:0:
320,192,100552,1,2,0:0:0:0:
64,192,100552,1,4,0:0:0:0:
448,192,100886,1,2,0:0:0:0:
320,192,101219,1,2,0:0:0:0:
64,192,101219,1,4,0:0:0:0:
448,192,101386,1,2,0:0:0:0:
320,192,101441,1,2,0:0:0:0:
192,192,101497,1,2,0:0:0:0:
64,192,101552,1,2,0:0:0:0:
448,192,101552,1,0,0:0:0:0:
448,192,101886,1,8,0:0:0:0:
64,192,101886,1,2,0:0:0:0:
448,192,102052,1,8,0:0:0:0:
64,192,102052,1,2,0:0:0:0:
320,192,102136,1,8,0:0:0:0:
192,192,102219,1,8,0:0:0:0:
64,192,102386,1,8,0:0:0:0:
448,192,102552,1,0,0:0:0:0:
192,192,102552,1,8,0:0:0:0:
448,192,102719,1,0,0:0:0:0:
192,192,102719,1,8,0:0:0:0:
320,192,102802,1,8,0:0:0:0:
192,192,102886,1,8,0:0:0:0:
64,192,103052,1,8,0:0:0:0:
448,192,103219,1,2,0:0:0:0:
320,192,103219,1,8,0:0:0:0:
320,192,103386,1,8,0:0:0:0:
448,192,103386,1,0,0:0:0:0:
192,192,103469,1,8,0:0:0:0:
64,192,103552,1,8,0:0:0:0:
64,192,103719,1,8,0:0:0:0:
320,192,103886,1,2,0:0:0:0:
448,192,103886,1,0,0:0:0:0:
192,192,103969,1,2,0:0:0:0:
64,192,103969,1,0,0:0:0:0:
320,192,104052,1,2,0:0:0:0:
448,192,104052,1,0,0:0:0:0:
192,192,104136,1,2,0:0:0:0:
64,192,104136,1,0,0:0:0:0:
320,192,104219,128,2,104552:0:0:0:0:
448,192,104219,128,0,104552:0:0:0:0:
64,192,104386,1,2,0:0:0:0:
64,192,104552,1,2,0:0:0:0:
192,192,104552,1,4,0:0:0:0:
448,192,104719,1,0,0:0:0:0:
64,192,104802,1,0,0:0:0:0:
320,192,104886,1,0,0:0:0:0:
192,192,104886,1,2,0:0:0:0:
448,192,104969,1,0,0:0:0:0:
64,192,105052,1,0,0:0:0:0:
320,192,105136,1,0,0:0:0:0:
192,192,105219,1,0,0:0:0:0:
64,192,105219,1,2,0:0:0:0:
192,192,105386,1,0,0:0:0:0:
320,192,105469,1,0,0:0:0:0:
448,192,105552,1,0,0:0:0:0:
64,192,105552,1,2,0:0:0:0:
192,192,105719,1,0,0:0:0:0:
448,192,105719,1,0,0:0:0:0:
448,192,105886,1,2,0:0:0:0:
320,192,105886,128,0,106219:0:0:0:0:
64,192,106052,1,0,0:0:0:0:
192,192,106219,1,0,0:0:0:0:
448,192,106219,1,2,0:0:0:0:
448,192,106386,1,0,0:0:0:0:
64,192,106386,1,0,0:0:0:0:
320,192,106469,1,0,0:0:0:0:
448,192,106552,1,2,0:0:0:0:
192,192,106552,1,0,0:0:0:0:
320,192,106636,1,0,0:0:0:0:
64,192,106719,1,0,0:0:0:0:
192,192,106802,1,0,0:0:0:0:
320,192,106886,1,0,0:0:0:0:
448,192,106886,1,2,0:0:0:0:
192,192,107052,1,0,0:0:0:0:
320,192,107136,1,0,0:0:0:0:
448,192,107219,1,2,0:0:0:0:
64,192,107219,1,0,0:0:0:0:
192,192,107386,1,0,0:0:0:0:
448,192,107469,1,0,0:0:0:0:
320,192,107552,1,2,0:0:0:0:
192,192,107552,1,0,0:0:0:0:
64,192,107636,1,0,0:0:0:0:
448,192,107719,1,0,0:0:0:0:
192,192,107802,1,0,0:0:0:0:
320,192,107886,1,0,0:0:0:0:
448,192,107886,1,2,0:0:0:0:
448,192,108052,1,0,0:0:0:0:
320,192,108136,1,0,0:0:0:0:
192,192,108219,1,0,0:0:0:0:
64,192,108219,1,2,0:0:0:0:
320,192,108386,1,0,0:0:0:0:
448,192,108386,1,0,0:0:0:0:
192,192,108552,1,8,0:0:0:0:
64,192,108552,128,2,108886:0:0:0:0:
320,192,108636,1,8,0:0:0:0:
448,192,108719,1,8,0:0:0:0:
192,192,108802,1,8,0:0:0:0:
320,192,108886,1,8,0:0:0:0:
448,192,108886,1,2,0:0:0:0:
192,192,109052,1,8,0:0:0:0:
320,192,109136,1,0,0:0:0:0:
192,192,109219,1,8,0:0:0:0:
448,192,109219,1,2,0:0:0:0:
64,192,109386,1,8,0:0:0:0:
320,192,109386,1,0,0:0:0:0:
192,192,109552,1,2,0:0:0:0:
64,192,109552,128,8,109886:0:0:0:0:
448,192,109719,1,0,0:0:0:0:
320,192,109886,1,2,0:0:0:0:
192,192,109886,1,0,0:0:0:0:
448,192,110052,1,0,0:0:0:0:
192,192,110136,1,0,0:0:0:0:
64,192,110219,1,0,0:0:0:0:
448,192,110219,1,2,0:0:0:0:
320,192,110302,1,0,0:0:0:0:
64,192,110386,1,0,0:0:0:0:
448,192,110469,1,0,0:0:0:0:
320,192,110552,1,2,0:0:0:0:
192,192,110552,1,0,0:0:0:0:
64,192,110636,1,0,0:0:0:0:
448,192,110719,1,0,0:0:0:0:
192,192,110802,1,0,0:0:0:0:
448,192,110886,1,2,0:0:0:0:
64,192,110886,1,0,0:0:0:0:
320,192,110969,1,0,0:0:0:0:
64,192,111052,1,0,0:0:0:0:
192,192,111136,1,0,0:0:0:0:
64,192,111219,128,0,111552:0:0:0:0:
320,192,111219,1,2,0:0:0:0:
320,192,111386,1,0,0:0:0:0:
192,192,111552,1,2,0:0:0:0:
448,192,111552,128,0,111886:0:0:0:0:
192,192,111719,1,0,0:0:0:0:
64,192,111886,1,2,0:0:0:0:
320,192,111886,1,0,0:0:0:0:
448,192,111969,1,0,0:0:0:0:
192,192,112052,1,0,0:0:0:0:
320,192,112136,1,0,0:0:0:0:
64,192,112219,1,2,0:0:0:0:
448,192,112219,1,0,0:0:0:0:
192,192,112302,1,0,0:0:0:0:
64,192,112386,1,0,0:0:0:0:
320,192,112469,1,0,0:0:0:0:
192,192,112552,1,0,0:0:0:0:
64,192,112552,1,2,0:0:0:0:
448,192,112719,1,0,0:0:0:0:
320,192,112802,1,0,0:0:0:0:
192,192,112886,1,0,0:0:0:0:
64,192,112886,1,2,0:0:0:0:
64,192,113052,1,0,0:0:0:0:
192,192,113052,1,0,0:0:0:0:
448,192,113219,1,2,0:0:0:0:
320,192,113219,1,0,0:0:0:0:
64,192,113386,1,2,0:0:0:0:
192,192,113469,1,2,0:0:0:0:
320,192,113552,1,0,0:0:0:0:
448,192,113552,1,2,0:0:0:0:
192,192,113719,1,0,0:0:0:0:
64,192,113719,1,0,0:0:0:0:
448,192,113886,1,2,0:0:0:0:
320,192,113886,1,8,0:0:0:0:
192,192,113969,1,8,0:0:0:0:
320,192,114052,1,8,0:0:0:0:
448,192,114136,1,8,0:0:0:0:
320,192,114219,1,8,0:0:0:0:
64,192,114219,128,2,114886:0:0:0:0:
320,192,114386,1,8,0:0:0:0:
448,192,114552,1,8,0:0:0:0:
448,192,114719,1,8,0:0:0:0:
192,192,114802,1,2,0:0:0:0:
320,192,114886,1,8,0:0:0:0:
448,192,114886,1,2,0:0:0:0:
64,192,115052,1,2,0:0:0:0:
192,192,115052,1,0,0:0:0:0:
320,192,115219,1,0,0:0:0:0:
448,192,115219,1,2,0:0:0:0:
64,192,115219,1,4,0:0:0:0:
192,192,115386,1,0,0:0:0:0:
448,192,115469,1,0,0:0:0:0:
64,192,115552,1,2,0:0:0:0:
320,192,115552,1,0,0:0:0:0:
448,192,115636,1,0,0:0:0:0:
192,192,115719,1,0,0:0:0:0:
64,192,115802,1,0,0:0:0:0:
448,192,115886,1,0,0:0:0:0:
192,192,115886,1,2,0:0:0:0:
192,192,116052,1,0,0:0:0:0:
320,192,116136,1,0,0:0:0:0:
448,192,116219,1,0,0:0:0:0:
64,192,116219,1,2,0:0:0:0:
448,192,116386,1,0,0:0:0:0:
192,192,116386,1,0,0:0:0:0:
448,192,116552,1,0,0:0:0:0:
320,192,116552,128,2,116886:0:0:0:0:
192,192,116886,1,2,0:0:0:0:
448,192,116886,1,0,0:0:0:0:
320,192,117052,1,0,0:0:0:0:
64,192,117052,1,0,0:0:0:0:
448,192,117136,1,0,0:0:0:0:
192,192,117219,1,2,0:0:0:0:
320,192,117219,1,0,0:0:0:0:
64,192,117302,1,0,0:0:0:0:
448,192,117386,1,0,0:0:0:0:
320,192,117469,1,0,0:0:0:0:
192,192,117552,1,2,0:0:0:0:
64,192,117552,1,0,0:0:0:0:
192,192,117719,1,0,0:0:0:0:
320,192,117802,1,0,0:0:0:0:
64,192,117886,1,2,0:0:0:0:
448,192,117886,1,0,0:0:0:0:
448,192,118052,1,0,0:0:0:0:
192,192,118136,1,0,0:0:0:0:
448,192,118219,1,0,0:0:0:0:
64,192,118219,1,2,0:0:0:0:
320,192,118302,1,0,0:0:0:0:
64,192,118386,1,0,0:0:0:0:
320,192,118469,1,0,0:0:0:0:
448,192,118552,1,0,0:0:0:0:
192,192,118552,1,2,0:0:0:0:
320,192,118719,1,0,0:0:0:0:
192,192,118802,1,0,0:0:0:0:
64,192,118886,1,2,0:0:0:0:
448,192,118886,128,0,119052:0:0:0:0:
320,192,119052,128,0,119219:0:0:0:0:
64,192,119052,1,0,0:0:0:0:
64,192,119219,128,8,119552:0:0:0:0:
192,192,119219,1,2,0:0:0:0:
448,192,119302,1,8,0:0:0:0:
192,192,119386,1,8,0:0:0:0:
448,192,119469,1,8,0:0:0:0:
320,192,119552,1,8,0:0:0:0:
192,192,119552,1,2,0:0:0:0:
64,192,119719,1,8,0:0:0:0:
320,192,119802,1,0,0:0:0:0:
192,192,119886,1,8,0:0:0:0:
448,192,119886,1,2,0:0:0:0:
448,192,120052,1,0,0:0:0:0:
192,192,120052,1,8,0:0:0:0:
320,192,120219,1,2,0:0:0:0:
64,192,120219,128,8,120552:0:0:0:0:
448,192,120386,1,0,0:0:0:0:
320,192,120552,1,2,0:0:0:0:
192,192,120552,1,0,0:0:0:0:
448,192,120719,1,0,0:0:0:0:
320,192,120802,1,0,0:0:0:0:
64,192,120886,1,0,0:0:0:0:
448,192,120886,1,2,0:0:0:0:
192,192,120969,1,0,0:0:0:0:
64,192,121052,1,0,0:0:0:0:
320,192,121136,1,0,0:0:0:0:
192,192,121219,1,0,0:0:0:0:
448,192,121219,1,2,0:0:0:0:
320,192,121302,1,0,0:0:0:0:
64,192,121386,1,0,0:0:0:0:
320,192,121469,1,0,0:0:0:0:
192,192,121552,1,0,0:0:0:0:
448,192,121552,1,2,0:0:0:0:
320,192,121636,1,0,0:0:0:0:
448,192,121719,1,0,0:0:0:0:
64,192,121719,1,0,0:0:0:0:
192,192,121802,1,0,0:0:0:0:
320,192,121886,1,0,0:0:0:0:
64,192,121886,1,2,0:0:0:0:
192,192,122052,1,0,0:0:0:0:
64,192,122219,1,2,0:0:0:0:
448,192,122219,128,0,122552:0:0:0:0:
320,192,122386,1,0,0:0:0:0:
192,192,122552,1,0,0:0:0:0:
320,192,122552,1,2,0:0:0:0:
64,192,122636,1,0,0:0:0:0:
320,192,122719,1,0,0:0:0:0:
192,192,122802,1,0,0:0:0:0:
448,192,122886,1,2,0:0:0:0:
320,192,122886,1,0,0:0:0:0:
64,192,122969,1,0,0:0:0:0:
192,192,123052,1,0,0:0:0:0:
448,192,123052,128,0,123219:0:0:0:0:
320,192,123219,1,2,0:0:0:0:
192,192,123219,1,0,0:0:0:0:
64,192,123302,1,0,0:0:0:0:
192,192,123386,1,0,0:0:0:0:
320,192,123469,1,0,0:0:0:0:
64,192,123552,1,2,0:0:0:0:
448,192,123552,1,0,0:0:0:0:
320,192,123719,1,0,0:0:0:0:
192,192,123719,1,0,0:0:0:0:
448,192,123886,1,0,0:0:0:0:
64,192,123886,1,2,0:0:0:0:
320,192,123969,1,0,0:0:0:0:
448,192,124052,1,0,0:0:0:0:
64,192,124052,1,0,0:0:0:0:
192,192,124136,1,0,0:0:0:0:
64,192,124219,1,2,0:0:0:0:
448,192,124219,1,0,0:0:0:0:
192,192,124386,1,2,0:0:0:0:
320,192,124386,1,0,0:0:0:0:
320,192,124552,1,8,0:0:0:0:
64,192,124552,1,2,0:0:0:0:
448,192,124552,1,4,0:0:0:0:
192,192,124636,1,8,0:0:0:0:
448,192,124719,1,2,0:0:0:0:
320,192,124802,1,0,0:0:0:0:
64,192,124886,1,2,0:0:0:0:
448,192,124886,1,8,0:0:0:0:
192,192,124969,1,0,0:0:0:0:
64,192,125052,1,2,0:0:0:0:
320,192,125136,1,0,0:0:0:0:
64,192,125219,1,2,0:0:0:0:
192,192,125219,1,8,0:0:0:0:
448,192,125219,1,4,0:0:0:0:
448,192,125552,1,2,0:0:0:0:
320,192,125552,1,8,0:0:0:0:
64,192,125552,1,4,0:0:0:0:
64,192,125886,1,2,0:0:0:0:
192,192,125886,1,0,0:0:0:0:
448,192,125886,1,4,0:0:0:0:
320,192,126052,1,0,0:0:0:0:
320,192,126136,1,0,0:0:0:0:
192,192,126219,1,0,0:0:0:0:
448,192,126219,1,2,0:0:0:0:
64,192,126386,1,0,0:0:0:0:
192,192,126552,1,0,0:0:0:0:
320,192,126552,1,2,0:0:0:0:
320,192,126719,1,0,0:0:0:0:
448,192,126719,1,0,0:0:0:0:
320,192,126886,1,2,0:0:0:0:
192,192,126886,1,0,0:0:0:0:
192,192,127052,1,0,0:0:0:0:
64,192,127052,1,0,0:0:0:0:
448,192,127219,1,0,0:0:0:0:
64,192,127219,1,2,0:0:0:0:
320,192,127386,1,0,0:0:0:0:
320,192,127469,1,0,0:0:0:0:
192,192,127552,1,2,0:0:0:0:
448,192,127552,1,0,0:0:0:0:
64,192,127719,1,0,0:0:0:0:
448,192,127886,1,0,0:0:0:0:
192,192,127886,1,2,0:0:0:0:
320,192,128052,1,0,0:0:0:0:
64,192,128052,1,0,0:0:0:0:
192,192,128219,1,2,0:0:0:0:
448,192,128219,1,0,0:0:0:0:
64,192,128302,1,0,0:0:0:0:
192,192,128386,1,0,0:0:0:0:
320,192,128469,1,0,0:0:0:0:
448,192,128552,1,2,0:0:0:0:
64,192,128552,1,0,0:0:0:0:
448,192,128719,1,0,0:0:0:0:
448,192,128802,1,0,0:0:0:0:
320,192,128886,1,2,0:0:0:0:
64,192,128886,1,0,0:0:0:0:
448,192,129052,1,0,0:0:0:0:
192,192,129052,1,0,0:0:0:0:
320,192,129219,1,0,0:0:0:0:
448,192,129219,1,2,0:0:0:0:
64,192,129386,1,0,0:0:0:0:
192,192,129386,1,0,0:0:0:0:
448,192,129552,1,2,0:0:0:0:
320,192,129552,1,0,0:0:0:0:
448,192,129719,1,0,0:0:0:0:
192,192,129719,1,0,0:0:0:0:
64,192,129886,1,0,0:0:0:0:
448,192,129886,1,2,0:0:0:0:
192,192,130052,1,0,0:0:0:0:
192,192,130136,1,0,0:0:0:0:
64,192,130219,1,0,0:0:0:0:
320,192,130219,1,2,0:0:0:0:
192,192,130386,1,0,0:0:0:0:
64,192,130552,1,0,0:0:0:0:
448,192,130552,128,2,130886:0:0:0:0:
192,192,130719,1,0,0:0:0:0:
320,192,130886,1,2,0:0:0:0:
64,192,130886,1,4,0:0:0:0:
192,192,130886,1,0,0:0:0:0:
320,192,131052,1,0,0:0:0:0:
192,192,131219,1,0,0:0:0:0:
64,192,131219,1,4,0:0:0:0:
448,192,131219,1,2,0:0:0:0:
320,192,131386,1,0,0:0:0:0:
320,192,131469,1,0,0:0:0:0:
192,192,131552,1,2,0:0:0:0:
64,192,131552,1,0,0:0:0:0:
448,192,131719,1,0,0:0:0:0:
320,192,131719,1,0,0:0:0:0:
64,192,131886,1,2,0:0:0:0:
448,192,131886,128,0,132052:0:0:0:0:
320,192,132052,128,0,132219:0:0:0:0:
192,192,132052,1,0,0:0:0:0:
64,192,132219,128,2,132386:0:0:0:0:
448,192,132219,1,0,0:0:0:0:
192,192,132386,128,0,132552:0:0:0:0:
448,192,132386,1,0,0:0:0:0:
320,192,132552,1,0,0:0:0:0:
64,192,132552,1,2,0:0:0:0:
320,192,132719,1,0,0:0:0:0:
320,192,132802,1,0,0:0:0:0:
192,192,132886,1,0,0:0:0:0:
64,192,132886,1,2,0:0:0:0:
320,192,133052,1,0,0:0:0:0:
448,192,133052,1,0,0:0:0:0:
64,192,133219,1,0,0:0:0:0:
448,192,133219,128,2,133386:0:0:0:0:
320,192,133386,128,0,133552:0:0:0:0:
64,192,133386,1,0,0:0:0:0:
192,192,133552,1,0,0:0:0:0:
448,192,133552,1,2,0:0:0:0:
64,192,133636,1,0,0:0:0:0:
192,192,133719,1,0,0:0:0:0:
320,192,133802,1,0,0:0:0:0:
448,192,133886,1,2,0:0:0:0:
64,192,133886,1,0,0:0:0:0:
192,192,134052,1,0,0:0:0:0:
192,192,134136,1,0,0:0:0:0:
320,192,134219,1,2,0:0:0:0:
64,192,134219,1,0,0:0:0:0:
448,192,134386,1,0,0:0:0:0:
192,192,134386,128,0,134552:0:0:0:0:
320,192,134552,1,0,0:0:0:0:
448,192,134552,128,2,134719:0:0:0:0:
192,192,134719,128,0,134886:0:0:0:0:
64,192,134719,1,0,0:0:0:0:
320,192,134886,128,0,135052:0:0:0:0:
448,192,134886,1,2,0:0:0:0:
64,192,135052,128,0,135219:0:0:0:0:
192,192,135052,1,2,0:0:0:0:
192,192,135219,1,4,0:0:0:0:
320,192,135219,1,0,0:0:0:0:
448,192,135219,1,2,0:0:0:0:
320,192,135552,1,4,0:0:0:0:
192,192,135552,1,0,0:0:0:0:
64,192,135552,1,2,0:0:0:0:
448,192,135886,1,4,0:0:0:0:
320,192,135886,1,0,0:0:0:0:
64,192,135886,1,2,0:0:0:0:
64,192,136219,1,2,0:0:0:0:
192,192,136219,1,0,0:0:0:0:
448,192,136219,1,4,0:0:0:0:
448,192,136552,1,0,0:0:0:0:
64,192,136552,1,2,0:0:0:0:
192,192,136636,1,0,0:0:0:0:
448,192,136719,1,0,0:0:0:0:
320,192,136719,1,2,0:0:0:0:
192,192,136802,1,0,0:0:0:0:
448,192,136886,1,0,0:0:0:0:
64,192,136886,1,2,0:0:0:0:
320,192,136969,1,0,0:0:0:0:
192,192,137052,1,2,0:0:0:0:
64,192,137052,1,0,0:0:0:0:
320,192,137136,1,0,0:0:0:0:
64,192,137219,1,2,0:0:0:0:
448,192,137219,1,0,0:0:0:0:
448,192,137552,1,2,0:0:0:0:
320,192,137552,1,0,0:0:0:0:
64,192,137552,1,4,0:0:0:0:
