osu file format v9

[General]
AudioFilename: BSPower Explosion1.mp3
AudioLeadIn: 1996
PreviewTime: 68538
Countdown: 0
SampleSet: Normal
StackLeniency: 0.6
Mode: 0
LetterboxInBreaks: 0

[Editor]
Bookmarks: 11205,21872,29872,37872,43205,53872,59205,69872,80538,91205,104538,115205,125872,137538
DistanceSpacing: 1
BeatDivisor: 4
GridSize: 16

[Metadata]
Title:BSPower Explosion
Artist:Memme
Creator:AngelHoney
Version:Normal
Source:O2jam Analog
Tags:Natteke val0108 manten TW-KUMA01 yongtw123

[Difficulty]
HPDrainRate:3
CircleSize:3
OverallDifficulty:2
ApproachRate:3
SliderMultiplier:0.899999999999999
SliderTickRate:1

[Events]
//Background and Video events
0,0,"24109350.jpg"
//Break Periods
//Storyboard Layer 0 (Background)
//Storyboard Layer 1 (Fail)
//Storyboard Layer 2 (Pass)
//Storyboard Layer 3 (Foreground)
//Storyboard Sound Samples
//Background Colour Transformations
3,100,255,170,213

[TimingPoints]
539,333.333333333333,4,1,1,100,1,0
11038,-100,4,1,1,80,0,0
11205,-100,4,1,1,80,0,1
11288,-100,4,1,1,80,0,0
21705,-100,4,1,1,100,0,0
24455,-100,4,1,1,80,0,0
27122,-100,4,1,1,100,0,0
29788,-100,4,1,1,80,0,0
32455,-100,4,1,1,90,0,0
43122,-100,4,1,1,80,0,0
53205,-100,4,1,1,100,0,0
59122,-100,4,1,1,80,0,0
67122,-100,4,1,1,100,0,0
69872,-100,4,1,1,80,0,1
69955,-100,4,1,1,80,0,0
101788,-100,4,1,1,100,0,0
125872,-100,4,1,1,100,0,1
125955,-100,4,1,1,100,0,0
137538,-100,4,1,1,100,0,1
137622,-100,4,1,1,100,0,0

[Colours]
Combo1 : 243,182,114
Combo2 : 83,249,149
Combo3 : 70,175,253
Combo4 : 241,253,100
Combo5 : 240,80,80

[HitObjects]
480,47,539,2,0,B|384:16|272:80|271:160,1,270,0|8
320,240,1872,2,0,B|272:336|160:320,1,180,0|0
96,272,2872,1,8
32,192,3205,5,4
32,368,3872,1,4
208,304,4538,2,0,B|272:240|384:240,1,180,4|0
464,240,5538,1,0
416,320,5872,6,0,B|384:240|288:176|176:208,1,270,4|8
112,256,7205,2,0,B|160:160|112:64,1,180
208,48,8205,1,8
304,32,8538,5,4
120,81,9205,1,4
288,176,9872,2,0,B|192:192|128:288,1,180,4|0
96,352,10872,1,0
32,288,11205,5,4
208,352,11872,1,8
144,176,12538,2,0,B|256:224|320:128,1,180
352,64,13538,1,0
448,64,13872,6,0,B|400:96|384:176|448:224,1,180,0|8
512,272,14872,1,0
432,320,15205,2,0,B|256:352,1,180,0|0
176,320,16205,1,8
96,352,16538,5,4
160,176,17205,1,8
288,48,17872,2,0,B|224:128|272:224,1,180
336,288,18872,1,8
352,192,19205,6,0,B|192:80,1,180
128,32,20205,1,8
80,112,20538,6,0,B|160:176,2,89.9999999999999,2|2|6
256,144,21872,6,0,B|144:160|128:304|240:384|336:304,1,360,0|0
272,240,23538,1,0
352,192,23872,2,0,B|416:96|336:16,1,180,0|4
160,32,25205,5,2
32,160,25872,2,0,B|96:336,1,180,0|2
272,320,27205,6,0,B|361:395|473:315|460:157|343:157,1,360
256,144,28872,1,0
208,224,29205,2,0,B|96:192|144:64,1,180,0|4
320,48,30538,5,2
448,160,31205,2,0,B|480:336,1,180,0|2
224,272,32538,6,0,B|48:320,2,180,0|0|2
304,240,34205,1,2
384,272,34538,1,2
512,144,35205,6,0,B|432:192|336:144,1,180,0|2
272,80,36205,1,2
208,144,36538,2,0,B|128:192|32:144,1,180,0|2
128,304,37872,6,0,B|224:288,1,89.9999999999999,4|0
304,256,38538,2,0,B|400:272,1,89.9999999999999,4|0
480,224,39205,1,2
480,224,39538,1,2
480,224,39872,2,0,B|432:144,1,89.9999999999999,2|8
384,64,40538,6,0,B|304:128|352:224,1,180,4|4
400,304,41538,1,0
304,304,41872,2,0,B|256:288|256:288|208:304,2,89.9999999999999,2|2|6
448,208,43205,5,4
304,304,43872,1,0
288,128,44538,2,0,B|224:48,2,89.9999999999999
304,304,45872,5,0
288,128,46538,1,0
144,240,47205,2,0,B|48:256,2,89.9999999999999
304,336,48538,6,0,B|208:368|96:288|112:192,1,270,4|0
112,112,49872,2,0,B|144:16|256:16,1,180,4|0
336,32,50872,1,0
416,80,51205,6,0,B|384:176,1,89.9999999999999,4|0
480,192,51872,2,0,B|448:288,1,89.9999999999999,4|0
368,320,52538,2,0,B|272:368|176:336,1,180,4|2
96,352,53538,1,2
32,272,53872,6,0,B|96:304|208:240|192:112|192:112|288:208|416:176|432:128,1,539.999999999999
384,48,56205,1,0
288,64,56538,6,0,B|336:144|256:224|336:304|336:304|304:336|272:320,1,315,0|8
192,336,58038,2,0,B|128:304|48:320,1,135,8|0
60,317,58872,1,8
96,224,59205,6,0,B|192:224|224:128|224:128|320:160|368:112|368:48,1,360,0|4
432,224,61205,6,0,B|352:208|304:272|304:272|288:336|192:368|128:304,1,360,0|4
96,128,63205,6,0,B|160:80|208:128|208:128|272:80|336:128|336:128|384:80|432:128,1,360,0|4
416,304,65205,6,0,B|352:304|272:224|224:368|128:256|64:256,1,360,0|4
32,160,66872,1,0
128,144,67205,6,0,B|160:96|160:96|192:144|224:96|224:96|256:144|288:96|288:96|320:144|352:96|352:96|384:144,1,360,0|4
32,192,69872,5,4
144,336,70538,1,8
320,272,71205,2,0,B|224:288|144:208,1,180
80,160,72205,1,0
128,80,72538,6,0,B|224:64|224:112|320:80,1,180
384,32,73538,1,8
432,112,73872,5,0
432,112,74205,1,0
432,112,74538,2,0,B|384:192,1,89.9999999999999,0|4
320,256,75205,6,0,B|240:208|128:256,1,180,4|0
64,304,76205,1,8
64,304,76538,2,0,B|144:240|112:128,1,180,4|0
96,48,77538,1,8
96,48,77872,2,0,B|192:64,1,89.9999999999999,4|0
272,80,78538,1,4
224,160,78872,1,0
288,224,79205,6,0,B|336:208|336:208|384:224,2,89.9999999999999,2|2|6
128,320,80538,6,0,B|64:272|112:208|112:208|64:144|128:80,1,270,4|0
208,32,81872,1,0
272,96,82205,1,0
368,80,82538,2,0,B|464:48,1,89.9999999999999
464,144,83205,6,0,B|368:160|336:256,1,180
288,336,84205,1,0
224,272,84538,2,0,B|208:224|176:192,2,89.9999999999999
384,352,85872,6,0,B|352:272|384:176,1,180,4|0
432,96,86872,1,0
336,96,87205,2,0,B|160:64,1,180,4|0
64,80,88205,1,0
80,176,88538,6,0,B|96:224|80:272,1,89.9999999999999,4|0
112,352,89205,2,0,B|160:368|208:352,1,89.9999999999999,4|0
272,288,89872,2,0,B|176:288|112:176|169:90,1,270,4|0
256,48,91205,5,4
80,320,93538,5,0
176,336,93872,1,4
432,80,95205,5,0
336,96,95538,1,0
240,80,95872,1,0
144,96,96205,1,0
48,80,96538,2,0,B|64:176,1,89.9999999999999,4|0
112,240,97205,2,0,B|208:224,1,89.9999999999999,4|0
288,192,97872,5,0
336,112,98205,1,0
256,64,98538,1,0
208,144,98872,1,0
288,192,99205,2,0,B|304:288,1,89.9999999999999,4|0
224,336,99872,2,0,B|128:320,1,89.9999999999999,4|0
48,304,100538,5,0
64,208,100872,1,0
160,224,101205,1,0
176,128,101538,1,0
128,48,101872,5,4
480,128,103205,2,0,B|448:80|448:80|432:128|384:112|384:112|400:144|336:176|272:112,1,270
208,64,104538,6,0,B|112:96,1,89.9999999999999,4|2
32,128,105205,1,0
80,208,105538,1,2
128,288,105872,2,0,B|208:240|320:272,1,180
384,304,106872,1,2
432,224,107205,6,0,B|448:176|480:144,1,89.9999999999999,0|2
464,48,107872,2,0,B|416:64|368:48,1,89.9999999999999,0|2
288,16,108538,1,0
224,80,108872,1,2
288,144,109205,2,0,B|272:192|304:240,1,89.9999999999999,0|2
320,320,109872,6,0,B|240:272|144:272,1,180
64,240,110872,1,2
64,240,111205,2,0,B|160:240|256:192,1,180
336,192,112205,1,2
320,288,112538,6,0,B|496:320,2,180
224,272,114205,1,2
128,256,114538,1,2
32,240,114872,1,2
96,176,115205,6,0,B|192:160,1,89.9999999999999,4|2
272,160,115872,2,0,B|368:176,1,89.9999999999999,0|2
448,208,116538,2,0,B|352:208|320:304|320:304|272:272|224:304,1,270,0|2
176,384,117872,6,0,B|144:352|80:336,1,89.9999999999999,0|2
16,304,118538,1,0
80,240,118872,1,2
144,176,119205,2,0,B|320:144,1,180
400,96,120205,1,2
496,112,120538,5,0
320,48,121205,1,0
496,112,121872,2,0,B|464:208,1,89.9999999999999,0|2
496,288,122538,1,0
416,336,122872,1,2
336,288,123205,6,0,B|240:256,1,89.9999999999999,0|2
192,192,123872,2,0,B|288:160,1,89.9999999999999,0|2
336,96,124538,2,0,B|160:32,1,180,0|2
166,34,125538,1,2
80,80,125872,6,0,B|32:176|128:256,1,180,4|0
176,320,126872,1,8
272,320,127205,2,0,B|448:272,1,180
512,208,128205,1,8
496,112,128538,6,0,B|320:64,1,180
224,32,129538,1,8
128,48,129872,5,0
176,128,130205,1,0
224,208,130538,2,0,B|240:256|288:288,1,89.9999999999999,0|12
288,368,131205,6,0,B|288:272|368:208,1,180,4|0
448,176,132205,1,8
448,176,132538,2,0,B|352:208|272:144,1,180
208,80,133538,1,8
208,80,133872,2,0,B|288:144|256:256,1,180
208,320,134872,1,8
304,336,135205,5,2
304,336,135538,1,2
304,336,135872,2,0,B|400:320,1,89.9999999999999,2|0
400,224,136538,6,0,B|496:256,2,89.9999999999999
384,128,137538,5,4
