osu file format v9

[General]
AudioFilename: BSPower Explosion1.mp3
AudioLeadIn: 1996
PreviewTime: 68538
Countdown: 0
SampleSet: Normal
StackLeniency: 0.6
Mode: 0
LetterboxInBreaks: 0

[Editor]
Bookmarks: 11205,21872,29872,37872,43205,53872,59205,69872,80538,91205,104538,115205,125872,137538
DistanceSpacing: 0.8
BeatDivisor: 4
GridSize: 16

[Metadata]
Title:BSPower Explosion
Artist:Memme
Creator:AngelHoney
Version:Extra
Source:O2jam Analog
Tags:Natteke val0108 manten TW-KUMA01 yongtw123

[Difficulty]
HPDrainRate:7
CircleSize:4
OverallDifficulty:7
ApproachRate:9
SliderMultiplier:2.1
SliderTickRate:1

[Events]
//Background and Video events
0,0,"24109350.jpg"
//Break Periods
//Storyboard Layer 0 (Background)
//Storyboard Layer 1 (Fail)
//Storyboard Layer 2 (Pass)
//Storyboard Layer 3 (Foreground)
//Storyboard Sound Samples
//Background Colour Transformations
3,100,255,170,213

[TimingPoints]
539,333.333333333333,4,1,1,100,1,0
11038,-100,4,1,1,80,0,0
11205,-100,4,1,1,80,0,1
11288,-100,4,1,1,80,0,0
21705,-100,4,1,1,100,0,0
24455,-100,4,1,1,80,0,0
27122,-100,4,1,1,100,0,0
29788,-100,4,1,1,80,0,0
32455,-100,4,1,1,90,0,0
41788,-100,4,1,1,80,0,0
53205,-100,4,1,1,100,0,0
58205,-100,4,1,1,80,0,0
58455,-100,4,1,1,60,0,0
59205,-100,4,1,1,100,0,0
59622,-100,4,1,1,80,0,0
60122,-100,4,1,1,100,0,0
60622,-100,4,1,1,80,0,0
61122,-100,4,1,1,100,0,0
61622,-100,4,1,1,80,0,0
62122,-100,4,1,1,100,0,0
62622,-100,4,1,1,80,0,0
63122,-100,4,1,1,100,0,0
63622,-100,4,1,1,80,0,0
64122,-100,4,1,1,100,0,0
64622,-100,4,1,1,80,0,0
65122,-100,4,1,1,100,0,0
65622,-100,4,1,1,80,0,0
66122,-100,4,1,1,100,0,0
66622,-100,4,1,1,80,0,0
67122,-100,4,1,1,100,0,0
68538,-100,4,1,1,90,0,0
69872,-100,4,1,1,80,0,1
69955,-100,4,1,1,80,0,0
90538,-100,4,1,1,100,0,0
91038,-100,4,1,1,80,0,0
91705,-133.333333333333,4,1,1,80,0,0
92372,-100,4,1,1,80,0,0
94372,-133.333333333333,4,1,1,80,0,0
95038,-100,4,1,1,80,0,0
97038,-133.333333333333,4,1,1,80,0,0
97705,-100,4,1,1,80,0,0
99705,-133.333333333333,4,1,1,80,0,0
100372,-100,4,1,1,80,0,0
101788,-100,4,1,1,100,0,0
125872,-100,4,1,1,100,0,1
125955,-100,4,1,1,100,0,0
137538,-100,4,1,1,100,0,1
137622,-100,4,1,1,100,0,0

[Colours]
Combo1 : 243,182,114
Combo2 : 83,249,149
Combo3 : 70,175,253
Combo4 : 241,253,100
Combo5 : 240,80,80

[HitObjects]
32,64,539,5,4
80,208,705,1,0
208,48,872,1,0
208,192,1038,1,0
384,80,1205,1,0
336,224,1372,1,0
512,160,1538,1,0
448,288,1705,1,0
144,320,1872,5,0
168,305,1955,1,0
196,297,2038,1,0
225,294,2122,1,0
254,297,2205,2,0,B|320:320|384:288,1,105
464,224,2538,1,8
352,144,2705,1,8
224,160,2872,1,8
48,80,3205,5,0
78,89,3288,1,0
109,94,3372,1,0
140,89,3455,1,0
169,77,3538,1,0
272,32,3705,1,0
384,80,3872,1,0
240,192,4038,1,0
267,184,4122,1,0
297,183,4205,1,0
416,208,4372,1,0
480,336,4538,1,0
447,346,4622,1,0
411,350,4705,1,0
376,346,4788,1,0
339,336,4872,1,0
240,272,5038,1,0
48,336,5205,2,0,B|176:352|240:272,1,210
416,64,5872,5,4
320,112,6038,1,0
208,112,6205,2,0,B|144:112|80:64,1,105
48,240,6538,1,0
160,192,6705,1,0
288,192,6872,2,0,B|352:192|400:224,1,105
464,320,7205,1,0
431,330,7288,1,0
397,333,7372,1,0
366,329,7455,1,0
336,320,7538,2,0,B|272:288|208:304,1,105
128,304,7872,1,8
48,192,8038,1,8
160,96,8205,1,8
448,64,8538,5,0
422,86,8622,1,0
399,114,8705,1,0
385,145,8788,1,0
378,181,8872,1,0
416,288,9038,1,0
288,336,9205,1,0
206,228,9372,1,0
218,195,9455,1,0
224,160,9538,1,0
206,52,9705,1,0
64,96,9872,5,0
76,130,9955,1,0
89,166,10038,1,0
92,201,10122,1,0
86,237,10205,1,0
71,271,10288,1,0
55,304,10372,1,0
48,336,10455,1,0
52,371,10538,2,0,B|160:304|272:336,1,210
448,144,11205,5,4
336,96,11372,1,2
304,112,11455,1,2
272,128,11538,1,0
160,64,11705,1,2
80,144,11872,2,0,B|48:96|-16:64,1,105,0|2
32,256,12205,2,0,B|96:256|144:304,1,105,2|2
288,352,12538,5,0
384,272,12705,1,2
400,238,12788,1,2
409,197,12872,1,0
352,80,13038,1,2
128,160,13205,2,0,B|192:160|256:128,1,105,0|2
256,256,13538,1,0
225,275,13622,1,2
190,287,13705,1,2
151,287,13788,1,2
116,279,13872,6,0,B|48:273|0:225,1,105,2|2
32,208,14122,1,2
48,176,14205,2,0,B|64:128|48:48,1,105,0|2
272,48,14538,2,0,B|240:96|224:176,1,105,0|2
432,272,14872,2,0,B|416:208|368:160,1,105,2|2
224,336,15205,5,0
96,272,15372,1,2
69,242,15455,1,2
52,202,15538,1,0
96,80,15705,1,2
240,48,15872,1,2
259,81,15955,1,2
267,119,16038,1,2
263,157,16122,1,2
247,192,16205,2,0,B|208:256|224:320,1,105,4|2
384,240,16538,5,4
480,128,16705,1,2
443,112,16788,1,2
402,104,16872,2,0,B|349:90|258:104,1,105,0|2
176,288,17205,2,0,B|240:272|272:224,1,105,0|2
144,112,17538,1,2
32,208,17705,1,2
112,320,17872,6,0,B|144:368|208:384,1,105,0|2
234,384,18122,1,2
270,377,18205,1,0
400,320,18372,1,2
432,176,18538,2,0,B|368:176|304:208,1,105,0|2
112,112,18872,1,0
144,128,18955,1,2
179,137,19038,1,2
224,128,19122,1,2
256,112,19205,6,0,B|311:93|368:96,1,105,2|2
397,100,19455,1,2
416,133,19538,2,0,B|480:149|528:197,1,105,0|2
416,304,19872,1,2
272,224,20038,1,2
237,234,20122,1,2
199,249,20205,2,0,B|151:265|87:313,1,105,0|2
32,160,20538,5,10
432,144,20872,1,10
128,32,21205,1,10
368,288,21538,1,0
368,288,21872,6,0,B|288:368|144:336,1,210,14|0
48,240,22372,1,2
128,112,22538,2,0,B|240:64|368:112,1,210,2|0
464,208,23038,1,2
368,336,23205,2,0,B|320:368|240:368,1,105,10|0
80,256,23538,2,0,B|128:224|192:224,1,105,10|0
416,64,23872,2,0,B|368:112|304:128,1,105,10|0
64,48,24205,2,0,B|128:48|192:80,1,105,0|10
48,240,24538,6,0,B|160:192|256:240,1,210,2|0
368,320,25038,1,2
448,224,25205,2,0,B|496:176|512:112,1,105,0|2
496,96,25455,1,2
474,59,25538,2,0,B|410:91|330:91,1,105,0|2
240,144,25872,1,0
96,103,26038,1,2
75,136,26122,1,2
64,176,26205,2,0,B|48:247|96:304,1,105,0|2
192,368,26538,1,2
335,346,26705,1,0
352,310,26788,1,2
368,272,26872,2,0,B|384:208|352:144,1,105,2|2
208,64,27205,6,0,B|320:16|432:64,1,210,14|0
496,208,27705,1,2
384,336,27872,2,0,B|288:384|128:336,1,210,10|0
80,208,28372,1,2
176,80,28538,2,0,B|223:45|304:32,1,105,10|0
416,208,28872,2,0,B|384:160|320:144,1,105,10|0
112,256,29205,2,0,B|169:247|224:208,1,105,10|0
384,352,29538,2,0,B|320:352|256:320,1,105,0|10
64,256,29872,6,0,B|144:160|272:208,1,210,2|0
384,256,30372,1,2
480,144,30538,1,0
368,48,30705,1,2
330,39,30788,1,2
291,47,30872,1,2
160,112,31038,1,2
64,272,31205,2,0,B|128:256|160:208,1,105,2|2
185,197,31455,1,2
222,183,31538,2,0,B|270:151|350:151,1,105,0|2
464,160,31872,1,2
480,304,32038,1,2
440,311,32122,1,2
401,301,32205,1,0
272,224,32372,1,2
192,64,32538,6,0,B|320:32|400:96,1,210,4|0
464,240,33038,1,2
320,336,33205,2,0,B|224:384|112:304,1,210,2|0
48,160,33705,1,2
176,64,33872,2,0,B|224:32|288:32,1,105,2|0
400,176,34205,2,0,B|336:176|288:128,1,105,2|2
160,256,34538,2,0,B|288:240|368:368,1,210,2|0
480,272,35038,1,2
432,128,35205,6,0,B|304:112|240:256,1,210,2|0
192,352,35705,1,2
64,288,35872,1,0
30,132,36038,1,2
64,112,36122,1,2
102,102,36205,1,0
240,176,36372,1,2
384,128,36538,2,0,B|368:0,1,105,0|2
420,32,36788,1,2
464,48,36872,2,0,B|480:192,1,105,0|2
448,288,37205,2,0,B|336:240|256:288,1,157.5,2|2
256,288,37538,1,0
96,320,37705,1,2
16,192,37872,6,0,B|128:224|240:128,1,210,6|0
320,64,38372,1,2
464,208,38538,2,0,B|336:176|240:272,1,210,2|0
176,336,39038,1,2
384,368,39205,2,0,B|368:320|320:272,1,105,2|0
112,224,39538,2,0,B|160:192|192:144,1,105,2|2
352,48,39872,2,0,B|288:160|384:256,1,210,2|0
464,320,40372,1,2
464,176,40538,6,0,B|336:128|224:224,1,210,6|0
64,304,41038,2,0,B|116:306|176:288,1,105,2|0
336,320,41372,1,2
354,283,41455,1,2
362,245,41538,2,0,B|370:176|322:112,1,105,0|2
208,64,41872,1,2
80,192,42038,1,2
105,221,42122,1,2
144,240,42205,1,0
304,256,42372,1,2
400,144,42538,2,0,B|336:48|192:64,1,210,2|0
80,144,43038,1,2
64,176,43122,1,0
48,208,43205,6,0,B|16:288,3,52.5,4|0|2|0
144,224,43538,2,0,B|208:208,3,52.5,0|0|2|0
288,176,43872,2,0,B|304:240,3,52.5,0|0|2|0
400,240,44205,2,0,B|464:192,3,52.5,0|0|2|0
488,115,44538,5,0
452,101,44622,1,0
412,93,44705,1,2
371,89,44788,1,0
331,91,44872,1,2
288,96,44955,1,0
249,106,45038,1,2
210,119,45122,1,0
173,137,45205,1,2
136,160,45288,1,0
109,186,45372,1,0
84,215,45455,1,0
60,252,45538,1,2
43,289,45622,1,0
30,330,45705,1,2
26,370,45788,1,0
112,352,45872,6,0,B|176:336,3,52.5,0|0|2|0
240,256,46205,2,0,B|176:240,3,52.5,0|0|2|0
304,176,46539,2,0,B|368:144,3,52.5,0|0|2|0
448,96,46872,2,0,B|384:64,3,52.5,0|0|2|0
496,176,47205,5,0
467,205,47288,1,0
436,236,47372,1,2
400,256,47455,1,0
359,270,47538,1,2
319,283,47622,1,0
277,286,47705,1,2
234,280,47788,1,0
194,264,47872,1,2
157,244,47955,1,0
123,220,48038,1,0
92,189,48122,1,0
64,156,48205,1,2
46,120,48288,1,0
38,77,48372,1,2
38,32,48455,1,0
128,64,48538,6,0,B|192:32,1,52.5,4|0
192,112,48705,2,0,B|256:80,1,52.5,2|0
256,160,48872,2,0,B|320:128,1,52.5
320,208,49038,2,0,B|384:176,1,52.5,2|0
432,288,49205,2,0,B|368:256,1,52.5
336,320,49372,2,0,B|272:288,1,52.5,2|0
240,352,49538,2,0,B|176:320,1,52.5
144,384,49705,2,0,B|80:352,1,52.5,2|0
32,304,49872,5,0
61,279,49955,1,0
86,245,50038,1,2
104,208,50122,1,0
117,167,50205,1,2
122,125,50288,1,0
112,83,50372,1,2
82,53,50455,1,0
40,46,50538,1,2
7,74,50622,1,0
0,117,50705,1,0
24,152,50788,1,0
69,158,50872,1,2
108,142,50955,1,0
143,113,51038,1,2
176,95,51122,1,0
214,73,51205,5,6
254,60,51288,1,0
298,65,51372,1,2
338,87,51455,1,0
360,120,51538,1,2
340,162,51622,1,0
321,199,51705,1,2
329,246,51788,1,0
358,276,51872,1,2
402,288,51955,1,2
439,271,52038,1,2
466,231,52122,1,2
449,188,52205,1,2
427,150,52288,1,2
409,110,52372,1,2
413,63,52455,1,2
336,32,52538,6,0,B|288:80,3,52.5,4|0|2|2
192,80,52872,2,0,B|224:128,3,52.5,2|0|2|0
288,192,53205,1,8
96,304,53372,1,8
80,96,53538,1,8
354,326,53872,5,8
452,263,54038,1,8
474,227,54122,1,0
489,187,54205,1,0
368,144,54372,1,0
368,144,54538,1,0
240,64,54705,1,0
218,101,54788,1,0
203,143,54872,1,0
208,272,55038,1,0
208,272,55205,5,0
62,285,55372,1,0
32,256,55455,1,0
11,215,55538,1,0
48,80,55705,1,0
48,80,55872,1,0
208,48,56038,1,0
222,86,56122,1,0
221,131,56205,1,0
176,256,56372,1,0
176,256,56538,5,8
304,320,56705,1,8
346,310,56788,1,0
390,286,56872,1,0
464,160,57038,1,0
464,160,57205,1,0
336,64,57372,1,0
307,95,57455,1,0
292,138,57538,1,0
240,272,57705,6,0,B|192:304|112:320,1,105,8|0
160,176,58038,2,0,B|192:112|176:32,1,105,8|0
32,112,58372,1,0
32,112,58538,2,0,B|96:160,3,52.5,0|0|2|0
32,224,58872,2,0,B|16:160,3,52.5,0|0|2|0
112,240,59205,5,8
288,256,59372,1,10
222,111,59538,1,14
264,101,59622,1,2
304,101,59705,1,2
346,116,59788,1,2
383,142,59872,1,2
424,160,59955,1,2
467,157,60038,1,2
480,304,60205,5,8
368,240,60371,1,10
272,336,60538,1,14
231,348,60622,1,2
189,341,60705,1,2
155,313,60788,1,2
130,277,60872,1,2
99,251,60955,1,2
59,240,61038,1,2
48,80,61204,5,8
176,32,61371,1,10
288,80,61538,1,14
309,119,61622,1,2
315,163,61705,1,2
295,201,61788,1,2
274,240,61872,1,2
286,282,61955,1,2
317,312,62038,1,10
496,288,62205,5,0
416,144,62372,1,10
256,192,62538,1,14
215,209,62622,1,2
171,207,62705,1,2
132,189,62788,1,2
96,170,62872,1,2
57,160,62955,1,2
12,167,63038,1,2
80,352,63205,5,8
208,272,63372,1,10
128,128,63538,1,14
161,101,63622,1,2
201,84,63705,1,2
244,76,63788,1,2
287,74,63872,1,2
332,79,63955,1,2
373,94,64038,1,2
480,256,64205,5,8
368,352,64372,1,10
267,232,64538,1,14
234,199,64622,1,2
191,180,64705,1,2
148,172,64788,1,2
101,182,64872,1,2
62,204,64955,1,2
33,239,65038,1,2
160,352,65205,5,8
256,208,65372,1,10
432,176,65538,1,14
403,141,65622,1,2
362,119,65705,1,2
321,109,65788,1,2
275,117,65872,1,2
235,134,65955,1,2
196,166,66038,1,10
96,272,66205,5,0
16,128,66372,1,10
160,32,66538,1,14
205,31,66622,1,2
250,41,66705,1,2
287,63,66788,1,2
318,95,66872,1,2
341,133,66955,1,2
351,178,67038,1,2
448,336,67205,6,0,B|352:368|256:288,1,157.5,10|0
192,208,67538,2,0,B|272:256|368:224,1,157.5,10|0
416,112,67872,2,0,B|336:144,1,52.5,8|0
304,96,68038,2,0,B|240:80,1,52.5,10|0
192,128,68205,2,0,B|112:144,1,52.5,8|0
80,96,68372,2,0,B|32:80,1,52.5,10|0
16,208,68538,6,0,B|69:181|144:176,1,105,10|2
160,208,68788,1,2
208,224,68872,2,0,B|272:240|336:192,1,105,0|2
432,144,69205,1,2
458,178,69288,1,2
471,217,69372,1,2
470,258,69455,1,2
451,298,69538,1,2
419,328,69622,1,2
379,349,69705,1,2
334,351,69788,1,2
291,339,69872,6,0,B|240:304|147:307,1,105,4|2
153,317,70122,1,2
109,327,70205,2,0,B|77:199,1,105,0|2
176,112,70538,1,0
288,208,70705,1,2
384,48,70872,2,0,B|416:160,1,105,2|2
240,336,71205,5,0
380,276,71372,1,2
354,239,71455,1,2
320,208,71538,1,0
192,160,71705,1,2
16,96,71872,2,0,B|48:208,1,105,0|2
167,356,72205,1,0
201,331,72288,1,2
226,299,72372,1,2
244,257,72455,1,2
240,208,72538,6,0,B|231:148|256:96,1,105,2|2
276,75,72788,1,2
318,62,72872,2,0,B|368:64|430:46,1,105,0|2
496,176,73205,1,0
288,208,73372,1,2
464,352,73538,1,2
208,352,73705,1,2
32,256,73872,6,0,B|32:176|80:128,1,105,0|2
96,128,74122,1,2
144,144,74205,2,0,B|192:112|256:112,1,105,0|2
416,112,74538,1,0
484,289,74705,1,2
448,304,74788,1,2
405,315,74872,2,0,B|357:324|276:305,1,105,4|2
160,256,75205,5,4
74,115,75372,1,2
116,93,75455,1,2
160,80,75538,2,0,B|211:55|277:51,1,105,0|2
448,48,75872,2,0,B|448:112|432:160,1,105,0|2
304,320,76205,2,0,B|256:304|192:304,1,105,2|2
496,304,76538,5,0
448,176,76705,1,2
418,148,76788,1,2
379,126,76872,2,0,B|336:96|240:64,1,105,0|2
64,224,77205,2,0,B|128:224|192:176,1,105,0|2
368,288,77538,1,0
330,312,77621,1,2
287,320,77705,1,2
244,311,77788,1,2
203,297,77871,6,0,B|144:256|64:256,1,105,6|2
65,259,78121,1,2
26,272,78205,1,0
80,96,78371,1,2
240,32,78538,2,0,B|288:64|304:144,1,105,0|2
416,256,78871,2,0,B|448:224|480:128,1,105,2|2
272,224,79205,6,0,B|144:256,1,105,14|2
16,64,79538,2,0,B|128:80,1,105,8|2
320,48,79871,1,8
302,87,79955,1,8
293,125,80038,1,10
298,166,80121,1,8
318,203,80205,1,10
341,238,80288,1,8
357,277,80371,1,10
352,320,80455,1,8
325,355,80538,6,0,B|261:339,3,52.5,4|0|2|0
128,320,80871,2,0,B|192:288,3,52.5,0|0|2|0
256,208,81205,2,0,B|208:176,3,52.5,0|0|2|0
80,144,81538,2,0,B|160:96,3,52.5,0|0|2|0
256,80,81871,2,0,B|224:16,3,52.5,0|0|2|0
384,80,82205,2,0,B|448:64,3,52.5,2|0|2|0
352,224,82538,2,0,B|288:192,3,52.5,2|0|0|0
432,336,82872,2,0,B|512:352,3,52.5,2|0|2|0
304,352,83205,5,0
256,362,83288,1,0
212,354,83371,1,2
177,329,83455,1,0
152,296,83538,1,0
139,257,83621,1,0
133,210,83705,1,2
147,165,83788,1,0
174,131,83871,1,0
214,112,83955,1,0
257,103,84038,1,2
298,110,84121,1,0
337,121,84205,1,0
379,125,84288,1,0
417,115,84371,1,2
448,87,84455,1,0
463,44,84538,5,0
428,20,84621,1,0
386,34,84705,1,2
341,41,84788,1,0
296,34,84871,1,2
251,22,84955,1,0
205,24,85038,1,2
158,34,85121,1,0
116,54,85205,1,2
84,88,85288,1,0
78,132,85371,1,0
92,170,85455,1,0
115,209,85538,1,2
129,250,85621,1,0
114,293,85705,1,2
117,336,85788,1,0
208,304,85871,6,0,B|256:352,3,52.5,4|0|2|0
320,192,86205,2,0,B|288:256,3,52.5,0|0|2|0
432,256,86538,2,0,B|496:288,3,52.5,0|0|2|0
416,144,86871,2,0,B|400:80,3,52.5,0|0|2|0
288,48,87205,2,0,B|256:96,3,52.5,0|0|2|0
64,64,87538,2,0,B|112:48,3,52.5,2|0|2|0
208,192,87871,2,0,B|144:176,3,52.5,2|0|0|0
32,272,88205,2,0,B|80:288,3,52.5,2|0|2|0
128,368,88538,5,6
171,375,88621,1,0
211,363,88705,1,2
241,337,88788,1,0
264,303,88871,1,2
287,269,88955,1,0
321,243,89038,1,2
361,228,89121,1,0
402,225,89205,1,2
442,235,89288,1,0
477,260,89371,1,2
488,303,89455,1,2
466,343,89538,1,2
421,353,89621,1,2
381,328,89705,1,2
360,292,89788,1,2
363,246,89871,5,6
376,205,89955,1,0
396,165,90038,1,2
410,124,90121,1,2
384,82,90205,1,2
347,55,90288,1,0
305,42,90371,1,2
256,48,90455,1,0
213,68,90538,1,8
16,176,90705,1,8
192,336,90872,1,8
160,208,91205,5,12
160,208,91538,1,0
160,208,91871,2,0,B|240:160|336:176,1,157.499995306134
448,352,92538,5,0
400,288,92705,1,2
464,240,92871,1,0
416,176,93038,1,2
480,128,93205,1,2
432,64,93371,1,2
416,48,93455,1,2
400,32,93538,2,0,B|288:16,1,105,8|0
64,176,93871,5,8
64,176,94205,1,0
64,176,94538,2,0,B|128:128|224:128,1,157.499995306134
240,352,95205,5,8
320,304,95371,1,2
256,240,95538,1,8
336,192,95705,1,2
272,128,95871,1,8
352,80,96038,1,2
368,64,96121,1,2
384,48,96205,2,0,B|512:32,1,105,8|0
288,256,96538,5,8
288,256,96871,1,8
288,256,97205,2,0,B|224:192|112:192,1,157.499995306134,8|8
64,368,97872,5,8
160,320,98037,1,2
80,256,98204,1,8
176,208,98371,1,2
96,144,98537,1,8
192,96,98704,1,2
208,80,98787,1,2
224,64,98871,2,0,B|352:48,1,105,8|0
464,272,99205,5,8
464,272,99538,1,8
464,272,99872,2,0,B|384:240|304:240,1,157.499995306134
160,368,100538,5,0
48,320,100704,1,2
144,272,100871,1,0
32,208,101038,1,2
128,160,101204,1,0
16,96,101371,1,10
32,80,101454,1,10
48,64,101538,2,0,B|176:32,1,105,8|0
416,112,101871,5,0
464,240,102038,1,2
459,283,102121,1,2
438,321,102205,1,0
304,192,102371,1,2
304,192,102538,1,0
160,240,102705,1,2
142,280,102788,1,2
134,324,102871,1,0
32,192,103038,1,2
256,112,103205,5,4
51,46,103371,1,2
82,74,103455,1,2
121,90,103538,1,0
304,48,103705,1,2
477,37,103871,1,8
485,79,103955,1,8
481,121,104038,1,10
459,155,104121,1,8
429,186,104205,1,10
391,201,104288,1,0
349,207,104371,1,10
311,197,104455,1,0
270,179,104538,6,0,B|197:158,3,52.5,4|0|2|0
224,272,104871,2,0,B|288:288,3,52.5,0|0|2|0
177,352,105205,1,2
134,353,105288,1,0
96,339,105371,1,2
66,306,105455,1,0
44,265,105538,2,0,B|13:211|44:153,1,105,2|2
336,112,105871,6,0,B|256:32|128:64,1,210,2|2
224,192,106371,1,2
134,332,106538,1,0
176,352,106621,1,2
222,358,106705,1,2
268,341,106788,1,2
304,320,106871,2,0,B|354:287|432:288,1,105,0|2
496,192,107205,5,0
400,96,107371,1,2
365,123,107455,1,2
325,138,107538,1,2
283,144,107621,1,2
241,135,107705,1,2
201,119,107788,1,2
171,89,107871,1,0
5,206,108038,1,2
41,187,108121,1,2
80,176,108205,1,0
192,240,108371,1,2
169,273,108455,1,2
153,314,108538,5,2
159,354,108622,1,2
184,382,108705,1,2
219,367,108788,1,2
256,349,108871,2,0,B|304:320|384:320,1,105,0|2
394,323,109121,1,2
434,325,109205,2,0,B|464:288|480:208,1,105,0|2
256,48,109538,2,0,B|273:102|304:144,1,105,2|0
144,224,109871,5,0
48,80,110038,1,2
86,65,110121,1,2
128,57,110205,1,2
171,60,110288,1,2
213,72,110371,1,2
254,75,110455,1,2
295,67,110538,1,2
338,58,110621,1,2
382,61,110705,1,2
426,77,110788,1,2
459,99,110871,1,2
491,136,110955,1,2
507,180,111038,1,2
320,288,111205,6,0,B|384:288|432:256,1,105,0|2
240,160,111538,2,0,B|192:128|96:112,1,105,0|2
48,304,111871,1,0
84,285,111955,1,2
125,274,112038,1,2
166,268,112121,1,2
206,270,112205,1,2
249,280,112288,1,2
290,291,112371,1,2
328,314,112455,1,2
357,338,112538,6,0,B|416:336|485:290,1,105,0|2
486,281,112788,1,2
500,245,112871,2,0,B|404:149,1,105,0|2
240,64,113205,2,0,B|208:112|160:144,1,105,0|2
132,160,113455,1,2
91,173,113538,2,0,B|160:272,1,105,0|2
304,352,113871,5,2
282,318,113955,1,2
279,278,114038,1,2
295,239,114121,1,2
323,208,114205,1,2
348,178,114288,1,2
365,139,114371,1,2
356,98,114455,1,2
329,64,114538,1,0
96,144,114705,1,2
139,158,114788,1,2
181,171,114872,2,0,B|255:180|319:132,1,105,0|2
448,64,115205,5,4
496,240,115371,1,2
452,231,115455,1,2
408,224,115538,1,2
362,230,115621,1,2
322,243,115705,1,2
276,256,115788,1,2
232,251,115871,1,0
44,312,116038,1,2
64,272,116121,1,2
76,229,116205,1,0
48,48,116371,1,2
192,112,116538,6,0,B|240:80|320:80,1,105,0|2
464,96,116871,1,0
480,240,117038,1,2
443,266,117122,1,2
403,282,117205,1,2
358,285,117288,1,2
316,271,117371,1,2
284,242,117455,1,2
260,204,117538,1,0
176,64,117705,1,2
142,92,117788,1,2
101,107,117871,5,0
26,250,118038,1,2
59,224,118121,1,2
99,207,118205,1,2
143,201,118288,1,2
187,206,118371,1,2
228,218,118455,1,2
272,240,118538,1,0
464,272,118705,1,2
439,235,118788,1,2
428,194,118871,1,0
288,48,119038,1,2
276,91,119121,1,2
264,133,119205,6,0,B|247:194|192:256,1,105,0|2
184,256,119455,1,2
146,274,119538,1,0
32,128,119705,1,2
67,102,119788,1,2
114,90,119871,1,0
288,80,120038,1,2
416,208,120205,2,0,B|368:240|288:240,1,105,0|2
160,176,120538,5,0
32,304,120705,1,2
74,291,120788,1,2
115,286,120871,1,2
157,290,120955,1,2
197,302,121038,1,2
238,311,121121,1,2
282,307,121205,1,2
325,306,121288,1,2
367,292,121371,1,2
407,277,121455,1,2
448,252,121538,2,0,B|484:197|484:133,1,105,0|2
336,32,121872,5,0
144,80,122038,1,2
368,176,122205,1,2
96,224,122372,1,2
384,336,122538,1,0
340,325,122621,1,2
303,305,122705,1,2
259,290,122788,1,2
213,281,122871,1,2
171,264,122955,1,2
128,272,123038,1,2
16,144,123205,5,8
53,131,123288,1,2
90,106,123371,1,2
135,106,123455,1,2
178,92,123538,2,0,B|222:69|288:64,1,105,10|2
480,208,123871,1,8
435,200,123955,1,2
394,199,124038,1,10
352,208,124121,1,10
311,202,124205,1,10
267,210,124288,1,2
218,216,124371,1,10
32,352,124538,5,12
63,318,124621,1,2
86,275,124705,1,10
81,230,124788,1,2
70,192,124871,1,10
57,149,124955,1,2
62,106,125038,1,10
89,71,125121,1,2
124,52,125205,2,0,B|204:20,3,52.5,10|8|10|8
210,125,125538,2,0,B|274:93,3,52.5,10|8|10|8
304,192,125871,6,0,B|368:176|432:192,1,105,4|2
450,199,126121,1,2
482,225,126205,2,0,B|429:343,1,105,0|2
272,352,126538,1,0
80,304,126705,1,2
240,208,126871,1,2
48,128,127038,1,2
240,48,127205,6,0,B|288:32|368:32,1,105,0|2
384,48,127455,1,2
424,66,127538,2,0,B|408:178,1,105,0|2
288,288,127871,1,0
144,128,128038,1,2
16,320,128205,1,0
58,308,128288,1,2
94,278,128371,1,2
123,241,128455,1,2
142,199,128538,6,0,B|270:167,1,105,2|2
285,163,128788,1,2
329,153,128871,1,0
496,240,129038,1,2
336,320,129205,2,0,B|288:288|224:288,1,105,0|2
0,208,129538,2,0,B|64:208|128:160,1,105,2|2
272,80,129871,5,0
96,32,130038,1,2
65,63,130121,1,2
47,107,130205,1,0
64,256,130371,1,2
352,128,130538,1,0
192,352,130705,1,2
176,96,130872,1,6
368,304,131038,1,2
64,192,131205,5,4
201,139,131371,1,2
240,128,131455,1,2
283,125,131538,1,0
432,192,131705,1,2
336,320,131871,2,0,B|256:352|192:336,1,105,0|2
304,64,132205,2,0,B|368:64|432:112,1,105,2|2
224,208,132538,5,0
32,288,132705,1,2
60,252,132788,1,2
80,208,132871,2,0,B|96:160|64:96,1,105,0|2
336,80,133205,2,0,B|272:96|240:160,1,105,0|2
317,324,133538,1,0
355,298,133621,1,2
379,263,133705,1,2
397,223,133788,1,2
400,176,133871,5,0
212,81,134038,1,2
184,120,134121,1,2
172,163,134205,2,0,B|169:219|201:267,1,105,0|2
304,160,134538,1,0
48,112,134705,1,2
66,149,134788,1,2
64,194,134871,1,0
128,352,135038,1,2
169,336,135121,1,2
212,323,135205,6,0,B|302:295|398:327,1,157.5,6|0
448,240,135538,2,0,B|368:256|272:208,1,157.5,6|0
176,144,135871,2,0,B|272:144|352:96,1,157.5,6|0
480,64,136205,2,0,B|400:64|304:16,1,157.5,2|0
192,48,136538,5,10
48,176,136705,1,10
160,320,136871,1,10
336,272,137038,1,10
368,112,137205,1,10
220,185,137538,5,4
