osu file format v9

[General]
AudioFilename: BSPower Explosion1.mp3
AudioLeadIn: 1996
PreviewTime: 68538
Countdown: 0
SampleSet: Normal
StackLeniency: 0.6
Mode: 0
LetterboxInBreaks: 0

[Editor]
Bookmarks: 11205,21872,29872,37872,43205,53872,59205,67872,69872,80538,91205,104538,115205,125872,137538
DistanceSpacing: 1.3
BeatDivisor: 4
GridSize: 4

[Metadata]
Title:BSPower Explosion
Artist:Memme
Creator:AngelHoney
Version:Another
Source:O2jam Analog
Tags:Natteke val0108 manten TW-KUMA01 yongtw123

[Difficulty]
HPDrainRate:7
CircleSize:4
OverallDifficulty:7
ApproachRate:9
SliderMultiplier:1.9
SliderTickRate:1

[Events]
//Background and Video events
0,0,"24109350.jpg"
//Break Periods
2,91405,92938
//Storyboard Layer 0 (Background)
//Storyboard Layer 1 (Fail)
//Storyboard Layer 2 (Pass)
//Storyboard Layer 3 (Foreground)
//Storyboard Sound Samples
//Background Colour Transformations
3,100,255,170,213

[TimingPoints]
539,333.333333333333,4,1,2,100,1,0
54080,-100,4,1,1,100,0,0
56497,-100,4,1,2,100,0,0
56747,-100,4,1,1,100,0,0
57622,-100,4,1,2,100,0,0
58122,-100,4,1,1,100,0,0
58788,-100,4,1,2,100,0,0
68622,-100,4,1,1,100,0,0
69872,-100,4,1,2,100,0,0
94372,-200,4,2,0,50,0,0
95122,-100,4,1,2,100,0,0
96622,-100,4,2,0,100,0,0
96788,-100,4,1,2,100,0,0
96954,-100,4,2,0,100,0,0
97120,-100,4,1,2,100,0,0
97286,-100,4,2,0,100,0,0
97452,-100,4,1,2,100,0,0
97618,-100,4,2,0,100,0,0
97784,-100,4,1,2,100,0,0
97950,-100,4,2,0,100,0,0
98116,-100,4,1,2,100,0,0
98282,-100,4,2,0,100,0,0
98448,-100,4,1,2,100,0,0
98614,-100,4,2,0,100,0,0
98780,-100,4,1,2,100,0,0
98946,-100,4,2,0,100,0,0
99112,-100,4,1,2,100,0,0
99288,-100,4,2,0,100,0,0
99454,-100,4,1,2,100,0,0
99620,-100,4,2,0,100,0,0
99786,-100,4,1,2,100,0,0
99952,-100,4,2,0,100,0,0
100118,-100,4,1,2,100,0,0
100284,-100,4,2,0,100,0,0
100450,-100,4,1,2,100,0,0
100622,-100,4,2,0,100,0,0
100788,-100,4,1,2,100,0,0
100954,-100,4,2,0,100,0,0
101120,-100,4,1,2,100,0,0
101286,-100,4,2,0,100,0,0
101452,-100,4,1,2,100,0,0
101705,-100,4,1,1,100,0,0
104538,-83.3333333333333,4,1,2,100,0,0

[Colours]
Combo1 : 243,182,114
Combo2 : 83,249,149
Combo3 : 70,175,253
Combo4 : 241,253,100
Combo5 : 240,80,80

[HitObjects]
384,232,539,2,0,B|372:180|392:100,2,95,6|0|8
400,240,1038,2,0,B|451:255|510:312,2,95,6|0|8
376,244,1538,2,0,B|336:280|257:303,1,95,6|0
228,212,1872,5,0
244,184,1955,1,2
252,152,2038,1,8
248,120,2122,1,0
232,92,2205,1,2
120,144,2372,1,2
128,268,2538,1,8
16,212,2705,1,8
120,144,2872,1,12
340,252,3205,5,4
348,220,3288,1,2
368,192,3372,1,0
396,176,3455,1,2
428,168,3538,1,0
460,288,3705,1,8
296,148,3872,6,0,B|316:100|296:40,1,95,4|8
300,54,4122,1,0
300,54,4205,1,6
208,208,4372,1,0
344,312,4538,5,6
312,304,4622,1,2
280,304,4705,1,8
248,308,4788,1,8
220,324,4872,1,4
168,44,5038,1,0
180,172,5205,2,4,B|112:192|112:192|92:220|108:340,1,190,12|2
316,128,5705,5,0
316,128,5788,1,0
316,128,5872,2,0,B|332:76|324:24,2,95,6|8|0
170,172,6372,2,0,B|117:184|76:217,2,95,14|0|8
281,275,6872,2,0,B|318:315|367:334,1,95,6|8
256,192,7205,5,4
256,192,7288,1,2
256,192,7372,1,2
256,192,7455,1,8
256,192,7538,2,8,B|256:92,1,95
148,256,7872,1,2
256,356,8038,1,2
364,256,8205,1,6
64,76,8538,5,2
84,104,8622,1,2
112,120,8705,1,8
144,128,8788,1,8
176,124,8872,1,2
284,68,9038,1,2
300,192,9205,1,12
300,192,9372,1,2
308,224,9455,1,2
332,248,9538,1,12
456,296,9705,1,2
248,336,9872,5,12
236,304,9955,1,8
212,280,10038,1,8
184,264,10122,1,8
152,256,10205,1,12
120,256,10288,1,8
88,268,10372,1,8
60,288,10455,1,8
44,316,10538,1,6
132,64,11205,6,0,B|232:84,1,95,4|0
225,82,11455,1,0
225,82,11538,1,8
464,64,11705,2,0,B|364:84,2,95,0|0|8
300,240,12205,2,0,B|300:136,1,95,0|8
460,252,12538,6,0,B|444:300|392:320,1,95
396,318,12788,1,0
396,318,12872,1,8
264,296,13038,2,0,B|230:258|239:203,1,95,0|2
332,112,13372,2,0,B|381:101|424:136,1,95,0|2
432,168,13622,1,8
420,200,13705,1,2
392,216,13788,1,2
360,212,13872,6,0,B|310:222|267:187,1,95
244,168,14122,1,0
224,140,14205,2,0,B|184:107|134:117,1,95,8|0
32,204,14538,2,0,B|23:254|57:292,1,95,0|2
184,336,14872,2,0,B|231:317|247:269,1,95,0|2
360,273,15205,6,0,B|376:321|424:340,1,95,0|0
423,339,15455,1,0
423,339,15538,1,2
304,112,15705,2,0,B|304:212,2,95,0|8|0
192,40,16205,1,2
188,72,16288,1,2
168,100,16372,1,2
140,120,16455,1,2
108,128,16538,6,0,B|52:140|24:92,1,95,4|0
25,95,16788,1,0
25,95,16872,1,2
200,228,17038,2,0,B|226:183|282:195,1,95
464,224,17372,2,0,B|437:268|381:256,2,95,8|0|8
344,32,17872,6,0,B|344:132,1,95
344,127,18122,1,0
344,127,18205,1,8
200,228,18372,2,0,B|200:128,1,95,0|2
464,224,18705,1,0
348,272,18872,1,8
328,296,18955,1,0
300,312,19038,1,0
268,320,19122,1,0
236,324,19205,6,0,B|176:344|128:320,1,95,4|0
112,312,19455,1,0
88,288,19538,1,2
288,96,19705,2,0,B|312:136|296:200,1,95,0|8
112,108,20038,2,0,B|88:68|104:4,2,95,2|2|8
192,200,20538,5,6
192,200,20872,1,4
192,200,21205,1,4
56,64,21872,5,4
28,128,22205,5,2
144,176,22372,1,8
264,208,22538,1,4
16,188,22872,5,2
140,256,23038,1,8
276,296,23205,5,4
292,76,23372,1,2
140,256,23538,1,4
372,192,23705,1,8
156,104,23872,1,4
372,192,24038,2,0,B|440:188|440:188|460:152|460:152|460:40,1,190,2|2
444,276,24538,6,0,B|332:280,1,95,4|0
68,288,24872,2,0,B|180:284,1,95,2|0
388,188,25205,2,0,B|280:192,1,95
260,192,25455,1,0
226,192,25538,2,0,B|102:198,1,95,2|0
56,76,25872,5,0
196,68,26038,1,0
196,68,26122,1,0
196,68,26205,1,2
340,64,26372,1,0
480,60,26538,2,0,B|504:96|504:96|504:128|492:248,1,190,0|2
260,192,27038,2,0,B|384:180,1,95,0|4
64,332,27538,5,0
200,288,27705,1,0
96,192,27872,1,4
448,52,28205,5,0
312,96,28372,1,0
416,192,28539,5,4
372,56,28705,1,0
264,152,28872,5,4
384,224,29038,1,0
240,216,29205,1,4
360,292,29372,2,0,B|344:332|344:332|308:348|260:328|260:328|172:328,1,190
8,256,29872,6,0,B|84:244|84:244|208:244,1,190,4|2
352,148,30372,2,0,B|372:196|352:252,1,95
232,112,30705,1,0
232,112,30788,1,0
232,112,30872,2,0,B|212:64|232:8,1,95,2|0
337,211,31205,6,0,B|388:217|427:263,1,95,0|0
198,252,31538,2,0,B|167:294|108:304,1,95,2|0
84,128,31872,5,0
84,128,32038,2,0,B|88:88,4,23.75
312,320,32372,1,0
452,304,32538,6,0,B|448:208,1,95,4|0
356,4,32872,2,0,B|360:100,1,95,8|0
312,320,33205,2,0,B|308:224,1,95,4|0
216,20,33539,2,0,B|220:116,1,95,8|8
161,226,33872,6,0,B|120:252|120:308,1,95,4|2
424,251,34205,2,0,B|375:279|316:249,1,95,4|2
273,92,34538,2,0,B|272:44|223:16,1,95,4|0
156,112,34872,1,0
260,260,35038,1,0
356,112,35205,6,0,B|400:144|400:144|408:192|364:296,1,190,4|2
244,336,35705,1,0
248,192,35872,1,0
252,52,36038,1,0
252,52,36122,1,0
252,52,36205,1,2
248,192,36372,1,0
244,336,36538,6,0,B|192:332|156:296,1,95
158,298,36788,1,0
158,298,36872,1,2
248,192,37038,1,0
340,304,37205,2,0,B|408:296|448:220|408:144,1,190,0|2
172,80,37705,5,0
172,80,37788,1,0
172,80,37872,2,0,B|104:88|64:164|104:240,1,190,4|8
340,304,38372,1,0
340,304,38455,1,0
340,304,38539,2,0,B|408:296|448:220|408:144,1,190,4|8
172,80,39038,5,0
172,80,39122,1,0
172,80,39205,2,0,B|64:80,1,95,4|0
368,224,39538,2,0,B|476:224,1,95,4|0
92,180,39872,6,4,B|40:180|40:180|16:208|0:260|16:320|40:344|40:344|112:344,1,285,4|2
208,264,40538,6,0,B|104:264,1,95,4|0
256,168,40872,2,0,B|182:94,1,95,2|0
352,128,41205,2,0,B|352:24,1,95,0|0
352,33,41455,1,0
352,33,41538,1,8
328,240,41705,1,0
328,240,41872,5,4
28,32,42205,1,4
328,240,42538,1,4
48,300,42872,1,0
48,300,43038,2,0,B|64:268,3,23.75
48,300,43205,6,0,B|36:232|36:232|44:192|44:192|36:104,1,190,4|2
156,32,43705,1,2
156,32,43872,2,0,B|152:80|172:136,1,95
368,192,44205,2,0,B|372:144|352:88,1,95,8|0
120,92,44538,6,0,B|128:139|162:188,1,95
366,191,44871,2,0,B|357:143|323:94,1,95,2|2
64,196,45205,2,0,B|80:244|80:244|116:252|148:276|148:276|208:252,1,190,0|8
300,336,45705,1,0
300,336,45788,1,0
300,336,45872,6,0,B|388:284,1,95
472,112,46205,2,8,B|376:168,1,95
288,232,46538,2,0,B|184:192,1,95
168,48,46872,2,0,B|272:88,1,95,8|0
76,144,47205,6,0,B|44:192|76:240,1,95,0|2
300,336,47538,2,0,B|332:288|300:240,1,95,0|2
40,288,47872,2,0,B|184:288,1,142.5
182,288,48205,2,0,B|204:236|184:192,1,95,8|2
296,16,48538,6,0,B|274:68|294:112,1,95,12|0
292,108,48788,1,0
292,108,48872,1,2
300,336,49038,2,0,B|292:240,1,95
96,192,49372,1,0
96,192,49455,1,0
96,192,49538,2,0,B|200:184,1,95,8|2
476,184,49872,6,0,B|372:192,1,95,4|2
76,88,50205,2,0,B|176:96,1,95,8|0
170,288,50538,2,0,B|76:296,1,95,2|0
336,72,50872,1,0
304,224,51038,1,0
484,300,51205,6,0,B|520:200|476:108,1,190,4|2
32,114,51705,2,0,B|-8:200|28:300,1,190,4|2
304,56,52205,2,0,B|256:40|208:56,1,95,4|2
160,168,52538,5,4
244,260,52705,1,2
280,244,52788,1,2
304,212,52872,1,8
160,168,53038,1,8
120,304,53205,5,4
244,172,53372,1,4
140,28,53538,1,4
456,304,53872,5,0
380,184,54038,2,0,B|376:236,2,47.5
300,304,54372,1,0
228,184,54538,1,0
156,308,54705,2,0,B|168:232,2,47.5
80,188,55038,1,0
116,48,55205,5,0
256,84,55372,2,0,B|256:32,2,47.5
396,48,55705,1,0
456,172,55872,1,0
256,208,56038,2,0,B|256:272,2,47.5
56,172,56372,1,0
64,312,56538,5,4
64,312,56705,1,4
64,312,56788,1,0
64,312,56872,2,0,B|132:240,1,95
272,248,57205,1,0
272,248,57372,1,0
272,248,57455,1,0
272,248,57539,2,0,B|340:320,1,95,0|4
200,64,58038,5,4
256,116,58205,1,0
332,124,58372,1,0
408,112,58538,1,0
456,52,58705,1,0
476,124,58872,1,0
468,160,58955,1,0
468,196,59038,1,0
476,232,59122,1,0
488,268,59205,6,0,B|424:344,2,95,4|4|4
160,88,59705,2,0,B|356:88,1,190
24,268,60205,6,4,B|88:344,2,95
160,160,60705,2,0,B|356:160,1,190
64,56,61205,6,4,B|28:88|36:164,2,95
352,88,61705,2,0,B|156:88,1,190,0|4
448,56,62372,5,4
448,56,62538,2,4,B|484:88|476:164,1,95,4|0
404,312,62872,2,4,B|368:280|376:204,1,95,4|0
472,232,63205,5,0
376,228,63372,1,0
280,228,63538,1,0
184,220,63705,2,0,B|128:208|128:208|120:172|140:56,1,190,4|0
472,232,64205,5,0
392,152,64371,1,0
300,84,64538,1,0
216,20,64705,2,0,B|164:28|164:28|120:68|112:172,1,190,4|0
472,232,65205,5,0
344,272,65372,1,0
212,296,65538,1,0
80,320,65705,6,0,B|36:304|36:304|24:248|60:144,1,190,4|4
432,64,66372,1,4
432,64,66538,2,0,B|476:80|476:80|488:136|452:240,1,190,4|0
364,300,67038,1,0
364,300,67122,1,0
364,300,67205,6,0,B|252:304,1,95,4|0
144,312,67538,1,2
136,296,67622,1,2
144,280,67705,1,8
152,264,67789,1,8
148,244,67872,5,2
140,228,67956,1,2
148,212,68039,1,8
156,196,68123,1,8
152,176,68205,5,2
144,160,68289,1,8
152,144,68372,1,2
160,128,68456,1,8
156,108,68538,5,4
288,52,68705,6,0,B|344:40,2,47.5,0|0|0
40,132,69038,1,0
40,164,69122,1,0
40,196,69205,1,0
40,228,69288,1,0
48,260,69372,1,0
68,288,69455,1,0
96,304,69538,1,0
128,304,69622,1,0
160,304,69705,1,0
192,304,69788,1,0
224,304,69872,6,0,B|248:252|216:208,1,95,4|0
188,216,70122,1,0
156,212,70205,2,0,B|132:160|164:116,1,95,2|0
424,144,70538,2,0,B|448:196|416:240,1,95,0|8
252,68,70872,2,0,B|360:68,1,95,8|2
68,112,71205,6,0,B|96:72|160:68,1,95
149,68,71455,1,0
149,68,71538,1,2
24,280,71705,2,0,B|8:228|36:184,1,95,0|8
304,144,72038,2,0,B|320:196|292:240,1,95,0|8
272,260,72288,1,2
240,276,72372,1,2
208,280,72455,1,2
176,284,72538,6,0,B|160:232|188:188,1,95,0|0
204,164,72788,1,0
224,136,72872,1,8
348,68,73038,2,0,B|480:32,2,95,8|0|2
72,43,73538,2,0,B|164:68,1,95,2|8
304,144,73872,6,0,B|212:169,1,95,2|2
212,168,74122,1,0
212,168,74205,1,8
232,344,74372,1,0
444,352,74538,2,0,B|468:296|460:268|460:268|420:268|420:156,1,190,10|4
392,40,75038,5,0
392,40,75122,1,0
392,40,75205,2,0,B|415:90|480:80,1,95,4|0
300,92,75538,2,0,B|277:42|212:52,1,95,2|0
188,52,75788,1,0
156,52,75872,1,0
40,200,76038,1,8
180,332,76205,1,2
292,180,76372,1,8
156,48,76538,6,0,B|168:152,1,95,4|0
166,142,76788,1,0
166,142,76872,1,8
52,344,77038,2,0,B|40:240,1,95,0|2
256,72,77372,1,0
308,244,77538,1,0
352,244,77622,1,0
392,236,77705,1,2
404,196,77788,1,2
400,152,77872,6,0,B|392:96|448:80,1,95,4|0
224,100,78205,2,0,B|179:134|137:94,1,95,2|8
248,280,78538,2,0,B|300:301|286:357,1,95,4|2
292,184,78872,1,8
292,184,79038,1,2
120,116,79205,6,0,B|92:184|80:188|80:188|92:244|108:280,1,142.5,4|2
268,200,79538,2,0,B|164:204,1,95,4|2
376,268,79872,1,4
400,236,79955,1,0
412,196,80038,1,2
404,152,80122,1,2
384,116,80205,1,0
348,92,80288,1,0
308,80,80372,1,2
264,84,80455,1,2
228,108,80538,6,0,B|200:156|220:204,1,95,4|0
340,324,80872,2,0,B|358:280|330:232,1,95,2|0
136,296,81205,2,0,B|244:300,1,95,0|8
124,172,81538,2,0,B|16:168,1,95,0|8
156,52,81872,5,0
240,200,82038,1,2
316,44,82205,1,0
240,216,82372,1,2
408,184,82538,2,0,B|444:232|420:296|356:284,1,142.5
324,348,82872,2,0,B|336:296|276:272,1,95,0|8
8,268,83205,6,0,B|204:272,1,190,0|8
408,184,83705,2,0,B|304:180,1,95,2|0
108,68,84038,1,2
148,72,84122,1,2
184,76,84205,1,0
336,96,84372,1,2
332,136,84456,1,2
328,172,84538,6,0,B|316:276,1,95,0|8
444,100,84872,2,0,B|452:220,1,95,2|8
244,56,85205,2,0,B|200:88|200:88|192:116|200:184,1,142.5,8|0
199,175,85538,2,0,B|304:160,1,95,4|8
484,228,85872,6,0,B|468:288|368:308|308:260,1,190,4|8
368,100,86372,2,0,B|392:204,1,95,0|2
256,60,86705,1,0
260,96,86788,1,0
264,132,86872,1,2
164,28,87038,1,8
200,320,87205,6,0,B|188:208,1,95,4|2
456,232,87538,2,0,B|445:326,1,95,2|2
332,256,87872,2,0,B|320:180|320:180|336:152|336:152|324:64,1,190,2|8
176,32,88372,1,8
60,132,88538,5,12
92,280,88705,1,0
200,172,88872,1,2
60,132,89038,1,0
92,280,89205,1,4
128,280,89288,1,0
168,280,89372,1,2
204,280,89455,1,2
240,280,89538,1,0
276,264,89622,1,2
288,228,89705,1,2
288,192,89788,1,2
288,152,89872,6,0,B|284:128|284:128|292:120|292:120|284:108|284:108|288:100|288:100|288:72|288:16,1,142.5,4|0
288,16,90205,2,0,B|332:40|388:20,1,95,4|2
152,80,90538,1,12
420,152,90705,1,12
220,312,90872,1,12
220,312,91205,5,0
76,88,93538,5,0
436,88,93872,1,0
232,348,94538,6,0,B|232:252|288:252|284:160,1,190,4|0
84,256,95538,5,0
428,208,95872,1,0
84,80,96205,1,0
84,80,96372,2,0,B|84:48,3,23.75
84,80,96538,6,0,B|184:96,1,95,0|2
348,28,96872,2,0,B|252:80,1,95,0|2
272,240,97205,2,0,B|236:136,1,95,4|2
324,324,97538,2,0,B|336:280|372:272|420:308,1,95,0|2
212,336,97872,6,0,B|228:236,1,95,0|2
160,72,98206,2,0,B|212:168,1,95,0|2
372,148,98539,2,0,B|268:184,1,95,4|2
456,96,98872,2,0,B|412:84|404:48|440:0,1,95,0|2
424,276,99205,6,0,B|324:260,1,95,0|2
160,328,99539,2,0,B|256:276,1,95,0|2
236,116,99872,2,0,B|272:220,1,95,4|2
184,32,100205,2,0,B|172:76|136:84|88:48,1,95,0|2
380,60,100538,6,0,B|364:160,1,95,0|2
432,324,100872,2,0,B|380:228,1,95,0|2
220,248,101205,2,0,B|324:212,1,95,4|2
309,216,101455,1,0
309,216,101538,1,0
36,76,101872,6,0,B|76:44|128:52,1,95
124,51,102122,1,0
124,51,102205,1,0
120,196,102372,1,0
204,316,102538,6,0,B|164:348|112:340,1,95
115,340,102788,1,0
115,340,102871,1,0
120,196,103038,1,0
276,100,103205,6,0,B|328:116|344:176,1,95
340,164,103455,1,0
340,164,103538,1,0
336,296,103705,1,0
212,248,103872,1,0
176,248,103955,1,0
140,248,104038,1,0
104,236,104122,1,0
88,204,104205,1,0
88,168,104288,1,0
88,128,104372,1,0
88,92,104455,1,0
88,44,104538,6,0,B|208:52,1,114.000002717972,4|0
232,56,104788,1,0
260,60,104872,1,2
288,64,104955,1,0
316,68,105038,1,0
344,72,105122,1,0
372,76,105205,2,0,B|412:124|368:192,1,114.000002717972,0|8
340,352,105538,2,0,B|300:304|344:236,1,114.000002717972,0|8
204,128,105872,6,0,B|220:180|180:216|104:192,1,114.000002717972,0|0
293,172,106205,2,0,B|276:264|176:284,1,171.000004076958,2|0
144,292,106538,1,0
112,288,106622,1,0
84,268,106705,1,2
68,240,106788,1,2
64,204,106872,2,0,B|64:80,1,114.000002717972,0|8
296,224,107205,6,0,B|264:344,1,114.000002717972,0|8
266,334,107455,1,0
266,334,107538,1,2
480,160,107705,1,2
480,152,107788,1,2
480,144,107872,2,0,B|364:180,1,114.000002717972,0|8
236,48,108205,2,0,B|296:148,1,114.000002717972,0|2
448,324,108538,6,0,B|396:272|396:272|384:264|280:268,1,171.000004076958
264,276,108872,2,0,B|292:216|244:152,1,114.000002717972,2|0
224,168,109122,1,0
196,168,109205,1,2
168,168,109288,1,2
140,168,109372,1,8
112,168,109455,1,8
84,168,109538,2,0,B|48:136|32:100|68:40,1,114.000002717972,2|0
152,248,109872,6,0,B|188:280|204:316|168:376,1,114.000002717972,0|0
356,254,110205,2,0,B|366:206|389:175|459:176,1,114.000002717972,2|0
259,73,110538,2,0,B|213:89|174:84|140:23,1,114.000002717972,0|8
252,192,110872,1,0
280,188,110955,1,2
308,180,111038,1,2
328,160,111122,1,0
340,132,111205,6,0,B|464:104,1,114.000002717972,0|8
172,132,111538,2,0,B|48:104,1,114.000002717972,8|8
52,268,111872,1,2
92,256,111955,1,2
132,252,112038,1,8
172,256,112122,1,8
208,268,112205,1,2
248,272,112289,1,2
288,268,112372,1,8
328,256,112455,1,8
360,232,112538,6,0,B|400:176|464:220,1,114.000002717972
459,216,112788,1,0
459,216,112872,1,2
428,348,113038,1,0
312,156,113205,6,0,B|272:212|208:168,1,114.000002717972
212,171,113455,1,0
212,171,113539,1,2
248,40,113705,1,8
80,192,113872,6,0,B|116:308,1,114.000002717972,4|0
432,192,114205,2,0,B|398:300,1,114.000002717972,4|0
149,132,114538,2,4,B|256:216|360:128,1,228.000005435944
72,56,115038,5,0
72,56,115122,1,0
72,56,115205,2,0,B|52:172,1,114.000002717972,4|0
52,196,115455,1,0
52,224,115538,1,8
52,252,115622,1,0
64,276,115705,1,0
92,280,115788,1,0
120,280,115872,2,0,B|236:280,1,114.000002717972,0|8
448,216,116205,2,0,B|332:216,1,114.000002717972,0|8
272,56,116538,6,0,B|220:96|232:168,1,114.000002717972
365,273,116872,2,0,B|357:208|288:183,1,114.000002717972,2|0
130,246,117205,2,0,B|190:271|247:224,1,114.000002717972
144,96,117538,2,0,B|84:71|27:118,1,114.000002717972,8|10
256,192,117872,5,8
384,76,118038,1,0
400,112,118121,1,0
412,152,118205,1,2
416,192,118288,1,0
412,232,118371,1,8
404,272,118455,1,8
384,308,118538,1,2
256,192,118705,1,0
248,160,118788,1,0
256,128,118872,1,8
204,304,119038,1,0
204,304,119205,6,0,B|136:316|136:316|84:300|48:244,1,171.000004076958,4|0
72,152,119538,2,0,B|152:236,1,114.000002717972,4|0
150,234,119788,1,0
150,234,119872,1,4
152,88,120038,1,0
152,88,120205,1,4
256,192,120372,1,0
256,192,120455,1,0
256,192,120538,6,0,B|320:208|356:140,1,114.000002717972
351,148,120788,1,0
351,148,120872,1,8
156,216,121038,1,0
156,216,121121,1,0
156,216,121204,6,0,B|110:263|151:328,1,114.000002717972,0|8
146,320,121454,1,0
146,320,121538,1,0
152,88,121705,1,8
152,88,121872,6,0,B|276:64,1,114.000002717972,0|2
464,128,122205,2,0,B|340:152,1,114.000002717972,2|2
348,300,122538,1,2
320,296,122622,1,2
292,296,122705,1,8
264,304,122788,1,8
236,312,122872,1,2
208,320,122955,1,2
180,320,123038,1,2
152,316,123122,1,8
124,304,123205,6,8,B|128:244,3,57.0000013589859
144,224,123538,2,0,B|272:208,1,114.000002717972,4|2
476,36,123872,2,8,B|472:96,3,57.0000013589859
456,116,124205,2,0,B|328:132,1,114.000002717972,4|2
256,340,124538,5,4
256,236,124705,1,0
256,132,124872,1,4
256,28,125038,1,0
160,256,125205,5,4
208,272,125288,1,0
256,288,125372,1,0
304,268,125455,1,0
352,256,125538,1,4
256,76,125705,1,0
76,100,125872,6,0,B|32:148|52:224,1,114.000002717972,4|0
48,206,126122,1,0
48,206,126205,1,8
308,148,126372,2,0,B|288:85|212:65,1,114.000002717972
160,304,126705,2,0,B|223:318|279:262,1,114.000002717972,2|0
184,184,127038,1,2
266,276,127205,6,0,B|314:320|390:300,1,114.000002717972
373,304,127455,1,0
373,304,127538,1,8
314,44,127705,2,0,B|251:63|231:139,1,114.000002717972,0|2
470,192,128038,2,0,B|484:128|428:72,1,114.000002717972,0|2
408,76,128288,1,0
372,80,128372,1,0
340,96,128455,1,0
316,120,128538,6,0,B|304:184|368:240,1,114.000002717972,4|0
351,223,128788,1,0
351,223,128872,1,8
200,332,129038,2,0,B|239:284|303:296,1,114.000002717972
236,208,129372,1,2
96,76,129538,1,0
40,264,129705,1,2
236,208,129872,5,4
96,76,130038,1,2
104,116,130122,1,2
112,156,130205,1,8
256,64,130372,1,0
256,336,130538,2,0,B|304:340|304:340|344:328|332:216,1,171.000004076958,12|0
308,168,130872,2,0,B|352:216|412:168,1,114.000002717972,4|2
208,264,131205,6,0,B|164:216|104:264,1,114.000002717972,4|2
92,284,131455,1,2
84,312,131538,1,8
112,120,131705,2,0,B|120:88|120:88|100:8,1,114.000002717972,0|2
308,168,132038,2,0,B|300:200|300:200|320:280,2,114.000002717972,8|0|8
444,40,132538,6,0,B|480:92|452:164,1,114.000002717972,4|0
444,176,132788,1,0
420,192,132872,1,2
240,76,133038,2,0,B|292:64|292:64|360:84,1,114.000002717972,0|8
120,240,133372,2,0,B|68:252|68:252|0:232,1,114.000002717972,0|8
8,196,133622,1,0
8,156,133705,1,2
8,116,133788,1,2
8,76,133872,6,0,B|64:48|124:52,1,114.000002717972,12|2
152,72,134122,1,2
176,104,134205,1,2
372,176,134372,2,0,B|316:204|256:200,1,114.000002717972,2|12
312,72,134705,2,0,B|316:24,4,28.500000679493,0|0|0|0|4
460,80,135038,1,0
348,308,135205,5,4
348,308,135538,1,4
348,308,135872,1,4
348,308,136205,6,4,B|288:220|340:72,1,228.000005435944
484,96,136705,1,4
196,272,136872,1,4
448,232,137038,1,4
176,96,137205,1,4
176,96,137538,5,0
