osu file format v9

[General]
AudioFilename: BSPower Explosion1.mp3
AudioLeadIn: 1996
PreviewTime: 68538
Countdown: 0
SampleSet: Normal
StackLeniency: 0.6
Mode: 0
LetterboxInBreaks: 0

[Editor]
Bookmarks: 11205,21872,29872,37872,43205,53872,59205,69872,80538,91205,104538,115205,125872,137538
DistanceSpacing: 1
BeatDivisor: 4
GridSize: 8

[Metadata]
Title:BSPower Explosion
Artist:Memme
Creator:AngelHoney
Version:Advanced
Source:O2jam Analog
Tags:Natteke val0108 manten TW-KUMA01 yongtw123

[Difficulty]
HPDrainRate:4
CircleSize:4
OverallDifficulty:4
ApproachRate:7
SliderMultiplier:1.4
SliderTickRate:1

[Events]
//Background and Video events
0,0,"24109350.jpg"
//Break Periods
//Storyboard Layer 0 (Background)
//Storyboard Layer 1 (Fail)
//Storyboard Layer 2 (Pass)
//Storyboard Layer 3 (Foreground)
//Storyboard Sound Samples
//Background Colour Transformations
3,100,255,170,213

[TimingPoints]
539,333.333333333333,4,1,1,100,1,0
11038,-100,4,1,1,80,0,0
21705,-100,4,1,1,100,0,0
24455,-100,4,1,1,80,0,0
27122,-100,4,1,1,100,0,0
29788,-100,4,1,1,80,0,0
32455,-100,4,1,1,90,0,0
41788,-100,4,1,1,80,0,0
53205,-100,4,1,1,100,0,0
53705,-100,4,1,0,70,0,0
54122,-100,4,1,1,100,0,0
56372,-100,4,1,0,70,0,0
56788,-100,4,1,1,100,0,0
57622,-100,4,1,0,70,0,0
58455,-100,4,1,1,60,0,0
59205,-100,4,1,1,100,0,0
68538,-100,4,1,1,90,0,0
69122,-83.3333333333333,4,1,1,90,0,0
69955,-100,4,1,1,80,0,0
90538,-100,4,1,1,100,0,0
91038,-133.333333333333,4,1,1,80,0,0
101788,-100,4,1,1,100,0,0
103872,-83.3333333333333,4,1,1,100,0,0
104538,-83.3333333333333,4,1,1,100,0,1
125872,-83.3333333333333,4,1,1,100,0,0
137622,-83.3333333333333,4,1,1,100,0,0

[Colours]
Combo1 : 243,182,114
Combo2 : 83,249,149
Combo3 : 70,175,253
Combo4 : 241,253,100
Combo5 : 240,80,80

[HitObjects]
71,328,539,2,0,B|216:320,1,140
320,232,1205,2,0,B|176:240,1,140
56,168,1872,1,0
176,240,2205,1,0
128,184,2372,1,0
184,136,2538,2,0,B|192:48,2,70
320,112,3205,6,0,B|464:104,1,140,4|0
496,168,3705,1,0
480,240,3872,2,0,B|336:248,2,140,0|0|4
488,312,4705,1,0
424,344,4872,2,0,B|344:336,1,70
280,336,5205,2,0,B|208:320|136:344,1,140
48,224,5872,5,4
80,72,6205,1,0
136,216,6538,1,0
168,64,6872,1,0
224,208,7205,2,0,B|216:280,2,70
216,128,7705,1,0
288,96,7872,2,0,B|320:88|368:88,2,70
440,120,8538,6,0,B|456:184|456:272,1,140,4|0
456,336,9038,1,0
392,296,9205,2,0,B|312:288|240:304,1,140
176,288,9705,1,0
104,320,9872,6,0,B|96:232,1,70,4|0
24,224,10205,2,0,B|32:136,1,70
32,80,10538,1,0
32,80,10872,1,0
32,80,11205,5,4
176,128,11538,1,0
312,64,11872,1,0
384,80,12038,1,0
456,96,12205,2,0,B|464:160|464:248,1,140,0|0
352,336,12872,5,0
320,192,13205,1,0
336,264,13372,1,0
320,192,13538,2,0,B|176:184,1,140
56,280,14205,5,0
208,312,14538,1,0
208,312,14705,1,0
128,312,14872,1,0
128,312,15038,1,0
56,280,15205,2,0,B|56:200|48:128,2,140
136,144,16205,6,0,B|140:64,2,70,0|0|4
288,152,16872,1,0
424,80,17205,1,0
440,152,17372,1,0
456,224,17538,1,0
352,344,17872,5,0
364,192,18205,1,0
224,256,18538,1,0
224,256,18705,1,0
224,256,18872,2,0,B|80:256,1,140
64,104,19538,5,0
208,160,19872,1,0
208,160,20038,1,0
144,112,20205,1,0
144,112,20372,1,0
208,64,20538,6,0,B|368:64,2,140
328,160,21538,1,0
328,160,21872,5,4
464,88,22205,2,0,B|456:152|456:240,1,140,0|0
336,328,22872,1,0
488,304,23205,2,0,B|416:312,1,70,0|0
368,256,23538,2,0,B|288:248,1,70,0|0
224,264,23872,1,0
224,264,24205,6,0,B|72:264,1,140,0|4
48,112,24872,1,0
120,88,25038,1,0
160,152,25205,2,0,B|232:160|312:144,1,140
372,128,25705,1,0
424,72,25872,6,0,B|456:96|456:96|488:104,1,70
456,176,26205,2,0,B|472:200|472:200|464:256,1,70
456,320,26538,1,0
384,296,26705,2,0,B|336:288|336:288|304:312|304:312|232:296,1,140
176,280,27205,5,0
176,280,27538,1,0
40,344,27872,1,0
40,344,28205,1,0
120,224,28538,2,0,B|40:224,2,70
120,144,29038,2,0,B|120:72,1,70
272,88,29538,5,0
424,64,29872,2,0,B|495:109|473:226|376:225,1,210
336,264,30538,2,0,B|416:264|472:312,2,140,0|0|0
256,264,31372,1,0
216,332,31538,1,0
160,276,31705,1,0
120,344,31872,1,0
60,292,32038,6,0,B|76:244|76:244|60:204|60:204|60:140,1,140
59,81,32538,2,0,B|104:96|160:88|160:88|240:40|352:64,2,280,4|0|0
160,176,34205,1,0
296,160,34538,1,0
432,192,34872,6,0,B|416:256|424:344,1,140
296,160,35705,1,0
296,160,35872,2,0,B|280:224|288:304,1,140
232,344,36372,1,0
160,328,36538,2,0,B|152:256|168:176,2,140
64,80,37872,5,4
120,208,38205,1,0
176,80,38538,1,0
232,208,38872,1,0
288,80,39205,1,0
344,208,39538,1,0
344,208,39705,1,0
344,208,39872,2,0,B|432:208,2,70
400,80,40538,5,4
440,304,41038,1,0
364,296,41205,2,0,B|296:336,1,70
228,328,41538,1,0
176,184,41872,2,0,B|32:184,2,140,0|0|4
328,184,42872,1,0
424,64,43205,6,0,B|360:32|272:40|224:104,1,210,4|0
176,152,43872,2,0,B|32:136,2,140
184,232,44705,1,0
112,264,44872,2,0,B|120:336,1,70
200,344,45205,6,0,B|256:320|336:312|424:344,1,210
464,288,45872,2,0,B|464:128,1,140
424,80,46372,1,0
352,104,46538,2,0,B|344:176|368:256,2,140
280,72,47372,1,0
204,80,47538,2,0,B|124:88,1,70
64,56,47872,6,0,B|40:112|64:168|64:168|48:272,1,210
64,336,48538,2,0,B|128:304|208:304|272:328,1,210,4|0
344,336,49205,2,0,B|432:328,2,70
320,264,49705,1,0
304,192,49872,5,4
432,104,50205,1,0
280,64,50538,2,0,B|128:64,1,140
64,64,51038,1,0
64,64,51205,5,4
256,192,51705,1,0
256,192,51872,1,4
64,328,52372,1,0
64,328,52538,2,0,B|184:328,2,105,4|0|0
64,243,53205,5,2
64,158,53372,1,2
64,74,53538,1,2
216,104,53872,5,0
216,104,54038,1,0
288,128,54205,2,0,B|448:112,1,140
472,176,54705,1,0
424,240,54872,2,0,B|272:256,1,140
208,248,55372,1,0
184,320,55538,2,0,B|32:336,1,140
56,256,56038,1,0
56,256,56205,1,0
40,104,56538,6,0,B|112:72,1,70
176,120,56872,1,0
176,120,57205,2,0,B|256:112,1,70
320,160,57538,1,0
320,160,57705,6,0,B|464:160,2,140
288,240,58538,2,0,B|296:272|296:312,2,70
208,224,59038,1,0
168,296,59205,2,0,B|128:312|80:304,2,70
448,328,60205,6,0,B|448:288|456:256,2,70
328,72,61205,5,0
328,72,61372,1,0
328,72,61538,2,0,B|184:72,1,140
168,144,62038,2,0,B|328:144,1,140
384,144,62538,1,0
160,312,63205,6,0,B|120:312|72:336,2,70
48,56,64205,6,0,B|48:88|56:128,2,70
320,112,65205,5,0
320,112,65372,1,0
320,112,65538,2,0,B|480:112,1,140
480,184,66038,2,0,B|336:184,1,140
264,184,66538,1,0
336,320,66872,1,0
200,256,67205,6,0,B|192:328,1,70
120,296,67538,2,0,B|128:216,1,70
56,200,67872,2,0,B|48:280,2,70
64,120,68372,1,0
64,120,68538,5,0
136,88,68705,1,0
208,112,68872,1,0
280,80,69038,1,0
352,104,69205,6,0,B|392:56|456:80|496:120|448:200|360:192|400:336,1,336.000008010864,0|4
320,320,70038,6,0,B|312:240,2,70,0|0|0
248,336,70538,2,0,B|176:320|96:344,1,140
56,208,71205,6,0,B|64:136,2,70
120,244,71705,1,0
184,208,71872,2,0,B|256:192|336:208,1,140
392,224,72372,1,0
456,256,72538,6,0,B|472:168,1,70
424,128,72872,2,0,B|416:56,1,70
344,72,73205,2,0,B|272:80|200:64,1,140
172,132,73705,1,0
172,132,73872,2,0,B|96:120|24:132,2,140
280,232,74872,6,4,B|272:304,1,70,0|4
200,320,75205,2,0,B|128:312|48:336,1,140,4|0
32,264,75705,1,0
72,200,75872,2,0,B|56:112,2,70
136,240,76372,1,0
200,200,76538,6,0,B|208:56,1,140,4|0
288,48,77038,1,0
288,48,77205,2,0,B|280:200,1,140
352,208,77705,2,0,B|432:192,2,70,0|4|0
336,280,78205,1,0
336,280,78372,1,0
392,336,78538,5,0
320,352,78705,1,0
256,312,78872,1,0
184,328,79038,1,0
184,328,79205,5,0
32,296,79538,1,0
184,328,79872,1,0
72,224,80205,6,0,B|64:176|64:176|72:136|72:136|64:72,1,140,0|4
264,144,81038,1,0
296,80,81205,2,0,B|264:112|200:120|152:88,2,140
368,72,82038,1,0
440,88,82205,1,0
488,144,82372,2,0,B|480:224,1,70
288,336,83038,5,0
288,336,83205,1,0
384,216,83538,2,0,B|392:296,2,70
312,192,84038,2,0,B|320:112,2,70
248,232,84538,2,0,B|184:264|104:240,2,140
200,88,85538,6,0,B|40:88,1,140,0|4
72,320,86372,1,0
72,320,86538,1,0
216,264,86872,1,0
368,288,87205,1,0
440,152,87538,1,0
440,152,87705,1,0
440,152,87872,5,0
288,128,88205,2,0,B|280:48,2,70
216,264,88872,1,0
160,120,89205,1,0
160,120,89372,1,0
96,160,89538,1,0
96,160,89705,1,0
32,200,89872,6,0,B|24:248|24:304,2,105
104,240,90538,1,2
176,196,90705,1,2
248,152,90872,1,2
400,72,91205,6,0,B|456:88|472:152,1,104.999996870756,4|0
368,176,91872,2,0,B|392:256|376:336,2,157.499995306134
296,96,93205,1,0
192,112,93538,2,0,B|72:104,1,104.999996870756,0|4
264,224,94538,5,0
56,208,95205,1,0
80,312,95538,1,0
144,224,95872,1,0
168,328,96205,2,0,B|272:328,1,104.999996870756
360,272,96872,5,0
464,296,97205,1,0
456,192,97538,1,0
352,168,97872,1,0
344,64,98205,1,0
240,80,98538,1,0
248,184,98872,1,0
248,184,99038,1,0
248,184,99205,5,0
152,144,99538,1,0
160,248,99872,1,0
64,208,100205,1,0
72,312,100538,1,0
168,352,100872,1,0
256,296,101205,1,0
256,296,101372,1,0
256,296,101538,2,0,B|320:296,1,52.4999984353781
368,344,101872,6,0,B|384:264|464:240,1,140
464,88,102538,2,0,B|448:168|360:192,1,140
280,72,103205,2,0,B|296:224,1,140
232,256,103705,1,0
188,328,103872,5,0
188,328,104038,1,0
112,288,104205,2,0,B|24:288,1,84.0000020027161
48,200,104538,5,4
68,116,104705,2,0,B|60:68,2,42.0000010013581
152,136,105038,2,0,B|200:144|240:128,1,84.0000020027161
304,80,105372,2,0,B|312:32,2,42.0000010013581
384,112,105705,2,0,B|432:104|480:128,1,84.0000020027161
472,288,106205,5,0
392,296,106372,1,0
312,304,106538,2,0,B|304:352,2,42.0000010013581
232,288,106872,2,0,B|144:296,1,84.0000020027161
64,304,107205,1,0
40,224,107372,6,0,B|24:168,2,42.0000010013581
120,200,107705,2,0,B|96:160|99:119,1,84.0000020027161
184,128,108038,2,0,B|176:64,2,42.0000010013581
264,96,108372,2,0,B|272:136|256:184,1,84.0000020027161
424,152,108872,6,0,B|416:104|432:56,2,84.0000020027161
440,232,109372,1,0
456,312,109538,1,0
312,224,109872,5,0
272,296,110038,2,0,B|280:344,2,42.0000010013581
200,256,110372,1,0
128,296,110538,2,0,B|40:288,1,84.0000020027161
24,208,110872,2,0,B|112:216,1,84.0000020027161
176,176,111205,2,0,B|176:120|136:56|56:48,2,168.000004005432
256,200,112038,5,0
296,128,112205,1,0
376,144,112372,1,0
432,80,112538,1,0
456,160,112705,2,0,B|496:168,2,42.0000010013581
400,224,113038,2,0,B|424:312,1,84.0000020027161
352,344,113372,2,0,B|312:336,2,42.0000010013581
324,260,113705,1,0
248,288,113872,6,0,B|160:280|72:288,1,168.000004005432
152,136,114538,2,0,B|88:144|24:136,2,126.000003004074
216,80,115205,1,0
296,104,115372,5,0
296,104,115455,1,0
296,104,115538,2,0,B|384:112,1,84.0000020027161
448,168,115872,1,0
400,240,116038,1,0
400,240,116122,1,0
400,240,116205,2,0,B|304:232,2,84.0000020027161
256,328,116872,6,0,B|352:336,2,84.0000020027161
192,272,117372,1,0
120,312,117538,2,0,B|80:336|32:336,2,84.0000020027161
120,224,118038,5,0
120,224,118122,1,0
120,224,118205,2,0,B|112:128,1,84.0000020027161
40,100,118538,1,0
112,56,118705,1,0
112,56,118788,1,0
112,56,118872,2,0,B|200:64,1,84.0000020027161
264,112,119205,6,0,B|312:136|392:128|424:96,1,168.000004005432
488,152,119705,1,0
448,224,119872,2,0,B|456:312,2,84.0000020027161
280,216,120538,5,0
272,300,120705,1,0
272,300,120788,1,0
272,300,120872,2,0,B|228:292|184:308,1,84.0000020027161
108,320,121205,2,0,B|60:332|12:316,2,84.0000020027161
88,240,121705,1,0
88,240,121872,2,0,B|96:152|72:72,2,168.000004005432
168,256,122705,5,0
240,216,122872,2,0,B|248:128,1,84.0000020027161
320,96,123205,1,0
320,96,123288,1,0
320,96,123372,2,0,B|432:88,1,84.0000020027161
472,144,123705,1,0
440,224,123872,1,0
440,224,123955,1,0
440,224,124038,2,0,B|344:232,2,84.0000020027161
464,304,124538,5,0
384,320,124705,1,0
304,328,124872,1,0
224,328,125038,1,0
144,320,125205,1,0
144,320,125538,6,0,B|40:328,2,84.0000020027161
96,160,126205,1,0
240,72,126538,1,0
240,72,126705,1,0
240,72,126872,1,0
408,88,127205,5,0
264,176,127538,1,0
432,192,127872,1,0
432,192,128038,1,0
432,192,128205,2,0,B|440:280,1,84.0000020027161
368,320,128538,6,0,B|280:304|192:336,1,168.000004005432
120,320,129038,1,0
40,344,129205,2,0,B|48:256,1,84.0000020027161
24,180,129538,2,0,B|32:92,1,84.0000020027161
112,80,129872,2,0,B|160:104|240:104|280:64,2,168.000004005432
192,232,130872,6,0,B|184:328,2,84.0000020027161
264,192,131372,1,0
264,192,131455,1,0
264,192,131538,2,0,B|304:184|352:184,1,84.0000020027161
392,256,131872,2,0,B|352:264|296:264,2,84.0000020027161
472,272,132372,1,0
448,192,132538,5,0
424,112,132705,1,0
424,112,132788,1,0
424,112,132872,2,0,B|336:88,1,84.0000020027161
260,100,133205,2,0,B|172:76,1,84.0000020027161
96,96,133538,2,0,B|88:144,3,42.0000010013581
80,176,133872,6,0,B|92:264,1,84.0000020027161
152,320,134205,2,0,B|112:344|64:336,2,84.0000020027161
232,328,134705,1,0
312,312,134872,1,0
392,320,135038,1,0
472,304,135205,6,0,B|480:240|480:240|472:192|472:192|480:120,2,168.000004005432
344,192,136205,1,0
176,192,136538,2,0,B|80:192,4,84.0000020027161
344,192,137538,5,4
