osu file format v13

[General]
AudioFilename: BSPower Bigbang.mp3
AudioLeadIn: 0
PreviewTime: -1
Countdown: 1
SampleSet: Normal
StackLeniency: 0.7
Mode: 0
LetterboxInBreaks: 1
WidescreenStoryboard: 1

[Editor]
DistanceSpacing: 0.6
BeatDivisor: 4
GridSize: 4
TimelineZoom: 1

[Metadata]
Title:BSPower Bigbang
TitleUnicode:BSPower Bigbang
Artist:Memme
ArtistUnicode:Memme
Creator:etildard
Version:Insane
Source:
Tags:
BeatmapID:548403
BeatmapSetID:230282

[Difficulty]
HPDrainRate:6.5
CircleSize:4
OverallDifficulty:7.5
ApproachRate:9.2
SliderMultiplier:1.7
SliderTickRate:2

[Events]
//Background and Video events
0,0,"write11.jpg",0,0
//Break Periods
//Storyboard Layer 0 (Background)
//Storyboard Layer 1 (Fail)
//Storyboard Layer 2 (Pass)
//Storyboard Layer 3 (Foreground)
//Storyboard Sound Samples
//Background Colour Transformations
3,100,163,162,255

[TimingPoints]
1510,315.789473684211,4,1,0,100,1,0
2457,-133.333333333333,4,1,0,100,0,0
12799,-100,4,1,0,100,0,0
17220,-66.6666666666667,4,1,0,100,0,0
20536,-100,4,1,0,100,0,0
43115,-133.333333333333,4,1,0,100,0,0
47062,-100,4,1,0,100,0,0
53220,-133.333333333333,4,1,0,100,0,0
91036,-66.6666666666667,4,1,0,100,0,0
102483,-100,4,1,0,100,0,0
122773,-100,4,1,0,100,0,1
144246,-100,4,1,0,100,0,0

[HitObjects]
144,120,2773,6,0,P|68:188|228:260,1,350.625013375283
225,263,3720,2,0,P|204:88|272:128,1,382.500014591218,0|8,0:0|0:0,0:0:0:0:
332,76,5299,6,0,P|432:192|288:276,1,350.625013375283
296,280,6246,2,0,P|208:236|344:80,1,382.500014591218,0|8,0:0|0:0,0:0:0:0:
96,256,7825,6,0,P|144:92|256:176,1,350.625013375283
252,158,8773,2,0,P|280:240|452:112,1,382.500014591218,0|8,0:0|0:0,0:0:0:0:
368,92,10036,6,0,L|288:116,1,63.7500024318696
156,168,10352,2,0,L|232:204,1,63.7500024318696
376,268,10667,2,0,L|296:300,1,63.7500024318696
208,104,10983,5,0,0:0:0:0:
200,120,11062,1,0,0:0:0:0:
192,136,11141,1,0,0:0:0:0:
184,152,11220,1,0,0:0:0:0:
176,168,11299,1,0,0:0:0:0:
168,184,11378,1,0,0:0:0:0:
160,200,11457,1,0,0:0:0:0:
188,312,11615,5,0,0:0:0:0:
292,256,11773,1,0,0:0:0:0:
300,248,11852,1,0,0:0:0:0:
308,240,11931,1,0,0:0:0:0:
320,136,12088,1,0,0:0:0:0:
128,176,12246,5,0,0:0:0:0:
100,292,12404,1,0,0:0:0:0:
236,284,12562,1,0,0:0:0:0:
352,324,12720,1,0,0:0:0:0:
344,64,12878,6,0,P|348:116|324:164,1,85
236,240,13194,2,0,L|236:284,2,42.5,0|0|0,0:0|0:0|0:0,0:0:0:0:
128,120,13510,2,0,L|128:72,2,42.5,0|0|0,0:0|0:0|0:0,0:0:0:0:
48,228,13825,1,0,0:0:0:0:
124,328,13983,1,0,0:0:0:0:
240,292,14141,5,0,0:0:0:0:
256,292,14220,1,0,0:0:0:0:
272,292,14299,1,0,0:0:0:0:
288,292,14378,1,0,0:0:0:0:
304,292,14457,1,0,0:0:0:0:
392,228,14615,2,0,L|444:228,2,42.5,0|0|0,0:0|0:0|0:0,0:0:0:0:
308,152,14931,2,0,P|268:132|208:152,1,85
229,137,15246,1,0,0:0:0:0:
152,96,15404,5,0,0:0:0:0:
152,168,15562,1,0,0:0:0:0:
152,184,15641,1,0,0:0:0:0:
152,200,15720,1,0,0:0:0:0:
216,60,15878,1,0,0:0:0:0:
304,144,16036,6,0,L|380:224,1,85
408,336,16352,2,0,L|340:264,1,85
349,274,16667,1,0,0:0:0:0:
224,304,16825,5,0,0:0:0:0:
224,304,16904,1,0,0:0:0:0:
224,304,16983,2,0,L|168:224,1,85
80,88,17299,2,0,P|76:164|148:56,1,382.500014591218
208,56,17931,2,0,B|236:48|256:32|256:32|272:68|272:68|288:32|288:32|308:48|348:64,1,191.250007295609
312,128,18246,2,0,B|332:152|292:164|292:164|344:168|344:168|292:192|292:192|348:204|348:204|292:216|292:216|344:236|344:236|308:248|308:248|324:252|332:268,1,382.500014591218
196,280,18878,6,0,P|136:324|56:324,1,127.500004863739
84,330,19194,1,0,0:0:0:0:
48,208,19510,5,0,0:0:0:0:
72,84,19667,1,0,0:0:0:0:
156,244,19825,1,0,0:0:0:0:
232,84,19983,1,0,0:0:0:0:
408,60,20141,2,0,P|432:140|380:184,1,127.500004863739
296,112,20457,1,0,0:0:0:0:
344,200,20615,2,0,L|392:244,2,42.5,0|0|0,0:0|0:0|0:0,0:0:0:0:
228,232,20931,1,0,0:0:0:0:
128,296,21088,6,0,L|80:320,6,42.5,0|0|0|0|0|0|0,0:0|0:0|0:0|0:0|0:0|0:0|0:0,0:0:0:0:
60,200,21720,5,0,0:0:0:0:
136,108,21878,2,0,L|132:60,2,42.5,0|0|0,0:0|0:0|0:0,0:0:0:0:
204,208,22194,1,0,0:0:0:0:
268,88,22352,1,0,0:0:0:0:
364,184,22510,1,0,0:0:0:0:
268,284,22667,1,0,0:0:0:0:
176,184,22825,1,0,0:0:0:0:
160,80,22983,6,0,P|136:64|104:64,2,42.5,0|0|0,0:0|0:0|0:0,0:0:0:0:
256,124,23299,2,0,L|344:124,1,85
360,124,23536,1,0,0:0:0:0:
380,124,23615,1,0,0:0:0:0:
400,124,23694,1,0,0:0:0:0:
416,124,23773,1,0,0:0:0:0:
416,240,23931,2,0,P|364:256|336:236,1,85
212,216,24246,2,0,B|168:192|144:228|120:192|100:228|80:192|32:212,1,170
64,84,24720,6,0,L|64:40,5,42.5,0|0|0|0|0|0,0:0|0:0|0:0|0:0|0:0|0:0,0:0:0:0:
64,84,25194,2,0,P|60:140|72:184,1,85
208,180,25510,2,0,P|216:132|188:76,1,85
205,98,25746,1,0,0:0:0:0:
205,98,25825,1,0,0:0:0:0:
308,44,25983,1,0,0:0:0:0:
408,96,26141,2,0,P|412:144|408:184,1,85
408,260,26457,2,0,P|400:320|412:352,1,85
312,328,26773,6,0,P|264:304|240:344,1,85
244,319,27009,1,0,0:0:0:0:
244,319,27088,1,0,0:0:0:0:
128,320,27246,1,0,0:0:0:0:
52,236,27404,2,0,P|116:208|212:248,1,170
304,248,27878,2,0,P|368:240|400:264,1,85
440,192,28352,5,0,0:0:0:0:
352,116,28510,1,0,0:0:0:0:
336,100,28588,1,0,0:0:0:0:
320,84,28667,1,0,0:0:0:0:
188,80,28825,2,0,L|160:48,2,42.5,0|0|0,0:0|0:0|0:0,0:0:0:0:
156,184,29141,1,0,0:0:0:0:
240,276,29299,1,0,0:0:0:0:
