osu file format v13

[General]
AudioFilename: BSPower Bigbang.mp3
AudioLeadIn: 0
PreviewTime: -1
Countdown: 1
SampleSet: Normal
StackLeniency: 0.7
Mode: 0
LetterboxInBreaks: 1
WidescreenStoryboard: 0

[Editor]
DistanceSpacing: 1.6
BeatDivisor: 4
GridSize: 4
TimelineZoom: 1

[Metadata]
Title:BSPower Bigbang
TitleUnicode:BSPower Bigbang
Artist:Memme
ArtistUnicode:Memme
Creator:etildard
Version:Extra
Source:
Tags:
BeatmapID:535700
BeatmapSetID:230282

[Difficulty]
HPDrainRate:6.5
CircleSize:4
OverallDifficulty:7.5
ApproachRate:9.2
SliderMultiplier:1.7
SliderTickRate:1

[Events]
//Background and Video events
0,0,"write11.jpg",0,0
//Break Periods
//Storyboard Layer 0 (Background)
//Storyboard Layer 1 (Fail)
//Storyboard Layer 2 (Pass)
//Storyboard Layer 3 (Foreground)
//Storyboard Sound Samples
//Background Colour Transformations
3,100,163,162,255

[TimingPoints]
1510,315.789473684211,4,1,0,100,1,0
43115,-133.333333333333,4,1,0,100,0,0
47062,-100,4,1,0,100,0,0
53220,-133.333333333333,4,1,0,100,0,0
91036,-66.6666666666667,4,1,0,100,0,0
102483,-100,4,1,0,100,0,0
122773,-100,4,1,0,100,0,1
144246,-100,4,1,0,100,0,0

[HitObjects]
336,72,2457,5,0,0:0:0:0:
396,156,2615,1,0,0:0:0:0:
384,256,2773,2,0,B|340:284|340:284|300:248|264:252|264:252|216:304,1,170
132,320,3246,5,0,0:0:0:0:
72,236,3404,1,0,0:0:0:0:
144,164,3562,1,0,0:0:0:0:
88,80,3720,1,0,0:0:0:0:
188,68,3878,2,0,B|208:80|208:80|248:48|272:80,1,85
368,64,4194,5,0,0:0:0:0:
372,76,4273,1,0,0:0:0:0:
376,88,4352,2,0,P|392:152|432:164,1,85
348,244,4667,1,0,0:0:0:0:
408,328,4825,1,0,0:0:0:0:
304,324,4983,6,0,B|280:312|280:312|236:336|212:304,1,85
100,228,5299,1,0,0:0:0:0:
92,236,5378,1,0,0:0:0:0:
84,244,5457,1,0,0:0:0:0:
48,148,5615,1,0,0:0:0:0:
100,64,5773,1,0,0:0:0:0:
96,52,5852,1,0,0:0:0:0:
92,40,5931,1,0,0:0:0:0:
188,68,6088,1,0,0:0:0:0:
324,80,6246,6,0,B|352:88|352:88|360:124|400:136,1,85
328,232,6562,2,0,B|312:248|312:248|320:288|268:288,1,85
176,312,6878,1,0,0:0:0:0:
168,292,6957,1,0,0:0:0:0:
156,272,7036,1,0,0:0:0:0:
148,252,7115,1,0,0:0:0:0:
136,232,7194,1,0,0:0:0:0:
80,148,7352,1,0,0:0:0:0:
156,80,7510,2,0,B|188:100|188:100|244:64|260:84,1,85
384,84,7825,6,0,B|368:132|368:132|320:144|360:172|360:172|364:240,1,170
288,296,8299,2,0,B|280:268|280:268|240:252|252:212,1,85
264,124,8615,1,0,0:0:0:0:
252,104,8694,1,0,0:0:0:0:
240,84,8773,2,0,B|208:60|208:60|188:56|160:72,1,85
104,256,9088,6,0,L|152:256,1,42.5
256,296,9246,2,0,L|208:296,1,42.5
176,260,9404,1,0,0:0:0:0:
256,196,9562,1,0,0:0:0:0:
344,144,9720,2,0,B|360:168|360:168|408:180|412:200,1,85
336,300,10036,2,0,B|308:272|308:272|256:280|240:236,1,85
140,148,10352,2,0,B|168:120|120:72|120:72|136:44,1,85
292,56,10667,2,0,B|364:52|360:84|360:84|396:88,1,85
400,196,10983,5,0,0:0:0:0:
388,228,11062,1,0,0:0:0:0:
368,256,11141,1,0,0:0:0:0:
340,276,11220,1,0,0:0:0:0:
308,288,11299,1,0,0:0:0:0:
276,296,11378,1,0,0:0:0:0:
244,300,11457,1,0,0:0:0:0:
208,300,11536,1,0,0:0:0:0:
176,296,11615,2,0,P|96:260|76:244,1,85
72,244,11852,5,0,0:0:0:0:
44,224,11931,1,0,0:0:0:0:
36,60,12088,2,0,L|36:0,1,42.5
124,60,12246,1,0,0:0:0:0:
208,60,12404,1,0,0:0:0:0:
292,60,12562,1,0,0:0:0:0:
376,60,12720,1,0,0:0:0:0:
408,216,12878,6,0,B|372:196|372:196|300:208|300:208,1,85
136,304,13194,2,0,L|156:264,1,42.5
104,148,13352,2,0,L|148:184,1,42.5
284,212,13510,2,0,L|232:212,1,42.5
184,196,13667,1,0,0:0:0:0:
188,188,13746,1,0,0:0:0:0:
192,180,13825,2,0,B|216:164|216:164|200:128|248:104,1,85,0|0,0:0|0:0,0:0:0:0:
364,40,14141,1,0,0:0:0:0:
420,184,14299,1,0,0:0:0:0:
352,320,14457,6,0,B|340:292|308:276|324:240,1,85
324,228,14694,1,0,0:0:0:0:
324,212,14773,1,0,0:0:0:0:
324,196,14852,1,0,0:0:0:0:
324,180,14931,1,0,0:0:0:0:
324,164,15010,1,0,0:0:0:0:
324,148,15088,2,0,B|372:124|372:124|364:56,1,85
260,40,15404,1,0,0:0:0:0:
108,128,15562,1,0,0:0:0:0:
88,160,15641,1,0,0:0:0:0:
96,196,15720,1,0,0:0:0:0:
188,324,15878,1,0,0:0:0:0:
320,108,16036,6,0,L|360:188,1,85
300,344,16352,2,0,L|360:264,1,85
136,320,16667,2,0,P|84:304|80:272,3,85,0|0|0|0,0:0|0:0|0:0|0:0,0:0:0:0:
200,160,17299,2,0,P|156:168|232:192,1,255
432,68,17931,2,0,B|416:76|416:76|428:96|428:96|404:96|404:96|408:124|408:124|392:124|392:124|392:140|392:140,1,85
292,56,18246,5,0,0:0:0:0:
344,176,18404,1,0,0:0:0:0:
460,256,18562,1,0,0:0:0:0:
328,296,18720,1,0,0:0:0:0:
228,208,18878,2,0,P|208:132|224:92,2,85,0|0|0,0:0|0:0|0:0,0:0:0:0:
172,292,19352,1,0,0:0:0:0:
48,236,19510,2,0,B|48:196|48:196|32:176|48:120,1,85
88,96,19825,2,0,B|96:144|96:144|112:152|96:200,1,85
144,24,20141,2,0,P|152:92|184:128,1,85
236,240,20457,5,0,0:0:0:0:
348,136,20615,1,0,0:0:0:0:
340,160,20694,1,0,0:0:0:0:
332,184,20773,1,0,0:0:0:0:
360,304,20931,1,0,0:0:0:0:
420,232,21088,2,0,B|448:148|376:136|376:136|412:60|292:32,1,255
184,56,21720,1,0,0:0:0:0:
60,116,21878,1,0,0:0:0:0:
80,132,21957,1,0,0:0:0:0:
104,144,22036,1,0,0:0:0:0:
244,176,22194,1,0,0:0:0:0:
68,244,22352,5,0,0:0:0:0:
248,272,22510,1,0,0:0:0:0:
116,316,22667,1,0,0:0:0:0:
192,348,22825,1,0,0:0:0:0:
328,332,22983,6,0,B|340:320|340:320|300:300|300:300|332:272|332:272|320:184,1,170
436,168,23457,1,0,0:0:0:0:
452,52,23615,2,0,P|372:64|352:88,1,85
324,172,23931,2,0,P|268:160|220:116,1,85
184,40,24246,5,0,0:0:0:0:
152,48,24325,1,0,0:0:0:0:
124,68,24404,1,0,0:0:0:0:
104,96,24483,1,0,0:0:0:0:
92,128,24562,1,0,0:0:0:0:
176,184,24720,1,0,0:0:0:0:
88,236,24878,1,0,0:0:0:0:
100,260,24957,1,0,0:0:0:0:
120,276,25036,2,0,P|192:316|228:316,1,85
296,316,25352,1,0,0:0:0:0:
368,48,25510,6,0,P|432:64|416:100,1,85
420,88,25746,1,0,0:0:0:0:
408,112,25825,1,0,0:0:0:0:
480,192,25983,1,0,0:0:0:0:
472,276,26141,2,0,P|408:236|396:208,1,85
264,160,26457,2,0,P|292:224|328:256,1,85
176,324,26773,6,0,P|120:320|120:268,1,85
112,272,27010,1,0,0:0:0:0:
112,248,27088,1,0,0:0:0:0:
204,172,27246,1,0,0:0:0:0:
112,96,27404,2,0,B|152:108|152:108|172:32|280:32,1,170
352,92,27878,1,0,0:0:0:0:
440,172,28036,2,0,B|428:204|428:204|376:204|368:244,1,85
288,296,28352,1,0,0:0:0:0:
168,292,28510,1,0,0:0:0:0:
136,284,28588,1,0,0:0:0:0:
108,268,28667,1,0,0:0:0:0:
64,176,28825,5,0,0:0:0:0:
96,172,28904,1,0,0:0:0:0:
128,164,28983,1,0,0:0:0:0:
184,60,29141,1,0,0:0:0:0:
260,192,29299,1,0,0:0:0:0:
436,64,29615,5,0,0:0:0:0:
336,180,29773,1,0,0:0:0:0:
428,304,29931,1,0,0:0:0:0:
404,304,30010,1,0,0:0:0:0:
380,304,30088,1,0,0:0:0:0:
280,324,30246,2,0,P|180:300|176:280,1,127.5
176,244,30562,2,0,P|244:228|248:204,1,85
256,200,30799,1,0,0:0:0:0:
264,176,30878,1,0,0:0:0:0:
368,76,31036,5,0,0:0:0:0:
360,100,31115,1,0,0:0:0:0:
352,124,31194,1,0,0:0:0:0:
252,56,31352,1,0,0:0:0:0:
140,96,31510,1,0,0:0:0:0:
132,120,31588,1,0,0:0:0:0:
124,144,31667,1,0,0:0:0:0:
156,260,31825,5,0,0:0:0:0:
180,268,31904,1,0,0:0:0:0:
204,276,31983,1,0,0:0:0:0:
228,284,32062,1,0,0:0:0:0:
252,292,32141,2,0,B|276:304|276:304|308:288|332:340,1,85
452,240,32457,2,0,B|428:232|428:232|416:192|360:204,1,85
244,132,32773,1,0,0:0:0:0:
92,56,33088,5,0,0:0:0:0:
48,204,33246,1,0,0:0:0:0:
84,228,33325,1,0,0:0:0:0:
120,252,33404,1,0,0:0:0:0:
120,336,33562,1,0,0:0:0:0:
228,320,33720,1,0,0:0:0:0:
260,216,33878,1,0,0:0:0:0:
360,332,34036,1,0,0:0:0:0:
412,188,34194,1,0,0:0:0:0:
408,36,34352,5,0,0:0:0:0:
256,48,34510,2,0,L|200:80,1,42.5
180,88,34667,1,0,0:0:0:0:
68,192,34825,2,0,L|136:200,1,42.5
152,200,34983,1,0,0:0:0:0:
204,324,35141,1,0,0:0:0:0:
356,300,35299,1,0,0:0:0:0:
216,236,35457,1,0,0:0:0:0:
256,224,35536,1,0,0:0:0:0:
296,208,35615,1,0,0:0:0:0:
300,124,35773,5,0,0:0:0:0:
260,108,35852,1,0,0:0:0:0:
220,92,35931,1,0,0:0:0:0:
324,36,36088,1,0,0:0:0:0:
356,64,36167,1,0,0:0:0:0:
376,100,36246,1,0,0:0:0:0:
356,136,36325,1,0,0:0:0:0:
324,164,36404,1,0,0:0:0:0:
216,216,36562,5,0,0:0:0:0:
184,244,36641,1,0,0:0:0:0:
156,276,36720,1,0,0:0:0:0:
260,312,36878,2,0,B|288:328|288:328|320:312|360:336,1,85
372,332,37115,1,0,0:0:0:0:
404,340,37194,1,0,0:0:0:0:
452,232,37352,2,0,B|456:216|456:216|396:180|412:148,1,85
332,76,37667,1,0,0:0:0:0:
240,152,37825,2,0,B|232:176|232:176|264:208|224:228,1,85
56,284,38141,5,0,0:0:0:0:
96,172,38299,1,0,0:0:0:0:
136,188,38378,1,0,0:0:0:0:
160,224,38457,1,0,0:0:0:0:
252,300,38615,1,0,0:0:0:0:
348,232,38773,1,0,0:0:0:0:
368,196,38852,1,0,0:0:0:0:
404,172,38931,1,0,0:0:0:0:
396,88,39088,1,0,0:0:0:0:
360,64,39167,1,0,0:0:0:0:
332,32,39246,1,0,0:0:0:0:
248,28,39404,5,0,0:0:0:0:
164,28,39562,1,0,0:0:0:0:
144,64,39641,1,0,0:0:0:0:
108,88,39720,1,0,0:0:0:0:
156,160,39878,1,0,0:0:0:0:
112,232,40036,2,0,B|136:256|136:256|172:256|180:292,1,85
260,340,40352,1,0,0:0:0:0:
300,324,40431,1,0,0:0:0:0:
328,292,40510,1,0,0:0:0:0:
352,256,40588,1,0,0:0:0:0:
352,212,40667,1,0,0:0:0:0:
404,112,40825,2,0,L|400:64,2,42.5,0|0|0,0:0|0:0|0:0,0:0:0:0:
284,48,41141,5,0,0:0:0:0:
208,164,41299,2,0,B|176:164|176:164|164:124|148:96,1,85
56,208,41615,1,0,0:0:0:0:
176,272,41773,1,0,0:0:0:0:
308,312,41931,5,0,0:0:0:0:
448,252,42088,1,0,0:0:0:0:
320,168,42246,1,0,0:0:0:0:
456,96,42404,1,0,0:0:0:0:
428,64,42483,1,0,0:0:0:0:
388,44,42562,1,0,0:0:0:0:
348,36,42641,1,0,0:0:0:0:
304,40,42720,1,0,0:0:0:0:
152,72,42878,1,0,0:0:0:0:
276,160,43036,1,0,0:0:0:0:
96,288,43194,6,0,B|76:224|76:224|144:224|172:100,1,223.125008511544
172,100,43825,1,0,0:0:0:0:
392,112,44141,2,0,B|368:128|368:128|336:100|284:184,1,127.500004863739
376,252,44615,1,0,0:0:0:0:
360,280,44694,1,0,0:0:0:0:
332,292,44773,1,0,0:0:0:0:
244,288,44931,1,0,0:0:0:0:
156,284,45088,2,0,B|152:264|152:264|108:248|104:224,1,63.7500024318696
72,164,45404,5,0,0:0:0:0:
88,136,45483,1,0,0:0:0:0:
112,116,45562,1,0,0:0:0:0:
164,44,45720,2,0,B|224:52|224:52|272:132|272:132|348:144,1,223.125008511544
360,148,46352,1,0,0:0:0:0:
420,288,46667,6,0,B|396:272|396:272|352:304|304:248,1,127.500004863739
232,300,47141,1,0,0:0:0:0:
204,288,47220,1,0,0:0:0:0:
184,264,47299,1,0,0:0:0:0:
92,224,47457,1,0,0:0:0:0:
92,120,47615,1,0,0:0:0:0:
144,52,47773,2,0,B|184:52|184:52|204:92|240:92,1,85
300,36,48088,1,0,0:0:0:0:
268,132,48246,1,0,0:0:0:0:
340,204,48404,5,0,0:0:0:0:
368,188,48483,1,0,0:0:0:0:
388,164,48562,1,0,0:0:0:0:
480,88,48720,1,0,0:0:0:0:
448,204,48878,2,0,P|416:240|376:260,1,85
280,196,49194,2,0,P|248:184|200:240,1,85
264,312,49510,5,0,0:0:0:0:
148,340,49667,1,0,0:0:0:0:
120,308,49746,1,0,0:0:0:0:
124,264,49825,1,0,0:0:0:0:
240,240,49983,1,0,0:0:0:0:
140,172,50141,2,0,B|116:160|120:132|120:132|96:88,1,85
184,12,50457,2,0,B|192:36|192:36|224:48|232:104,1,85
232,96,50694,1,0,0:0:0:0:
240,112,50773,1,0,0:0:0:0:
352,76,50931,2,0,L|376:32,2,42.5,0|0|0,0:0|0:0|0:0,0:0:0:0:
424,172,51246,5,0,0:0:0:0:
324,236,51404,1,0,0:0:0:0:
432,288,51562,1,0,0:0:0:0:
316,308,51720,2,0,P|276:296|256:236,1,85
260,88,52194,2,0,B|224:60|224:60|160:96,2,85,0|0|0,0:0|0:0|0:0,0:0:0:0:
220,200,52667,1,0,0:0:0:0:
180,192,52746,1,0,0:0:0:0:
148,164,52825,1,0,0:0:0:0:
128,128,52904,1,0,0:0:0:0:
132,84,52983,2,0,P|148:56|184:40,1,63.7500024318696
424,72,53299,6,0,B|400:72|400:72|380:92|376:128,1,63.7500024318696
472,276,53615,1,0,0:0:0:0:
244,164,53773,1,0,0:0:0:0:
176,272,53931,2,0,B|152:280|152:280|160:312|128:304,1,63.7500024318696
56,104,54246,1,0,0:0:0:0:
324,184,54404,1,0,0:0:0:0:
336,48,54562,5,0,0:0:0:0:
412,100,54720,1,0,0:0:0:0:
380,272,54878,1,0,0:0:0:0:
304,312,55036,1,0,0:0:0:0:
120,260,55194,2,0,B|124:224|124:224|76:192,1,63.7500024318696
212,56,55510,1,0,0:0:0:0:
284,92,55667,1,0,0:0:0:0:
388,336,55825,6,0,B|392:288|440:312|404:272|464:244,1,95.6250036478044
452,248,56141,1,0,0:0:0:0:
224,264,56299,1,0,0:0:0:0:
392,228,56457,1,0,0:0:0:0:
240,136,56615,1,0,0:0:0:0:
216,124,56694,1,0,0:0:0:0:
208,96,56773,1,0,0:0:0:0:
384,48,56931,1,0,0:0:0:0:
140,60,57088,6,0,P|192:44|220:64,1,63.7500024318696
212,56,57325,1,0,0:0:0:0:
224,64,57404,1,0,0:0:0:0:
300,148,57562,1,0,0:0:0:0:
160,344,57720,2,0,B|128:328|128:328|120:272|92:264,1,95.6250036478044
92,220,58036,2,0,B|132:244|132:244|168:236|184:264,1,95.6250036478044
192,260,58352,1,0,0:0:0:0:
400,332,58667,1,0,0:0:0:0:
452,272,58825,1,0,0:0:0:0:
408,56,58983,6,0,B|392:88|356:80|356:80|324:108,1,95.6250036478044
320,112,59299,1,0,0:0:0:0:
268,48,59457,1,0,0:0:0:0:
120,120,59615,5,0,0:0:0:0:
268,224,59773,1,0,0:0:0:0:
100,248,59931,1,0,0:0:0:0:
240,104,60088,1,0,0:0:0:0:
200,320,60246,2,0,B|228:324|228:324|276:288|300:308,1,95.6250036478044
304,304,60562,1,0,0:0:0:0:
376,336,60720,1,0,0:0:0:0:
428,200,60878,6,0,P|416:76|352:72,1,191.250007295609
360,72,61431,1,0,0:0:0:0:
348,76,61510,1,0,0:0:0:0:
252,152,61667,1,0,0:0:0:0:
264,148,61746,1,0,0:0:0:0:
276,144,61825,1,0,0:0:0:0:
360,240,61983,1,0,0:0:0:0:
264,324,62141,1,0,0:0:0:0:
156,252,62299,1,0,0:0:0:0:
148,236,62378,1,0,0:0:0:0:
140,220,62457,1,0,0:0:0:0:
188,56,62615,5,0,0:0:0:0:
256,268,62773,1,0,0:0:0:0:
316,56,62931,1,0,0:0:0:0:
112,180,63088,1,0,0:0:0:0:
392,180,63246,1,0,0:0:0:0:
92,264,63404,6,0,B|68:244|68:244|84:220|88:160,1,95.6250036478044
112,48,63720,1,0,0:0:0:0:
176,92,63878,1,0,0:0:0:0:
300,160,64036,2,0,B|308:180|308:180|336:192|296:256,1,95.6250036478044
248,352,64352,1,0,0:0:0:0:
336,336,64510,1,0,0:0:0:0:
384,48,64667,5,0,0:0:0:0:
456,92,64825,1,0,0:0:0:0:
388,232,64983,1,0,0:0:0:0:
304,208,65141,1,0,0:0:0:0:
116,204,65299,2,0,B|128:228|128:228|112:252|172:272,1,95.6250036478044
404,304,65615,1,0,0:0:0:0:
324,320,65773,1,0,0:0:0:0:
120,320,65931,5,0,0:0:0:0:
36,228,66088,1,0,0:0:0:0:
124,156,66246,1,0,0:0:0:0:
48,68,66404,1,0,0:0:0:0:
160,56,66562,2,0,P|192:88|248:84,1,95.6250036478044
292,108,66878,2,0,P|224:160|216:180,1,95.6250036478044
216,180,67194,1,0,0:0:0:0:
216,204,67273,1,0,0:0:0:0:
216,228,67352,1,0,0:0:0:0:
216,252,67431,1,0,0:0:0:0:
216,276,67510,1,0,0:0:0:0:
112,324,67667,5,0,0:0:0:0:
56,224,67825,2,0,B|80:220|80:220|104:196|108:172,1,63.7500024318696
152,96,68141,1,0,0:0:0:0:
236,36,68299,1,0,0:0:0:0:
152,96,68457,1,0,0:0:0:0:
412,224,68773,6,0,L|392:256,1,31.8750012159348
352,320,68931,2,0,L|376:280,1,31.8750012159348
132,280,69246,1,0,0:0:0:0:
64,96,69404,2,0,L|104:104,1,31.8750012159348
160,60,69562,2,0,L|120:48,1,31.8750012159348
192,244,69720,5,0,0:0:0:0:
336,84,69878,1,0,0:0:0:0:
352,296,70036,1,0,0:0:0:0:
212,112,70194,1,0,0:0:0:0:
424,192,70352,1,0,0:0:0:0:
292,312,70510,2,0,P|256:332|220:304,2,63.7500024318696,0|0|0,0:0|0:0|0:0,0:0:0:0:
112,276,70983,5,0,0:0:0:0:
68,172,71141,1,0,0:0:0:0:
80,156,71220,1,0,0:0:0:0:
92,140,71299,1,0,0:0:0:0:
208,148,71457,1,0,0:0:0:0:
220,132,71536,1,0,0:0:0:0:
232,116,71615,1,0,0:0:0:0:
348,116,71773,1,0,0:0:0:0:
460,140,71931,2,0,P|476:136|500:104,2,31.8750012159348,0|0|0,0:0|0:0|0:0,0:0:0:0:
400,260,72246,5,0,0:0:0:0:
152,216,72404,2,0,L|104:188,2,31.8750012159348,0|0|0,0:0|0:0|0:0,0:0:0:0:
212,64,72720,1,0,0:0:0:0:
392,40,72878,1,0,0:0:0:0:
64,224,73194,5,0,0:0:0:0:
96,308,73352,1,0,0:0:0:0:
152,236,73510,2,0,B|180:288|216:320|264:288|304:232|344:240,1,223.125008511544
356,236,74141,1,0,0:0:0:0:
348,152,74457,2,0,B|312:112|260:80|196:128|132:152,1,223.125008511544
132,152,75088,1,0,0:0:0:0:
48,204,75404,1,0,0:0:0:0:
168,308,75720,5,0,0:0:0:0:
192,308,75799,1,0,0:0:0:0:
216,308,75878,1,0,0:0:0:0:
240,308,75957,1,0,0:0:0:0:
264,308,76036,2,0,L|336:252,1,63.7500024318696
340,268,76273,1,0,0:0:0:0:
364,268,76352,1,0,0:0:0:0:
420,200,76510,5,0,0:0:0:0:
364,132,76667,1,0,0:0:0:0:
340,132,76746,1,0,0:0:0:0:
316,132,76825,1,0,0:0:0:0:
292,132,76904,1,0,0:0:0:0:
268,132,76983,2,0,L|208:80,1,63.7500024318696
148,36,77299,1,0,0:0:0:0:
128,60,77378,1,0,0:0:0:0:
120,92,77457,1,0,0:0:0:0:
120,124,77536,1,0,0:0:0:0:
120,156,77615,1,0,0:0:0:0:
188,236,77773,5,0,0:0:0:0:
64,288,77931,1,0,0:0:0:0:
184,340,78088,1,0,0:0:0:0:
312,288,78246,1,0,0:0:0:0:
312,272,78562,6,0,B|280:192|296:148|296:52,1,223.125008511544
320,24,79194,1,0,0:0:0:0:
432,200,79510,2,0,B|432:272|456:304|456:348,1,127.500004863739
276,332,80141,1,0,0:0:0:0:
224,108,80457,1,0,0:0:0:0:
352,64,80773,5,0,0:0:0:0:
360,80,80852,1,0,0:0:0:0:
368,96,80931,1,0,0:0:0:0:
376,112,81010,1,0,0:0:0:0:
384,128,81088,1,0,0:0:0:0:
424,220,81246,1,0,0:0:0:0:
332,264,81404,1,0,0:0:0:0:
284,172,81562,1,0,0:0:0:0:
264,284,81720,5,0,0:0:0:0:
380,288,81878,1,0,0:0:0:0:
380,172,82036,1,0,0:0:0:0:
264,164,82194,1,0,0:0:0:0:
168,224,82352,5,0,0:0:0:0:
168,256,82431,1,0,0:0:0:0:
168,288,82510,1,0,0:0:0:0:
168,320,82588,1,0,0:0:0:0:
168,352,82667,1,0,0:0:0:0:
84,352,82825,1,0,0:0:0:0:
84,268,82983,1,0,0:0:0:0:
84,236,83062,1,0,0:0:0:0:
84,204,83141,1,0,0:0:0:0:
84,172,83220,1,0,0:0:0:0:
84,140,83299,1,0,0:0:0:0:
160,96,83457,1,0,0:0:0:0:
344,76,83615,5,0,0:0:0:0:
344,288,83773,1,0,0:0:0:0:
216,116,83931,1,0,0:0:0:0:
436,196,84088,1,0,0:0:0:0:
232,248,84246,1,0,0:0:0:0:
360,32,84404,1,0,0:0:0:0:
356,336,84562,1,0,0:0:0:0:
164,264,84720,1,0,0:0:0:0:
100,204,84878,1,0,0:0:0:0:
116,176,84957,1,0,0:0:0:0:
144,160,85036,1,0,0:0:0:0:
176,148,85115,1,0,0:0:0:0:
208,144,85194,1,0,0:0:0:0:
296,92,85352,5,0,0:0:0:0:
360,172,85510,1,0,0:0:0:0:
424,92,85667,1,0,0:0:0:0:
468,184,85825,1,0,0:0:0:0:
444,216,85904,1,0,0:0:0:0:
412,236,85983,1,0,0:0:0:0:
376,252,86062,1,0,0:0:0:0:
336,252,86141,1,0,0:0:0:0:
216,252,86299,2,0,L|180:216,2,31.8750012159348,0|0|0,0:0|0:0|0:0,0:0:0:0:
272,324,86615,5,0,0:0:0:0:
88,324,86773,2,0,L|52:264,1,63.7500024318696
36,244,87010,1,0,0:0:0:0:
24,216,87088,1,0,0:0:0:0:
72,140,87246,1,0,0:0:0:0:
108,60,87404,5,0,0:0:0:0:
140,92,87483,1,0,0:0:0:0:
156,132,87562,1,0,0:0:0:0:
156,176,87641,1,0,0:0:0:0:
124,208,87720,1,0,0:0:0:0:
200,252,87878,1,0,0:0:0:0:
280,212,88036,2,0,P|240:184|228:148,1,63.7500024318696
232,80,88352,1,0,0:0:0:0:
360,64,88667,5,0,0:0:0:0:
284,280,88825,1,0,0:0:0:0:
332,56,88983,1,0,0:0:0:0:
308,284,89141,1,0,0:0:0:0:
308,52,89299,1,0,0:0:0:0:
336,284,89457,1,0,0:0:0:0:
280,56,89615,1,0,0:0:0:0:
364,280,89773,1,0,0:0:0:0:
324,160,89931,5,0,0:0:0:0:
292,160,90010,1,0,0:0:0:0:
260,160,90088,1,0,0:0:0:0:
228,160,90167,1,0,0:0:0:0:
196,160,90246,1,0,0:0:0:0:
136,96,90404,1,0,0:0:0:0:
100,176,90562,2,0,P|100:224|136:240,1,63.7500024318696
188,276,90878,1,0,0:0:0:0:
316,336,91194,6,0,B|328:300|328:300|396:288|432:180,1,191.250007295609
428,172,91510,2,0,B|392:156|392:156|372:116|340:64,1,127.500004863739
256,76,91825,2,0,B|236:144|232:172|232:172|184:184,1,127.500004863739
96,300,92299,1,0,0:0:0:0:
100,208,92457,5,0,0:0:0:0:
136,192,92536,1,0,0:0:0:0:
164,164,92615,1,0,0:0:0:0:
188,136,92694,1,0,0:0:0:0:
208,104,92773,1,0,0:0:0:0:
284,36,92931,1,0,0:0:0:0:
332,124,93088,2,0,P|284:192|296:232,1,127.500004863739
392,204,93404,1,0,0:0:0:0:
364,308,93720,5,0,0:0:0:0:
344,292,93799,1,0,0:0:0:0:
324,276,93878,1,0,0:0:0:0:
304,260,93957,1,0,0:0:0:0:
284,244,94036,1,0,0:0:0:0:
264,228,94115,1,0,0:0:0:0:
284,212,94194,1,0,0:0:0:0:
308,200,94273,1,0,0:0:0:0:
332,188,94352,1,0,0:0:0:0:
356,176,94431,1,0,0:0:0:0:
336,160,94510,5,0,0:0:0:0:
316,144,94588,1,0,0:0:0:0:
296,128,94667,1,0,0:0:0:0:
276,112,94746,1,0,0:0:0:0:
256,96,94825,1,0,0:0:0:0:
236,80,94904,1,0,0:0:0:0:
216,64,94983,6,0,L|164:20,4,63.7500024318696,0|0|0|0|0,0:0|0:0|0:0|0:0|0:0,0:0:0:0:
108,124,95457,2,0,L|92:56,4,63.7500024318696,0|0|0|0|0,0:0|0:0|0:0|0:0|0:0,0:0:0:0:
40,200,95931,1,0,0:0:0:0:
56,220,96010,1,0,0:0:0:0:
72,240,96088,1,0,0:0:0:0:
172,320,96246,5,0,0:0:0:0:
212,320,96325,1,0,0:0:0:0:
252,320,96404,1,0,0:0:0:0:
292,320,96483,1,0,0:0:0:0:
332,324,96562,1,0,0:0:0:0:
376,188,96720,1,0,0:0:0:0:
336,188,96799,1,0,0:0:0:0:
296,188,96878,1,0,0:0:0:0:
256,188,96957,1,0,0:0:0:0:
216,188,97036,1,0,0:0:0:0:
176,188,97115,1,0,0:0:0:0:
136,188,97194,1,0,0:0:0:0:
72,96,97352,6,0,P|44:88|32:56,8,63.7500024318696,0|0|0|0|0|0|0|0|0,0:0|0:0|0:0|0:0|0:0|0:0|0:0|0:0|0:0,0:0:0:0:
164,52,98141,1,0,0:0:0:0:
204,52,98220,1,0,0:0:0:0:
244,52,98299,1,0,0:0:0:0:
284,52,98378,1,0,0:0:0:0:
324,52,98457,1,0,0:0:0:0:
420,92,98615,2,0,B|420:124|420:124|456:156|416:168|416:168|412:208,1,127.500004863739
312,276,99246,5,0,0:0:0:0:
84,288,99562,2,0,P|56:288|36:324,2,63.7500024318696,0|0|0,0:0|0:0|0:0,0:0:0:0:
44,164,99878,1,0,0:0:0:0:
168,196,100036,1,0,0:0:0:0:
216,76,100194,1,0,0:0:0:0:
236,92,100273,1,0,0:0:0:0:
256,108,100352,1,0,0:0:0:0:
384,116,100510,1,0,0:0:0:0:
364,100,100588,1,0,0:0:0:0:
344,84,100667,1,0,0:0:0:0:
268,32,100825,1,0,0:0:0:0:
100,192,100983,6,0,P|56:172|44:148,2,63.7500024318696,0|0|0,0:0|0:0|0:0,0:0:0:0:
200,176,101299,2,0,P|192:252|276:124,1,510.000019454957
152,144,102088,1,0,0:0:0:0:
140,184,102167,1,0,0:0:0:0:
144,220,102246,2,0,P|160:284|216:344,1,127.500004863739
348,320,102562,2,0,L|436:320,1,85
468,224,102878,1,0,0:0:0:0:
432,92,103036,1,0,0:0:0:0:
408,104,103115,1,0,0:0:0:0:
396,128,103194,1,0,0:0:0:0:
336,188,103352,5,0,0:0:0:0:
264,144,103510,2,0,P|260:88|160:36,1,170
104,92,103983,1,0,0:0:0:0:
176,140,104141,1,0,0:0:0:0:
100,176,104299,1,0,0:0:0:0:
40,236,104457,1,0,0:0:0:0:
44,268,104536,1,0,0:0:0:0:
64,296,104615,1,0,0:0:0:0:
92,316,104694,1,0,0:0:0:0:
124,332,104773,2,0,L|232:332,1,85
428,296,105088,5,0,0:0:0:0:
320,112,105246,2,0,L|292:64,2,42.5,0|0|0,0:0|0:0|0:0,0:0:0:0:
280,260,105562,1,0,0:0:0:0:
164,160,105720,2,0,P|112:128|124:76,1,85
52,252,106036,2,0,P|96:288|148:288,1,85
276,296,106352,1,0,0:0:0:0:
428,296,106510,2,0,L|480:336,4,42.5,0|0|0|0|0,0:0|0:0|0:0|0:0|0:0,0:0:0:0:
436,144,106983,2,0,P|316:116|440:84,1,340
168,56,108246,5,0,0:0:0:0:
460,144,108562,2,0,P|472:200|452:228,1,85
400,284,108878,1,0,0:0:0:0:
120,296,109194,2,0,P|112:248|144:220,1,85
228,136,109510,2,0,P|252:184|240:216,1,85
312,72,109825,2,0,P|404:96|368:172,1,170
316,216,110299,1,0,0:0:0:0:
344,248,110378,1,0,0:0:0:0:
384,260,110457,1,0,0:0:0:0:
480,312,110615,1,0,0:0:0:0:
332,328,110773,6,0,B|268:280|224:180|224:92,1,255
60,56,111562,1,0,0:0:0:0:
76,76,111641,1,0,0:0:0:0:
92,96,111720,1,0,0:0:0:0:
76,184,111878,1,0,0:0:0:0:
192,204,112036,1,0,0:0:0:0:
104,308,112194,1,0,0:0:0:0:
252,344,112352,1,0,0:0:0:0:
412,292,112510,1,0,0:0:0:0:
424,60,112667,6,0,P|448:104|412:120,1,85
324,120,112983,1,0,0:0:0:0:
224,116,113141,1,0,0:0:0:0:
220,216,113299,1,0,0:0:0:0:
324,216,113457,1,0,0:0:0:0:
424,240,113615,2,0,P|408:300|376:320,1,85
288,316,113931,2,0,L|180:316,1,85
120,260,114246,1,0,0:0:0:0:
116,156,114404,1,0,0:0:0:0:
140,56,114562,5,0,0:0:0:0:
172,88,114641,1,0,0:0:0:0:
204,116,114720,1,0,0:0:0:0:
236,144,114799,1,0,0:0:0:0:
268,172,114878,2,0,L|340:232,1,85
436,184,115194,6,0,P|432:128|376:96,1,85
404,100,115431,1,0,0:0:0:0:
392,88,115510,1,0,0:0:0:0:
288,48,115667,1,0,0:0:0:0:
176,92,115825,2,0,B|140:108|140:108|144:144|116:144,1,85
76,256,116141,2,0,B|104:240|104:240|144:248|172:204,1,85
272,228,116457,1,0,0:0:0:0:
392,228,116615,2,0,L|440:200,2,42.5,0|0|0,0:0|0:0|0:0,0:0:0:0:
308,316,116931,1,0,0:0:0:0:
192,308,117088,6,0,B|144:324|144:324|96:300|100:248|100:248|128:208,1,170
176,144,117562,2,0,P|164:96|124:64,1,85
44,36,117878,1,0,0:0:0:0:
68,136,118036,1,0,0:0:0:0:
156,192,118194,1,0,0:0:0:0:
200,192,118273,1,0,0:0:0:0:
244,192,118352,1,0,0:0:0:0:
312,140,118510,1,0,0:0:0:0:
376,44,118667,5,0,0:0:0:0:
436,208,118825,1,0,0:0:0:0:
488,44,118983,1,0,0:0:0:0:
188,52,119299,6,0,P|164:96|188:152,1,85
152,276,119615,2,0,P|208:256|228:208,1,85
424,228,119931,2,0,B|424:248|424:248|384:256|384:256|416:276|416:276|392:284|316:312,1,170
188,292,120404,1,0,0:0:0:0:
152,256,120483,1,0,0:0:0:0:
116,220,120562,1,0,0:0:0:0:
152,136,120720,1,0,0:0:0:0:
188,172,120799,1,0,0:0:0:0:
220,212,120878,1,0,0:0:0:0:
288,328,121036,1,0,0:0:0:0:
420,324,121194,2,0,L|474:324,2,42.5,0|0|0,0:0|0:0|0:0,0:0:0:0:
392,200,121510,5,0,0:0:0:0:
392,168,121588,1,0,0:0:0:0:
392,132,121667,1,0,0:0:0:0:
392,96,121746,1,0,0:0:0:0:
392,60,121825,1,0,0:0:0:0:
312,28,121983,1,0,0:0:0:0:
256,112,122141,1,0,0:0:0:0:
200,28,122299,1,0,0:0:0:0:
144,108,122457,1,0,0:0:0:0:
80,312,122773,6,0,P|96:272|160:272,1,85
136,260,123010,1,0,0:0:0:0:
136,260,123088,1,0,0:0:0:0:
220,204,123246,1,0,0:0:0:0:
288,256,123404,2,0,P|320:300|368:304,1,85
416,256,123720,1,0,0:0:0:0:
356,196,123878,1,0,0:0:0:0:
284,148,124036,6,0,P|212:112|180:112,1,85
209,111,124273,1,0,0:0:0:0:
209,111,124352,1,0,0:0:0:0:
124,164,124510,1,0,0:0:0:0:
112,80,124667,2,0,P|156:32|196:32,1,85
256,36,124983,1,0,0:0:0:0:
288,52,125062,1,0,0:0:0:0:
304,84,125141,1,0,0:0:0:0:
308,116,125220,1,0,0:0:0:0:
292,144,125299,1,0,0:0:0:0:
216,184,125457,5,0,0:0:0:0:
188,204,125536,1,0,0:0:0:0:
180,236,125615,1,0,0:0:0:0:
264,248,125773,1,0,0:0:0:0:
288,328,125931,2,0,P|344:300|344:256,1,85
352,200,126246,2,0,P|360:152|408:148,1,85
440,212,126562,1,0,0:0:0:0:
384,276,126720,1,0,0:0:0:0:
360,300,126799,1,0,0:0:0:0:
328,308,126878,1,0,0:0:0:0:
244,304,127036,5,0,0:0:0:0:
164,280,127194,2,0,B|224:208|224:124|160:32,1,255
84,40,127825,1,0,0:0:0:0:
28,104,127983,1,0,0:0:0:0:
28,140,128062,1,0,0:0:0:0:
28,176,128141,1,0,0:0:0:0:
76,244,128299,1,0,0:0:0:0:
136,184,128457,2,0,P|104:128|132:120,1,85
176,92,128773,2,0,P|220:104|192:148,1,85
216,220,129088,5,0,0:0:0:0:
276,280,129246,1,0,0:0:0:0:
304,296,129325,1,0,0:0:0:0:
336,304,129404,1,0,0:0:0:0:
420,288,129562,1,0,0:0:0:0:
340,200,129720,5,0,0:0:0:0:
272,100,129878,1,0,0:0:0:0:
376,40,130036,1,0,0:0:0:0:
416,56,130115,1,0,0:0:0:0:
436,92,130194,1,0,0:0:0:0:
420,132,130273,1,0,0:0:0:0:
384,152,130352,1,0,0:0:0:0:
304,184,130510,1,0,0:0:0:0:
272,212,130588,1,0,0:0:0:0:
288,252,130667,1,0,0:0:0:0:
224,308,130825,5,0,0:0:0:0:
148,240,130983,1,0,0:0:0:0:
212,160,131141,1,0,0:0:0:0:
120,112,131299,1,0,0:0:0:0:
188,36,131457,1,0,0:0:0:0:
288,44,131615,6,0,L|376:44,1,85
400,44,131852,1,0,0:0:0:0:
424,44,131931,1,0,0:0:0:0:
404,128,132088,1,0,0:0:0:0:
320,128,132246,1,0,0:0:0:0:
288,128,132325,1,0,0:0:0:0:
252,128,132404,1,0,0:0:0:0:
184,204,132562,1,0,0:0:0:0:
240,288,132720,1,0,0:0:0:0:
112,56,132878,5,0,0:0:0:0:
68,168,133036,2,0,L|44:212,2,42.5,0|0|0,0:0|0:0|0:0,0:0:0:0:
192,160,133352,1,0,0:0:0:0:
292,52,133510,1,0,0:0:0:0:
320,224,133667,1,0,0:0:0:0:
292,52,133825,1,0,0:0:0:0:
424,144,133983,1,0,0:0:0:0:
448,280,134141,5,0,0:0:0:0:
356,136,134299,2,0,L|336:88,2,42.5,0|0|0,0:0|0:0|0:0,0:0:0:0:
256,256,134615,1,0,0:0:0:0:
92,320,134773,1,0,0:0:0:0:
196,200,134931,1,0,0:0:0:0:
64,192,135088,1,0,0:0:0:0:
64,160,135167,1,0,0:0:0:0:
64,128,135246,1,0,0:0:0:0:
68,96,135325,1,0,0:0:0:0:
68,64,135404,1,0,0:0:0:0:
208,128,135562,6,0,L|232:168,2,42.5,0|0|0,0:0|0:0|0:0,0:0:0:0:
308,48,135878,1,0,0:0:0:0:
396,132,136036,1,0,0:0:0:0:
308,232,136194,1,0,0:0:0:0:
420,276,136352,2,0,P|392:328|348:328,1,85
228,332,136667,1,0,0:0:0:0:
120,328,136825,1,0,0:0:0:0:
96,312,136904,1,0,0:0:0:0:
88,276,136983,1,0,0:0:0:0:
88,168,137141,1,0,0:0:0:0:
92,56,137299,2,0,L|92:16,1,21.25,0|0,0:0|0:0,0:0:0:0:
344,56,137773,5,0,0:0:0:0:
176,128,137931,1,0,0:0:0:0:
336,184,138088,1,0,0:0:0:0:
352,204,138167,1,0,0:0:0:0:
368,232,138246,1,0,0:0:0:0:
256,316,138404,1,0,0:0:0:0:
128,192,138562,5,0,0:0:0:0:
368,196,138720,1,0,0:0:0:0:
128,192,138878,1,0,0:0:0:0:
368,196,139036,1,0,0:0:0:0:
188,52,139194,5,0,0:0:0:0:
184,184,139352,1,0,0:0:0:0:
168,208,139431,1,0,0:0:0:0:
152,232,139510,1,0,0:0:0:0:
256,344,139667,1,0,0:0:0:0:
368,280,139825,1,0,0:0:0:0:
444,80,139983,1,0,0:0:0:0:
472,168,140141,1,0,0:0:0:0:
436,168,140220,1,0,0:0:0:0:
400,168,140299,1,0,0:0:0:0:
368,168,140378,1,0,0:0:0:0:
336,168,140457,1,0,0:0:0:0:
180,100,140615,5,0,0:0:0:0:
156,136,140694,1,0,0:0:0:0:
176,176,140773,1,0,0:0:0:0:
292,296,140931,1,0,0:0:0:0:
468,148,141088,1,0,0:0:0:0:
284,32,141246,1,0,0:0:0:0:
84,172,141404,1,0,0:0:0:0:
260,176,141562,1,0,0:0:0:0:
288,48,141878,6,0,L|180:48,1,85
224,300,142194,2,0,L|292:300|324:300,1,85
