osu file format v14

[General]
AudioFilename: Memme - Avalanche.mp3
AudioLeadIn: 0
PreviewTime: 57740
Countdown: 0
SampleSet: Soft
StackLeniency: 0.7
Mode: 3
LetterboxInBreaks: 0
SpecialStyle: 0
WidescreenStoryboard: 0

[Editor]
DistanceSpacing: 0.6
BeatDivisor: 2
GridSize: 4
TimelineZoom: 0.6999998

[Metadata]
Title:Avalanche
TitleUnicode:Avalanche
Artist:Memme
ArtistUnicode:Memme
Creator:JamesHappy
Version:AnatOWJIya's 4K Beginner
Source:Pump It Up Prime
Tags:parkmemme winter 4 Seasons classical drumstep dubstep PIU Antonio Lucio Vivaldi AnatOWJIya AJIekceu
BeatmapID:1126620
BeatmapSetID:335394

[Difficulty]
HPDrainRate:7
CircleSize:4
OverallDifficulty:7
ApproachRate:5
SliderMultiplier:1.4
SliderTickRate:1

[Events]
//Background and Video events
0,0,"4K.jpg",0,0
//Break Periods
//Storyboard Layer 0 (Background)
//Storyboard Layer 1 (Fail)
//Storyboard Layer 2 (Pass)
//Storyboard Layer 3 (Foreground)
//Storyboard Sound Samples

[TimingPoints]
2883,342.857142857143,4,2,1,5,1,0
57740,-100,4,2,1,5,0,1
67340,-100,4,2,1,5,0,0
98893,342.857142857143,4,2,1,5,1,1
117064,-100,4,2,1,5,0,0

[HitObjects]
64,192,2882,5,0,0:0:0:0:
192,192,3568,1,0,0:0:0:0:
320,192,4254,1,0,0:0:0:0:
448,192,4940,1,0,0:0:0:0:
64,192,5625,1,0,0:0:0:0:
320,192,6311,1,0,0:0:0:0:
192,192,6997,1,0,0:0:0:0:
448,192,7683,1,0,0:0:0:0:
64,192,8368,1,0,0:0:0:0:
192,192,9054,1,0,0:0:0:0:
320,192,9740,1,0,0:0:0:0:
448,192,10425,1,0,0:0:0:0:
192,192,11111,1,0,0:0:0:0:
64,192,11797,1,0,0:0:0:0:
320,192,12483,1,0,0:0:0:0:
448,192,13168,1,0,0:0:0:0:
192,192,13854,1,0,0:0:0:0:
64,192,14197,1,0,0:0:0:0:
320,192,14540,1,0,0:0:0:0:
192,192,14883,1,0,0:0:0:0:
448,192,15225,1,0,0:0:0:0:
320,192,15568,1,0,0:0:0:0:
192,192,15911,1,0,0:0:0:0:
64,192,16254,1,0,0:0:0:0:
320,192,16597,1,0,0:0:0:0:
448,192,16940,1,0,0:0:0:0:
192,192,17283,1,0,0:0:0:0:
320,192,17625,1,0,0:0:0:0:
64,192,17968,1,0,0:0:0:0:
192,192,18311,1,0,0:0:0:0:
320,192,18654,1,0,0:0:0:0:
448,192,18997,1,0,0:0:0:0:
192,192,19340,1,0,0:0:0:0:
64,192,19683,1,0,0:0:0:0:
320,192,20025,1,0,0:0:0:0:
192,192,20368,1,0,0:0:0:0:
448,192,20711,1,0,0:0:0:0:
320,192,21054,1,0,0:0:0:0:
192,192,21397,1,0,0:0:0:0:
64,192,21740,1,0,0:0:0:0:
320,192,22083,1,0,0:0:0:0:
448,192,22425,1,0,0:0:0:0:
192,192,22768,1,0,0:0:0:0:
64,192,23111,1,0,0:0:0:0:
448,192,23454,128,0,24825:0:0:0:0:
64,192,24825,128,0,25511:0:0:0:0:
192,192,25511,128,0,26197:0:0:0:0:
320,192,26197,128,0,26883:0:0:0:0:
448,192,26883,128,0,27568:0:0:0:0:
64,192,27568,128,0,27911:0:0:0:0:
192,192,27911,128,0,28254:0:0:0:0:
320,192,28254,1,0,0:0:0:0:
448,192,28940,1,0,0:0:0:0:
64,192,29283,1,0,0:0:0:0:
192,192,29454,1,0,0:0:0:0:
320,192,29797,1,0,0:0:0:0:
448,192,29968,1,0,0:0:0:0:
64,192,30140,1,0,0:0:0:0:
320,192,30483,1,0,0:0:0:0:
192,192,30654,1,0,0:0:0:0:
448,192,30825,1,0,0:0:0:0:
64,192,30997,1,0,0:0:0:0:
192,192,31168,1,0,0:0:0:0:
320,192,31340,1,0,0:0:0:0:
448,192,31340,1,0,0:0:0:0:
64,192,31683,128,0,32368:0:0:0:0:
192,192,32368,128,0,33054:0:0:0:0:
320,192,33054,128,0,33740:0:0:0:0:
448,192,33740,128,0,34425:0:0:0:0:
64,192,34425,128,0,35111:0:0:0:0:
192,192,35111,128,0,35454:0:0:0:0:
320,192,35454,128,0,35797:0:0:0:0:
448,192,35797,1,0,0:0:0:0:
64,192,36140,1,0,0:0:0:0:
192,192,36311,1,0,0:0:0:0:
448,192,36654,1,0,0:0:0:0:
320,192,36825,1,0,0:0:0:0:
192,192,36997,1,0,0:0:0:0:
64,192,37340,1,0,0:0:0:0:
192,192,37511,1,0,0:0:0:0:
320,192,37683,1,0,0:0:0:0:
448,192,37854,1,0,0:0:0:0:
64,192,38025,1,0,0:0:0:0:
320,192,38025,128,0,38540:0:0:0:0:
192,192,38540,128,0,39225:0:0:0:0:
320,192,39225,128,0,39911:0:0:0:0:
448,192,39911,128,0,40597:0:0:0:0:
64,192,40597,128,0,41283:0:0:0:0:
320,192,41283,128,0,41968:0:0:0:0:
448,192,41968,128,0,42654:0:0:0:0:
192,192,42654,1,0,0:0:0:0:
64,192,42997,1,0,0:0:0:0:
320,192,43340,1,0,0:0:0:0:
192,192,43683,1,0,0:0:0:0:
448,192,44025,1,0,0:0:0:0:
320,192,44368,1,0,0:0:0:0:
192,192,44711,1,0,0:0:0:0:
64,192,45054,1,0,0:0:0:0:
320,192,45397,1,0,0:0:0:0:
448,192,45740,1,0,0:0:0:0:
192,192,46083,1,0,0:0:0:0:
320,192,46425,1,0,0:0:0:0:
64,192,46425,128,0,46768:0:0:0:0:
448,192,46768,1,0,0:0:0:0:
320,192,47111,1,0,0:0:0:0:
192,192,47454,1,0,0:0:0:0:
64,192,47797,1,0,0:0:0:0:
320,192,48140,1,0,0:0:0:0:
192,192,48483,1,0,0:0:0:0:
448,192,48825,1,0,0:0:0:0:
64,192,49168,1,0,0:0:0:0:
192,192,49511,1,0,0:0:0:0:
448,192,49854,1,0,0:0:0:0:
320,192,50197,1,0,0:0:0:0:
192,192,50540,1,0,0:0:0:0:
64,192,50883,1,0,0:0:0:0:
320,192,51225,1,0,0:0:0:0:
448,192,51568,1,0,0:0:0:0:
192,192,51740,1,0,0:0:0:0:
64,192,51911,1,0,0:0:0:0:
320,192,52254,128,0,52597:0:0:0:0:
448,192,52940,128,0,53283:0:0:0:0:
192,192,53625,128,0,53968:0:0:0:0:
64,192,54311,128,0,54654:0:0:0:0:
320,192,54997,128,0,55683:0:0:0:0:
192,192,55683,128,0,56368:0:0:0:0:
448,192,56368,128,0,57054:0:0:0:0:
64,192,57054,1,0,0:0:0:0:
192,192,57397,1,0,0:0:0:0:
320,192,57740,1,0,0:0:0:0:
448,192,57740,1,0,0:0:0:0:
64,192,58083,1,0,0:0:0:0:
192,192,58425,1,0,0:0:0:0:
320,192,58768,1,0,0:0:0:0:
448,192,59111,128,0,59797:0:0:0:0:
64,192,59797,1,0,0:0:0:0:
192,192,60140,128,0,60483:0:0:0:0:
448,192,60483,1,0,0:0:0:0:
320,192,60825,1,0,0:0:0:0:
192,192,61168,1,0,0:0:0:0:
64,192,61511,1,0,0:0:0:0:
448,192,61854,128,0,62540:0:0:0:0:
192,192,62540,128,0,63225:0:0:0:0:
320,192,62540,1,0,0:0:0:0:
64,192,63225,1,0,0:0:0:0:
320,192,63568,1,0,0:0:0:0:
448,192,63911,1,0,0:0:0:0:
64,192,64254,1,0,0:0:0:0:
192,192,64597,128,0,65283:0:0:0:0:
320,192,65283,128,0,65968:0:0:0:0:
448,192,65968,1,0,0:0:0:0:
64,192,66311,1,0,0:0:0:0:
192,192,66654,1,0,0:0:0:0:
320,192,66997,1,0,0:0:0:0:
448,192,67340,1,0,0:0:0:0:
192,192,67683,1,0,0:0:0:0:
64,192,68368,1,0,0:0:0:0:
320,192,69054,1,0,0:0:0:0:
192,192,69740,1,0,0:0:0:0:
448,192,70425,1,0,0:0:0:0:
320,192,71111,1,0,0:0:0:0:
192,192,71797,1,0,0:0:0:0:
64,192,72483,1,0,0:0:0:0:
448,192,72825,128,0,73511:0:0:0:0:
192,192,73168,1,0,0:0:0:0:
320,192,73511,128,0,74197:0:0:0:0:
64,192,73854,1,0,0:0:0:0:
192,192,74197,128,0,74540:0:0:0:0:
448,192,74540,1,0,0:0:0:0:
64,192,75225,1,0,0:0:0:0:
320,192,75911,1,0,0:0:0:0:
448,192,76597,1,0,0:0:0:0:
64,192,76940,128,0,77625:0:0:0:0:
192,192,77283,1,0,0:0:0:0:
448,192,77625,128,0,78311:0:0:0:0:
320,192,77968,1,0,0:0:0:0:
192,192,78311,128,0,78654:0:0:0:0:
64,192,78654,1,0,0:0:0:0:
320,192,79340,1,0,0:0:0:0:
448,192,80025,1,0,0:0:0:0:
192,192,80711,1,0,0:0:0:0:
64,192,81397,1,0,0:0:0:0:
448,192,82083,1,0,0:0:0:0:
320,192,82254,1,0,0:0:0:0:
192,192,82425,1,0,0:0:0:0:
64,192,82768,1,0,0:0:0:0:
192,192,82940,1,0,0:0:0:0:
320,192,83111,1,0,0:0:0:0:
448,192,83454,1,0,0:0:0:0:
192,192,83625,1,0,0:0:0:0:
64,192,83797,1,0,0:0:0:0:
320,192,84140,1,0,0:0:0:0:
448,192,84311,1,0,0:0:0:0:
192,192,84483,1,0,0:0:0:0:
64,192,84483,128,0,84825:0:0:0:0:
320,192,84825,128,0,85168:0:0:0:0:
448,192,85168,128,0,85511:0:0:0:0:
192,192,85854,128,0,86197:0:0:0:0:
64,192,86540,128,0,87225:0:0:0:0:
192,192,87225,128,0,87911:0:0:0:0:
448,192,87911,1,0,0:0:0:0:
320,192,88597,1,0,0:0:0:0:
192,192,89283,1,0,0:0:0:0:
64,192,89968,1,0,0:0:0:0:
320,192,90654,1,0,0:0:0:0:
448,192,91340,1,0,0:0:0:0:
192,192,92025,1,0,0:0:0:0:
320,192,92368,1,0,0:0:0:0:
64,192,92711,1,0,0:0:0:0:
192,192,93054,1,0,0:0:0:0:
448,192,93397,128,0,93740:0:0:0:0:
320,192,94083,128,0,94425:0:0:0:0:
192,192,94768,128,0,95111:0:0:0:0:
64,192,95454,128,0,95797:0:0:0:0:
448,192,96140,128,0,97511:0:0:0:0:
320,192,96140,128,0,96483:0:0:0:0:
192,192,96825,128,0,97168:0:0:0:0:
64,192,97511,128,0,98197:0:0:0:0:
320,192,98540,1,0,0:0:0:0:
192,192,98540,1,0,0:0:0:0:
448,192,98883,1,0,0:0:0:0:
192,192,99235,1,0,0:0:0:0:
320,192,99578,1,0,0:0:0:0:
64,192,99921,1,0,0:0:0:0:
448,192,100264,128,0,101635:0:0:0:0:
64,192,101635,1,0,0:0:0:0:
192,192,101978,1,0,0:0:0:0:
320,192,102321,1,0,0:0:0:0:
448,192,102664,1,0,0:0:0:0:
64,192,103007,128,0,104378:0:0:0:0:
448,192,104378,1,0,0:0:0:0:
192,192,104721,1,0,0:0:0:0:
320,192,105064,1,0,0:0:0:0:
64,192,105407,1,0,0:0:0:0:
192,192,105750,128,0,106778:0:0:0:0:
320,192,106778,1,0,0:0:0:0:
448,192,107121,128,0,107464:0:0:0:0:
320,192,107464,128,0,107807:0:0:0:0:
64,192,107807,128,0,108150:0:0:0:0:
192,192,108150,128,0,108493:0:0:0:0:
448,192,108493,128,0,109864:0:0:0:0:
320,192,108835,1,0,0:0:0:0:
192,192,109521,1,0,0:0:0:0:
64,192,109864,128,0,111235:0:0:0:0:
320,192,110207,1,0,0:0:0:0:
192,192,110893,1,0,0:0:0:0:
320,192,111235,128,0,112607:0:0:0:0:
448,192,111578,1,0,0:0:0:0:
192,192,111921,1,0,0:0:0:0:
64,192,112264,1,0,0:0:0:0:
192,192,112607,128,0,113978:0:0:0:0:
448,192,112607,1,0,0:0:0:0:
64,192,112950,1,0,0:0:0:0:
320,192,113635,1,0,0:0:0:0:
448,192,113978,128,0,115350:0:0:0:0:
64,192,114321,1,0,0:0:0:0:
320,192,115007,1,0,0:0:0:0:
64,192,115350,128,0,116721:0:0:0:0:
192,192,115350,1,0,0:0:0:0:
320,192,115693,1,0,0:0:0:0:
192,192,115864,1,0,0:0:0:0:
448,192,116035,1,0,0:0:0:0:
320,192,116378,1,0,0:0:0:0:
192,192,116721,1,0,0:0:0:0:
448,192,117064,128,0,119121:0:0:0:0:
