osu file format v14

[General]
AudioFilename: Memme - Avalanche.mp3
AudioLeadIn: 0
PreviewTime: 57740
Countdown: 0
SampleSet: Soft
StackLeniency: 0.7
Mode: 3
LetterboxInBreaks: 0
SpecialStyle: 0
WidescreenStoryboard: 0

[Editor]
DistanceSpacing: 0.6
BeatDivisor: 4
GridSize: 4
TimelineZoom: 2.5

[Metadata]
Title:Avalanche
TitleUnicode:Avalanche
Artist:Memme
ArtistUnicode:Memme
Creator:JamesHappy
Version:7K Blizzard
Source:Pump It Up Prime
Tags:parkmemme winter 4 Seasons classical drumstep dubstep PIU Antonio Lucio Vivaldi AnatOWJIya AJIekceu
BeatmapID:1106523
BeatmapSetID:335394

[Difficulty]
HPDrainRate:8.4
CircleSize:7
OverallDifficulty:7
ApproachRate:5
SliderMultiplier:1.4
SliderTickRate:1

[Events]
//Background and Video events
0,0,"avalanche.jpg",0,0
//Break Periods
//Storyboard Layer 0 (Background)
//Storyboard Layer 1 (Fail)
//Storyboard Layer 2 (Pass)
//Storyboard Layer 3 (Foreground)
//Storyboard Sound Samples

[TimingPoints]
2883,342.857142857143,4,2,1,5,1,0
57740,-100,4,2,1,5,0,1
67340,-100,4,2,1,5,0,0
98893,342.857142857143,4,2,1,5,1,1
117064,-100,4,2,1,5,0,0

[HitObjects]
109,192,2882,5,0,0:0:0:0:
402,192,2882,1,0,0:0:0:0:
256,192,2882,1,0,0:0:0:0:
36,192,2882,1,0,0:0:0:0:
460,192,3054,1,0,0:0:0:0:
182,192,3054,1,0,0:0:0:0:
329,192,3140,1,0,0:0:0:0:
256,192,3225,1,0,0:0:0:0:
36,192,3225,1,0,0:0:0:0:
109,192,3311,1,0,0:0:0:0:
153,192,3397,1,0,0:0:0:0:
475,192,3397,1,0,0:0:0:0:
402,192,3482,1,0,0:0:0:0:
36,192,3568,1,0,0:0:0:0:
256,192,3568,1,0,0:0:0:0:
329,192,3568,1,0,0:0:0:0:
402,192,3740,1,0,0:0:0:0:
182,192,3740,1,0,0:0:0:0:
256,192,3825,1,0,0:0:0:0:
109,192,3911,1,0,0:0:0:0:
475,192,3911,1,0,0:0:0:0:
329,192,3997,1,0,0:0:0:0:
182,192,4082,1,0,0:0:0:0:
402,192,4082,1,0,0:0:0:0:
256,192,4168,1,0,0:0:0:0:
460,192,4254,1,0,0:0:0:0:
36,192,4254,1,0,0:0:0:0:
109,192,4254,1,0,0:0:0:0:
402,192,4425,1,0,0:0:0:0:
182,192,4425,1,0,0:0:0:0:
109,192,4511,1,0,0:0:0:0:
256,192,4597,1,0,0:0:0:0:
475,192,4597,1,0,0:0:0:0:
329,192,4683,1,0,0:0:0:0:
402,192,4768,1,0,0:0:0:0:
182,192,4768,1,0,0:0:0:0:
256,192,4854,1,0,0:0:0:0:
36,192,4940,1,0,0:0:0:0:
475,192,4940,1,0,0:0:0:0:
109,192,4940,1,0,0:0:0:0:
402,192,5111,1,0,0:0:0:0:
182,192,5111,1,0,0:0:0:0:
256,192,5197,1,0,0:0:0:0:
109,192,5283,1,0,0:0:0:0:
329,192,5283,1,0,0:0:0:0:
182,192,5368,1,0,0:0:0:0:
475,192,5454,1,0,0:0:0:0:
329,192,5454,1,0,0:0:0:0:
109,192,5540,1,0,0:0:0:0:
402,192,5625,1,0,0:0:0:0:
51,192,5625,128,0,5797:0:0:0:0:
182,192,5625,1,0,0:0:0:0:
109,192,5797,1,0,0:0:0:0:
329,192,5797,1,0,0:0:0:0:
256,192,5883,1,0,0:0:0:0:
402,192,5968,1,0,0:0:0:0:
182,192,5968,1,0,0:0:0:0:
329,192,6054,1,0,0:0:0:0:
475,192,6140,1,0,0:0:0:0:
109,192,6140,1,0,0:0:0:0:
182,192,6225,1,0,0:0:0:0:
256,192,6311,128,0,6483:0:0:0:0:
51,192,6311,1,0,0:0:0:0:
329,192,6311,1,0,0:0:0:0:
109,192,6483,1,0,0:0:0:0:
402,192,6483,1,0,0:0:0:0:
182,192,6568,1,0,0:0:0:0:
36,192,6654,1,0,0:0:0:0:
329,192,6654,1,0,0:0:0:0:
402,192,6740,1,0,0:0:0:0:
256,192,6825,1,0,0:0:0:0:
109,192,6825,1,0,0:0:0:0:
329,192,6911,1,0,0:0:0:0:
51,192,6997,1,0,0:0:0:0:
460,192,6997,128,0,7168:0:0:0:0:
182,192,6997,1,0,0:0:0:0:
256,192,7168,1,0,0:0:0:0:
402,192,7168,1,0,0:0:0:0:
36,192,7254,1,0,0:0:0:0:
460,192,7340,128,0,7511:0:0:0:0:
109,192,7340,1,0,0:0:0:0:
329,192,7340,1,0,0:0:0:0:
402,192,7511,1,0,0:0:0:0:
182,192,7511,1,0,0:0:0:0:
36,192,7597,1,0,0:0:0:0:
329,192,7683,1,0,0:0:0:0:
109,192,7683,1,0,0:0:0:0:
460,192,7683,128,0,7854:0:0:0:0:
36,192,7854,1,0,0:0:0:0:
256,192,7854,1,0,0:0:0:0:
402,192,7940,1,0,0:0:0:0:
460,192,8025,128,0,8197:0:0:0:0:
329,192,8025,1,0,0:0:0:0:
109,192,8025,1,0,0:0:0:0:
182,192,8197,1,0,0:0:0:0:
402,192,8197,1,0,0:0:0:0:
256,192,8283,1,0,0:0:0:0:
51,192,8368,1,0,0:0:0:0:
358,192,8368,128,0,8540:0:0:0:0:
109,192,8368,1,0,0:0:0:0:
256,192,8540,1,0,0:0:0:0:
402,192,8540,1,0,0:0:0:0:
109,192,8625,1,0,0:0:0:0:
460,192,8711,1,0,0:0:0:0:
358,192,8711,128,0,8883:0:0:0:0:
182,192,8711,1,0,0:0:0:0:
402,192,8883,1,0,0:0:0:0:
36,192,8883,1,0,0:0:0:0:
109,192,8968,1,0,0:0:0:0:
358,192,9054,128,0,9225:0:0:0:0:
460,192,9054,1,0,0:0:0:0:
256,192,9054,1,0,0:0:0:0:
36,192,9225,1,0,0:0:0:0:
402,192,9225,1,0,0:0:0:0:
182,192,9311,1,0,0:0:0:0:
358,192,9397,128,0,9568:0:0:0:0:
460,192,9397,1,0,0:0:0:0:
109,192,9397,1,0,0:0:0:0:
256,192,9568,1,0,0:0:0:0:
36,192,9568,1,0,0:0:0:0:
475,192,9654,1,0,0:0:0:0:
182,192,9740,128,0,9911:0:0:0:0:
109,192,9740,1,0,0:0:0:0:
402,192,9740,1,0,0:0:0:0:
36,192,9911,1,0,0:0:0:0:
256,192,9911,1,0,0:0:0:0:
402,192,9997,1,0,0:0:0:0:
182,192,10083,128,0,10254:0:0:0:0:
109,192,10083,1,0,0:0:0:0:
329,192,10083,1,0,0:0:0:0:
256,192,10254,1,0,0:0:0:0:
36,192,10254,1,0,0:0:0:0:
475,192,10340,1,0,0:0:0:0:
109,192,10425,1,0,0:0:0:0:
402,192,10425,1,0,0:0:0:0:
182,192,10425,128,0,10597:0:0:0:0:
256,192,10597,1,0,0:0:0:0:
36,192,10597,1,0,0:0:0:0:
402,192,10683,1,0,0:0:0:0:
182,192,10768,128,0,10940:0:0:0:0:
329,192,10768,1,0,0:0:0:0:
109,192,10768,1,0,0:0:0:0:
256,192,10940,1,0,0:0:0:0:
402,192,10940,1,0,0:0:0:0:
109,192,11025,1,0,0:0:0:0:
36,192,11111,128,0,11283:0:0:0:0:
329,192,11111,1,0,0:0:0:0:
460,192,11111,1,0,0:0:0:0:
256,192,11283,1,0,0:0:0:0:
402,192,11283,1,0,0:0:0:0:
475,192,11368,1,0,0:0:0:0:
182,192,11454,128,0,11625:0:0:0:0:
109,192,11454,1,0,0:0:0:0:
329,192,11454,1,0,0:0:0:0:
36,192,11625,1,0,0:0:0:0:
256,192,11625,1,0,0:0:0:0:
402,192,11711,1,0,0:0:0:0:
475,192,11797,128,0,11968:0:0:0:0:
329,192,11797,1,0,0:0:0:0:
109,192,11797,1,0,0:0:0:0:
36,192,11968,1,0,0:0:0:0:
256,192,11968,1,0,0:0:0:0:
402,192,12054,1,0,0:0:0:0:
329,192,12140,128,0,12311:0:0:0:0:
182,192,12140,1,0,0:0:0:0:
36,192,12140,1,0,0:0:0:0:
402,192,12311,1,0,0:0:0:0:
109,192,12311,1,0,0:0:0:0:
182,192,12397,1,0,0:0:0:0:
402,192,12483,1,0,0:0:0:0:
460,192,12483,1,0,0:0:0:0:
256,192,12483,128,0,12654:0:0:0:0:
36,192,12568,1,0,0:0:0:0:
109,192,12654,1,0,0:0:0:0:
329,192,12654,1,0,0:0:0:0:
402,192,12740,1,0,0:0:0:0:
256,192,12825,128,0,12997:0:0:0:0:
460,192,12825,1,0,0:0:0:0:
36,192,12825,1,0,0:0:0:0:
182,192,12911,1,0,0:0:0:0:
109,192,12997,1,0,0:0:0:0:
402,192,12997,1,0,0:0:0:0:
329,192,13083,1,0,0:0:0:0:
36,192,13168,1,0,0:0:0:0:
182,192,13168,1,0,0:0:0:0:
256,192,13168,1,0,0:0:0:0:
475,192,13254,1,0,0:0:0:0:
402,192,13297,1,0,0:0:0:0:
329,192,13340,1,0,0:0:0:0:
256,192,13383,1,0,0:0:0:0:
182,192,13425,1,0,0:0:0:0:
109,192,13511,1,0,0:0:0:0:
402,192,13683,1,0,0:0:0:0:
36,192,13683,1,0,0:0:0:0:
475,192,13683,1,0,0:0:0:0:
109,192,13725,1,0,0:0:0:0:
182,192,13768,1,0,0:0:0:0:
256,192,13811,1,0,0:0:0:0:
109,192,13854,1,0,0:0:0:0:
475,192,13854,1,0,0:0:0:0:
329,192,13854,1,0,0:0:0:0:
36,192,13854,1,0,0:0:0:0:
402,192,13854,1,0,0:0:0:0:
329,192,14197,1,0,0:0:0:0:
36,192,14197,1,0,0:0:0:0:
109,192,14197,1,0,0:0:0:0:
256,192,14368,1,0,0:0:0:0:
182,192,14540,1,0,0:0:0:0:
109,192,14540,1,0,0:0:0:0:
402,192,14540,1,0,0:0:0:0:
256,192,14711,1,0,0:0:0:0:
475,192,14883,1,0,0:0:0:0:
329,192,14883,1,0,0:0:0:0:
36,192,14883,1,0,0:0:0:0:
182,192,15054,1,0,0:0:0:0:
109,192,15225,1,0,0:0:0:0:
402,192,15225,1,0,0:0:0:0:
358,192,15225,1,0,0:0:0:0:
256,192,15397,1,0,0:0:0:0:
402,192,15568,1,0,0:0:0:0:
153,192,15568,1,0,0:0:0:0:
36,192,15568,1,0,0:0:0:0:
329,192,15740,1,0,0:0:0:0:
109,192,15911,1,0,0:0:0:0:
256,192,15911,1,0,0:0:0:0:
475,192,15911,1,0,0:0:0:0:
329,192,16083,1,0,0:0:0:0:
36,192,16254,1,0,0:0:0:0:
460,192,16254,1,0,0:0:0:0:
182,192,16254,1,0,0:0:0:0:
256,192,16425,1,0,0:0:0:0:
109,192,16597,1,0,0:0:0:0:
329,192,16597,1,0,0:0:0:0:
475,192,16597,1,0,0:0:0:0:
36,192,16768,1,0,0:0:0:0:
402,192,16940,1,0,0:0:0:0:
182,192,16940,1,0,0:0:0:0:
256,192,16940,1,0,0:0:0:0:
109,192,17111,1,0,0:0:0:0:
36,192,17283,1,0,0:0:0:0:
475,192,17283,1,0,0:0:0:0:
256,192,17283,1,0,0:0:0:0:
182,192,17454,1,0,0:0:0:0:
402,192,17625,1,0,0:0:0:0:
109,192,17625,1,0,0:0:0:0:
329,192,17625,1,0,0:0:0:0:
256,192,17797,1,0,0:0:0:0:
402,192,17968,1,0,0:0:0:0:
36,192,17968,1,0,0:0:0:0:
182,192,17968,1,0,0:0:0:0:
475,192,18140,1,0,0:0:0:0:
256,192,18311,1,0,0:0:0:0:
36,192,18311,1,0,0:0:0:0:
329,192,18311,1,0,0:0:0:0:
402,192,18483,1,0,0:0:0:0:
256,192,18654,1,0,0:0:0:0:
109,192,18654,1,0,0:0:0:0:
475,192,18654,1,0,0:0:0:0:
329,192,18825,1,0,0:0:0:0:
36,192,18997,1,0,0:0:0:0:
182,192,18997,1,0,0:0:0:0:
402,192,18997,1,0,0:0:0:0:
256,192,19168,1,0,0:0:0:0:
329,192,19340,1,0,0:0:0:0:
182,192,19340,1,0,0:0:0:0:
475,192,19340,1,0,0:0:0:0:
36,192,19340,1,0,0:0:0:0:
402,192,19511,1,0,0:0:0:0:
475,192,19597,1,0,0:0:0:0:
153,192,19683,1,0,0:0:0:0:
256,192,19683,1,0,0:0:0:0:
358,192,19683,1,0,0:0:0:0:
109,192,19854,1,0,0:0:0:0:
51,192,19940,1,0,0:0:0:0:
182,192,20025,1,0,0:0:0:0:
256,192,20025,1,0,0:0:0:0:
329,192,20025,1,0,0:0:0:0:
475,192,20197,1,0,0:0:0:0:
402,192,20283,1,0,0:0:0:0:
358,192,20368,1,0,0:0:0:0:
256,192,20368,1,0,0:0:0:0:
182,192,20368,1,0,0:0:0:0:
36,192,20540,1,0,0:0:0:0:
109,192,20625,1,0,0:0:0:0:
256,192,20711,1,0,0:0:0:0:
329,192,20711,1,0,0:0:0:0:
153,192,20711,1,0,0:0:0:0:
475,192,20711,1,0,0:0:0:0:
358,192,20883,1,0,0:0:0:0:
402,192,20968,1,0,0:0:0:0:
475,192,21054,1,0,0:0:0:0:
109,192,21054,1,0,0:0:0:0:
256,192,21054,1,0,0:0:0:0:
182,192,21225,1,0,0:0:0:0:
109,192,21311,1,0,0:0:0:0:
36,192,21397,1,0,0:0:0:0:
256,192,21397,1,0,0:0:0:0:
402,192,21397,1,0,0:0:0:0:
329,192,21568,1,0,0:0:0:0:
402,192,21654,1,0,0:0:0:0:
256,192,21740,1,0,0:0:0:0:
109,192,21740,1,0,0:0:0:0:
460,192,21740,1,0,0:0:0:0:
153,192,21911,1,0,0:0:0:0:
109,192,21997,1,0,0:0:0:0:
51,192,22083,1,0,0:0:0:0:
402,192,22083,1,0,0:0:0:0:
256,192,22083,1,0,0:0:0:0:
329,192,22083,1,0,0:0:0:0:
109,192,22254,1,0,0:0:0:0:
182,192,22340,1,0,0:0:0:0:
460,192,22425,1,0,0:0:0:0:
51,192,22425,1,0,0:0:0:0:
256,192,22425,1,0,0:0:0:0:
402,192,22597,1,0,0:0:0:0:
329,192,22683,1,0,0:0:0:0:
153,192,22768,1,0,0:0:0:0:
256,192,22768,1,0,0:0:0:0:
51,192,22768,1,0,0:0:0:0:
109,192,22940,1,0,0:0:0:0:
182,192,23025,1,0,0:0:0:0:
475,192,23111,1,0,0:0:0:0:
256,192,23111,1,0,0:0:0:0:
358,192,23111,1,0,0:0:0:0:
402,192,23283,1,0,0:0:0:0:
329,192,23368,1,0,0:0:0:0:
256,192,23454,1,0,0:0:0:0:
36,192,23454,1,0,0:0:0:0:
109,192,23540,1,0,0:0:0:0:
182,192,23625,1,0,0:0:0:0:
256,192,23711,1,0,0:0:0:0:
475,192,23797,1,0,0:0:0:0:
182,192,23797,1,0,0:0:0:0:
256,192,23883,1,0,0:0:0:0:
329,192,23968,1,0,0:0:0:0:
402,192,24054,1,0,0:0:0:0:
36,192,24140,1,0,0:0:0:0:
329,192,24140,1,0,0:0:0:0:
402,192,24225,1,0,0:0:0:0:
475,192,24311,1,0,0:0:0:0:
402,192,24354,1,0,0:0:0:0:
329,192,24397,1,0,0:0:0:0:
256,192,24440,1,0,0:0:0:0:
182,192,24483,1,0,0:0:0:0:
109,192,24483,1,0,0:0:0:0:
36,192,24483,1,0,0:0:0:0:
402,192,24825,1,0,0:0:0:0:
109,192,24825,1,0,0:0:0:0:
36,192,24825,1,0,0:0:0:0:
475,192,24825,1,0,0:0:0:0:
256,192,24825,128,0,25511:0:0:0:0:
182,192,24911,1,0,0:0:0:0:
329,192,24911,1,0,0:0:0:0:
402,192,24997,1,0,0:0:0:0:
109,192,24997,1,0,0:0:0:0:
182,192,25083,1,0,0:0:0:0:
329,192,25083,1,0,0:0:0:0:
36,192,25168,1,0,0:0:0:0:
475,192,25168,1,0,0:0:0:0:
182,192,25254,1,0,0:0:0:0:
329,192,25254,1,0,0:0:0:0:
36,192,25340,1,0,0:0:0:0:
475,192,25340,1,0,0:0:0:0:
182,192,25425,1,0,0:0:0:0:
329,192,25425,1,0,0:0:0:0:
109,192,25511,1,0,0:0:0:0:
36,192,25511,1,0,0:0:0:0:
475,192,25511,1,0,0:0:0:0:
256,192,25597,1,0,0:0:0:0:
402,192,25597,1,0,0:0:0:0:
109,192,25683,1,0,0:0:0:0:
36,192,25683,1,0,0:0:0:0:
256,192,25768,1,0,0:0:0:0:
402,192,25768,1,0,0:0:0:0:
182,192,25854,1,0,0:0:0:0:
36,192,25854,1,0,0:0:0:0:
256,192,25940,1,0,0:0:0:0:
402,192,25940,1,0,0:0:0:0:
182,192,26025,1,0,0:0:0:0:
36,192,26025,1,0,0:0:0:0:
256,192,26111,1,0,0:0:0:0:
402,192,26111,1,0,0:0:0:0:
109,192,26197,1,0,0:0:0:0:
36,192,26197,1,0,0:0:0:0:
182,192,26197,128,0,26283:0:0:0:0:
475,192,26283,1,0,0:0:0:0:
329,192,26283,128,0,26368:0:0:0:0:
109,192,26368,1,0,0:0:0:0:
182,192,26368,128,0,26454:0:0:0:0:
475,192,26454,1,0,0:0:0:0:
329,192,26454,128,0,26540:0:0:0:0:
36,192,26540,1,0,0:0:0:0:
182,192,26540,128,0,26625:0:0:0:0:
475,192,26625,1,0,0:0:0:0:
329,192,26625,128,0,26711:0:0:0:0:
36,192,26711,1,0,0:0:0:0:
182,192,26711,128,0,26797:0:0:0:0:
475,192,26797,1,0,0:0:0:0:
329,192,26797,128,0,26883:0:0:0:0:
256,192,26883,1,0,0:0:0:0:
182,192,26883,1,0,0:0:0:0:
109,192,26883,128,0,26968:0:0:0:0:
475,192,26968,1,0,0:0:0:0:
402,192,26968,128,0,27054:0:0:0:0:
256,192,27054,1,0,0:0:0:0:
109,192,27054,128,0,27140:0:0:0:0:
475,192,27140,1,0,0:0:0:0:
402,192,27140,128,0,27225:0:0:0:0:
36,192,27225,1,0,0:0:0:0:
109,192,27225,128,0,27311:0:0:0:0:
475,192,27311,1,0,0:0:0:0:
402,192,27311,128,0,27397:0:0:0:0:
36,192,27397,1,0,0:0:0:0:
109,192,27397,128,0,27483:0:0:0:0:
475,192,27483,1,0,0:0:0:0:
402,192,27483,128,0,27568:0:0:0:0:
256,192,27568,1,0,0:0:0:0:
182,192,27568,1,0,0:0:0:0:
36,192,27568,1,0,0:0:0:0:
358,192,27654,1,0,0:0:0:0:
475,192,27654,1,0,0:0:0:0:
153,192,27740,1,0,0:0:0:0:
51,192,27740,1,0,0:0:0:0:
460,192,27825,1,0,0:0:0:0:
358,192,27825,1,0,0:0:0:0:
51,192,27911,1,0,0:0:0:0:
256,192,27911,1,0,0:0:0:0:
153,192,27911,1,0,0:0:0:0:
358,192,27997,1,0,0:0:0:0:
460,192,27997,1,0,0:0:0:0:
51,192,28083,1,0,0:0:0:0:
153,192,28083,1,0,0:0:0:0:
256,192,28168,1,0,0:0:0:0:
358,192,28168,1,0,0:0:0:0:
51,192,28254,1,0,0:0:0:0:
460,192,28254,1,0,0:0:0:0:
402,192,28254,1,0,0:0:0:0:
109,192,28297,1,0,0:0:0:0:
182,192,28340,1,0,0:0:0:0:
256,192,28383,1,0,0:0:0:0:
460,192,28425,1,0,0:0:0:0:
402,192,28468,1,0,0:0:0:0:
329,192,28511,1,0,0:0:0:0:
256,192,28554,1,0,0:0:0:0:
182,192,28597,1,0,0:0:0:0:
36,192,28597,128,0,28940:0:0:0:0:
109,192,28940,1,0,0:0:0:0:
256,192,28940,1,0,0:0:0:0:
402,192,28940,1,0,0:0:0:0:
182,192,29283,1,0,0:0:0:0:
51,192,29283,1,0,0:0:0:0:
358,192,29283,1,0,0:0:0:0:
256,192,29454,1,0,0:0:0:0:
402,192,29454,1,0,0:0:0:0:
460,192,29454,1,0,0:0:0:0:
51,192,29797,1,0,0:0:0:0:
182,192,29797,1,0,0:0:0:0:
358,192,29797,1,0,0:0:0:0:
256,192,29968,1,0,0:0:0:0:
402,192,29968,1,0,0:0:0:0:
460,192,29968,1,0,0:0:0:0:
329,192,30140,128,0,30483:0:0:0:0:
182,192,30140,128,0,30483:0:0:0:0:
51,192,30140,1,0,0:0:0:0:
256,192,30483,1,0,0:0:0:0:
402,192,30483,1,0,0:0:0:0:
109,192,30483,1,0,0:0:0:0:
51,192,30654,1,0,0:0:0:0:
475,192,30654,1,0,0:0:0:0:
256,192,30654,1,0,0:0:0:0:
109,192,30825,128,0,31168:0:0:0:0:
402,192,30825,128,0,31168:0:0:0:0:
182,192,30825,128,0,31254:0:0:0:0:
329,192,30825,128,0,31254:0:0:0:0:
460,192,31168,1,0,0:0:0:0:
51,192,31168,1,0,0:0:0:0:
109,192,31254,1,0,0:0:0:0:
402,192,31254,1,0,0:0:0:0:
182,192,31340,1,0,0:0:0:0:
329,192,31340,1,0,0:0:0:0:
256,192,31340,1,0,0:0:0:0:
36,192,31683,1,0,0:0:0:0:
475,192,31683,1,0,0:0:0:0:
402,192,31683,1,0,0:0:0:0:
109,192,31683,1,0,0:0:0:0:
256,192,31683,128,0,32368:0:0:0:0:
182,192,31768,1,0,0:0:0:0:
329,192,31768,1,0,0:0:0:0:
109,192,31854,1,0,0:0:0:0:
402,192,31854,1,0,0:0:0:0:
182,192,31940,1,0,0:0:0:0:
329,192,31940,1,0,0:0:0:0:
36,192,32025,1,0,0:0:0:0:
475,192,32025,1,0,0:0:0:0:
182,192,32111,1,0,0:0:0:0:
329,192,32111,1,0,0:0:0:0:
475,192,32197,1,0,0:0:0:0:
36,192,32197,1,0,0:0:0:0:
182,192,32283,1,0,0:0:0:0:
329,192,32283,1,0,0:0:0:0:
402,192,32368,1,0,0:0:0:0:
475,192,32368,1,0,0:0:0:0:
36,192,32368,1,0,0:0:0:0:
256,192,32454,1,0,0:0:0:0:
109,192,32454,1,0,0:0:0:0:
475,192,32540,1,0,0:0:0:0:
402,192,32540,1,0,0:0:0:0:
256,192,32625,1,0,0:0:0:0:
109,192,32625,1,0,0:0:0:0:
475,192,32711,1,0,0:0:0:0:
329,192,32711,1,0,0:0:0:0:
109,192,32797,1,0,0:0:0:0:
256,192,32797,1,0,0:0:0:0:
475,192,32883,1,0,0:0:0:0:
329,192,32883,1,0,0:0:0:0:
256,192,32968,1,0,0:0:0:0:
109,192,32968,1,0,0:0:0:0:
402,192,33054,1,0,0:0:0:0:
475,192,33054,1,0,0:0:0:0:
329,192,33054,128,0,33140:0:0:0:0:
36,192,33140,1,0,0:0:0:0:
182,192,33140,128,0,33225:0:0:0:0:
402,192,33225,1,0,0:0:0:0:
329,192,33225,128,0,33311:0:0:0:0:
36,192,33311,1,0,0:0:0:0:
182,192,33311,128,0,33397:0:0:0:0:
475,192,33397,1,0,0:0:0:0:
329,192,33397,128,0,33483:0:0:0:0:
36,192,33483,1,0,0:0:0:0:
182,192,33483,128,0,33568:0:0:0:0:
475,192,33568,1,0,0:0:0:0:
329,192,33568,128,0,33654:0:0:0:0:
36,192,33654,1,0,0:0:0:0:
182,192,33654,128,0,33740:0:0:0:0:
329,192,33740,1,0,0:0:0:0:
475,192,33740,128,0,33825:0:0:0:0:
256,192,33740,1,0,0:0:0:0:
182,192,33825,1,0,0:0:0:0:
402,192,33825,128,0,33911:0:0:0:0:
109,192,33911,1,0,0:0:0:0:
329,192,33911,128,0,33997:0:0:0:0:
36,192,33997,1,0,0:0:0:0:
256,192,33997,128,0,34083:0:0:0:0:
475,192,34083,1,0,0:0:0:0:
182,192,34083,128,0,34168:0:0:0:0:
402,192,34168,1,0,0:0:0:0:
109,192,34168,128,0,34254:0:0:0:0:
329,192,34254,1,0,0:0:0:0:
36,192,34254,128,0,34340:0:0:0:0:
256,192,34340,1,0,0:0:0:0:
475,192,34340,128,0,34425:0:0:0:0:
402,192,34425,128,0,34768:0:0:0:0:
182,192,34425,1,0,0:0:0:0:
109,192,34425,1,0,0:0:0:0:
36,192,34425,1,0,0:0:0:0:
329,192,34597,1,0,0:0:0:0:
182,192,34683,1,0,0:0:0:0:
329,192,34768,1,0,0:0:0:0:
182,192,34854,1,0,0:0:0:0:
475,192,34940,1,0,0:0:0:0:
36,192,34940,1,0,0:0:0:0:
402,192,35025,1,0,0:0:0:0:
109,192,35025,1,0,0:0:0:0:
182,192,35111,1,0,0:0:0:0:
329,192,35111,1,0,0:0:0:0:
256,192,35111,1,0,0:0:0:0:
475,192,35283,1,0,0:0:0:0:
36,192,35283,1,0,0:0:0:0:
109,192,35368,1,0,0:0:0:0:
402,192,35368,1,0,0:0:0:0:
256,192,35454,128,0,35797:0:0:0:0:
182,192,35454,1,0,0:0:0:0:
329,192,35454,1,0,0:0:0:0:
109,192,35625,1,0,0:0:0:0:
402,192,35625,1,0,0:0:0:0:
182,192,35711,1,0,0:0:0:0:
329,192,35711,1,0,0:0:0:0:
36,192,35797,1,0,0:0:0:0:
109,192,35797,1,0,0:0:0:0:
460,192,35797,1,0,0:0:0:0:
402,192,35797,1,0,0:0:0:0:
153,192,36140,1,0,0:0:0:0:
256,192,36140,1,0,0:0:0:0:
460,192,36140,1,0,0:0:0:0:
358,192,36311,1,0,0:0:0:0:
402,192,36311,1,0,0:0:0:0:
109,192,36311,1,0,0:0:0:0:
36,192,36654,1,0,0:0:0:0:
109,192,36654,1,0,0:0:0:0:
256,192,36654,1,0,0:0:0:0:
109,192,36825,1,0,0:0:0:0:
182,192,36825,1,0,0:0:0:0:
329,192,36825,1,0,0:0:0:0:
182,192,36997,1,0,0:0:0:0:
256,192,36997,1,0,0:0:0:0:
402,192,36997,1,0,0:0:0:0:
358,192,37340,1,0,0:0:0:0:
109,192,37340,1,0,0:0:0:0:
51,192,37340,1,0,0:0:0:0:
256,192,37511,1,0,0:0:0:0:
402,192,37511,1,0,0:0:0:0:
182,192,37511,1,0,0:0:0:0:
109,192,37683,1,0,0:0:0:0:
329,192,37683,1,0,0:0:0:0:
460,192,37683,1,0,0:0:0:0:
256,192,38025,1,0,0:0:0:0:
153,192,38025,1,0,0:0:0:0:
329,192,38025,1,0,0:0:0:0:
402,192,38025,1,0,0:0:0:0:
109,192,38540,1,0,0:0:0:0:
402,192,38540,1,0,0:0:0:0:
475,192,38540,1,0,0:0:0:0:
36,192,38540,1,0,0:0:0:0:
256,192,38540,128,0,39225:0:0:0:0:
182,192,38625,1,0,0:0:0:0:
329,192,38625,1,0,0:0:0:0:
109,192,38711,1,0,0:0:0:0:
402,192,38711,1,0,0:0:0:0:
182,192,38797,1,0,0:0:0:0:
329,192,38797,1,0,0:0:0:0:
36,192,38883,1,0,0:0:0:0:
475,192,38883,1,0,0:0:0:0:
182,192,38968,1,0,0:0:0:0:
329,192,38968,1,0,0:0:0:0:
475,192,39054,1,0,0:0:0:0:
36,192,39054,1,0,0:0:0:0:
182,192,39140,1,0,0:0:0:0:
329,192,39140,1,0,0:0:0:0:
36,192,39225,1,0,0:0:0:0:
109,192,39225,1,0,0:0:0:0:
475,192,39225,1,0,0:0:0:0:
402,192,39311,1,0,0:0:0:0:
256,192,39311,1,0,0:0:0:0:
109,192,39397,1,0,0:0:0:0:
36,192,39397,1,0,0:0:0:0:
402,192,39483,1,0,0:0:0:0:
256,192,39483,1,0,0:0:0:0:
182,192,39568,1,0,0:0:0:0:
36,192,39568,1,0,0:0:0:0:
256,192,39654,1,0,0:0:0:0:
402,192,39654,1,0,0:0:0:0:
182,192,39740,1,0,0:0:0:0:
36,192,39740,1,0,0:0:0:0:
402,192,39825,1,0,0:0:0:0:
256,192,39825,1,0,0:0:0:0:
109,192,39911,1,0,0:0:0:0:
36,192,39911,1,0,0:0:0:0:
182,192,39911,128,0,39997:0:0:0:0:
475,192,39997,1,0,0:0:0:0:
329,192,39997,128,0,40083:0:0:0:0:
109,192,40083,1,0,0:0:0:0:
182,192,40083,128,0,40168:0:0:0:0:
475,192,40168,1,0,0:0:0:0:
329,192,40168,128,0,40254:0:0:0:0:
36,192,40254,1,0,0:0:0:0:
182,192,40254,128,0,40340:0:0:0:0:
402,192,40340,1,0,0:0:0:0:
329,192,40340,128,0,40425:0:0:0:0:
36,192,40425,1,0,0:0:0:0:
182,192,40425,128,0,40511:0:0:0:0:
402,192,40511,1,0,0:0:0:0:
329,192,40511,128,0,40597:0:0:0:0:
182,192,40597,128,0,40683:0:0:0:0:
475,192,40597,128,0,40683:0:0:0:0:
256,192,40597,1,0,0:0:0:0:
109,192,40683,128,0,40768:0:0:0:0:
402,192,40683,128,0,40768:0:0:0:0:
329,192,40768,128,0,40854:0:0:0:0:
36,192,40768,128,0,40854:0:0:0:0:
182,192,40854,128,0,40940:0:0:0:0:
475,192,40854,128,0,40940:0:0:0:0:
402,192,40940,128,0,41025:0:0:0:0:
109,192,40940,128,0,41025:0:0:0:0:
329,192,41025,128,0,41111:0:0:0:0:
36,192,41025,128,0,41111:0:0:0:0:
475,192,41111,128,0,41197:0:0:0:0:
182,192,41111,128,0,41197:0:0:0:0:
402,192,41197,128,0,41283:0:0:0:0:
109,192,41197,128,0,41283:0:0:0:0:
51,192,41283,1,0,0:0:0:0:
329,192,41283,1,0,0:0:0:0:
109,192,41325,1,0,0:0:0:0:
182,192,41368,1,0,0:0:0:0:
256,192,41411,1,0,0:0:0:0:
329,192,41454,1,0,0:0:0:0:
402,192,41497,1,0,0:0:0:0:
475,192,41540,1,0,0:0:0:0:
36,192,41583,1,0,0:0:0:0:
109,192,41625,1,0,0:0:0:0:
182,192,41668,1,0,0:0:0:0:
256,192,41711,1,0,0:0:0:0:
329,192,41754,1,0,0:0:0:0:
402,192,41797,1,0,0:0:0:0:
475,192,41840,1,0,0:0:0:0:
402,192,41883,1,0,0:0:0:0:
329,192,41925,1,0,0:0:0:0:
36,192,41968,1,0,0:0:0:0:
256,192,41968,1,0,0:0:0:0:
109,192,41968,1,0,0:0:0:0:
182,192,42054,1,0,0:0:0:0:
36,192,42140,1,0,0:0:0:0:
256,192,42225,1,0,0:0:0:0:
109,192,42311,1,0,0:0:0:0:
329,192,42397,1,0,0:0:0:0:
182,192,42483,1,0,0:0:0:0:
402,192,42568,1,0,0:0:0:0:
109,192,42654,1,0,0:0:0:0:
256,192,42654,1,0,0:0:0:0:
329,192,42654,1,0,0:0:0:0:
475,192,42654,128,0,42825:0:0:0:0:
109,192,42825,1,0,0:0:0:0:
51,192,42997,1,0,0:0:0:0:
153,192,42997,1,0,0:0:0:0:
329,192,42997,128,0,43168:0:0:0:0:
51,192,43168,1,0,0:0:0:0:
329,192,43340,1,0,0:0:0:0:
460,192,43340,1,0,0:0:0:0:
182,192,43340,128,0,43511:0:0:0:0:
460,192,43511,1,0,0:0:0:0:
402,192,43683,1,0,0:0:0:0:
256,192,43683,1,0,0:0:0:0:
36,192,43683,128,0,43854:0:0:0:0:
402,192,43854,1,0,0:0:0:0:
256,192,44025,1,0,0:0:0:0:
109,192,44025,1,0,0:0:0:0:
475,192,44025,128,0,44197:0:0:0:0:
256,192,44197,1,0,0:0:0:0:
153,192,44368,1,0,0:0:0:0:
358,192,44368,1,0,0:0:0:0:
36,192,44368,128,0,44540:0:0:0:0:
153,192,44540,1,0,0:0:0:0:
256,192,44711,1,0,0:0:0:0:
109,192,44711,1,0,0:0:0:0:
402,192,44711,128,0,44883:0:0:0:0:
256,192,44883,1,0,0:0:0:0:
475,192,45054,1,0,0:0:0:0:
358,192,45054,1,0,0:0:0:0:
109,192,45054,128,0,45225:0:0:0:0:
329,192,45225,1,0,0:0:0:0:
256,192,45397,1,0,0:0:0:0:
36,192,45397,1,0,0:0:0:0:
402,192,45397,128,0,45568:0:0:0:0:
256,192,45568,1,0,0:0:0:0:
475,192,45654,1,0,0:0:0:0:
51,192,45740,1,0,0:0:0:0:
329,192,45740,1,0,0:0:0:0:
256,192,45740,128,0,45911:0:0:0:0:
153,192,45825,1,0,0:0:0:0:
329,192,45911,1,0,0:0:0:0:
460,192,46083,1,0,0:0:0:0:
182,192,46083,1,0,0:0:0:0:
109,192,46083,128,0,46254:0:0:0:0:
358,192,46168,1,0,0:0:0:0:
182,192,46254,1,0,0:0:0:0:
36,192,46425,128,0,46683:0:0:0:0:
460,192,46425,128,0,46683:0:0:0:0:
182,192,46425,128,0,46683:0:0:0:0:
329,192,46425,128,0,46683:0:0:0:0:
36,192,46768,1,0,0:0:0:0:
475,192,46768,1,0,0:0:0:0:
329,192,46768,1,0,0:0:0:0:
182,192,46768,1,0,0:0:0:0:
402,192,46854,1,0,0:0:0:0:
256,192,46940,1,0,0:0:0:0:
109,192,46940,1,0,0:0:0:0:
329,192,47025,1,0,0:0:0:0:
402,192,47111,1,0,0:0:0:0:
182,192,47111,1,0,0:0:0:0:
36,192,47111,1,0,0:0:0:0:
256,192,47197,1,0,0:0:0:0:
329,192,47283,1,0,0:0:0:0:
109,192,47283,1,0,0:0:0:0:
182,192,47368,1,0,0:0:0:0:
256,192,47454,1,0,0:0:0:0:
36,192,47454,1,0,0:0:0:0:
475,192,47454,1,0,0:0:0:0:
402,192,47540,1,0,0:0:0:0:
329,192,47625,1,0,0:0:0:0:
109,192,47625,1,0,0:0:0:0:
182,192,47711,1,0,0:0:0:0:
475,192,47797,1,0,0:0:0:0:
256,192,47797,1,0,0:0:0:0:
36,192,47797,1,0,0:0:0:0:
402,192,47883,1,0,0:0:0:0:
329,192,47968,1,0,0:0:0:0:
182,192,47968,1,0,0:0:0:0:
256,192,48054,1,0,0:0:0:0:
329,192,48140,1,0,0:0:0:0:
36,192,48140,1,0,0:0:0:0:
109,192,48140,1,0,0:0:0:0:
475,192,48225,1,0,0:0:0:0:
182,192,48311,1,0,0:0:0:0:
402,192,48311,1,0,0:0:0:0:
256,192,48397,1,0,0:0:0:0:
36,192,48483,1,0,0:0:0:0:
475,192,48483,1,0,0:0:0:0:
329,192,48483,1,0,0:0:0:0:
182,192,48568,1,0,0:0:0:0:
109,192,48654,1,0,0:0:0:0:
402,192,48654,1,0,0:0:0:0:
256,192,48740,1,0,0:0:0:0:
36,192,48825,1,0,0:0:0:0:
182,192,48825,1,0,0:0:0:0:
475,192,48825,1,0,0:0:0:0:
329,192,48911,1,0,0:0:0:0:
256,192,48997,1,0,0:0:0:0:
109,192,48997,1,0,0:0:0:0:
402,192,49083,1,0,0:0:0:0:
329,192,49168,1,0,0:0:0:0:
36,192,49168,1,0,0:0:0:0:
475,192,49168,1,0,0:0:0:0:
182,192,49254,1,0,0:0:0:0:
256,192,49340,1,0,0:0:0:0:
36,192,49425,1,0,0:0:0:0:
475,192,49511,1,0,0:0:0:0:
109,192,49511,1,0,0:0:0:0:
256,192,49511,1,0,0:0:0:0:
402,192,49597,1,0,0:0:0:0:
329,192,49683,1,0,0:0:0:0:
182,192,49683,1,0,0:0:0:0:
109,192,49768,1,0,0:0:0:0:
329,192,49854,1,0,0:0:0:0:
36,192,49854,1,0,0:0:0:0:
475,192,49854,1,0,0:0:0:0:
182,192,49940,1,0,0:0:0:0:
256,192,50025,1,0,0:0:0:0:
402,192,50025,1,0,0:0:0:0:
109,192,50111,1,0,0:0:0:0:
182,192,50197,1,0,0:0:0:0:
475,192,50197,1,0,0:0:0:0:
329,192,50197,1,0,0:0:0:0:
36,192,50283,1,0,0:0:0:0:
256,192,50368,1,0,0:0:0:0:
109,192,50368,1,0,0:0:0:0:
402,192,50454,1,0,0:0:0:0:
182,192,50540,1,0,0:0:0:0:
36,192,50540,1,0,0:0:0:0:
475,192,50540,1,0,0:0:0:0:
329,192,50625,1,0,0:0:0:0:
109,192,50711,1,0,0:0:0:0:
402,192,50711,1,0,0:0:0:0:
182,192,50797,1,0,0:0:0:0:
256,192,50883,1,0,0:0:0:0:
475,192,50883,1,0,0:0:0:0:
402,192,50883,1,0,0:0:0:0:
36,192,50968,1,0,0:0:0:0:
256,192,51054,1,0,0:0:0:0:
109,192,51054,1,0,0:0:0:0:
329,192,51140,1,0,0:0:0:0:
182,192,51225,1,0,0:0:0:0:
36,192,51225,1,0,0:0:0:0:
475,192,51225,1,0,0:0:0:0:
256,192,51311,1,0,0:0:0:0:
109,192,51397,1,0,0:0:0:0:
402,192,51397,1,0,0:0:0:0:
329,192,51483,1,0,0:0:0:0:
182,192,51568,1,0,0:0:0:0:
475,192,51568,1,0,0:0:0:0:
36,192,51568,1,0,0:0:0:0:
256,192,51654,1,0,0:0:0:0:
402,192,51740,1,0,0:0:0:0:
109,192,51740,1,0,0:0:0:0:
329,192,51825,1,0,0:0:0:0:
182,192,51825,1,0,0:0:0:0:
475,192,51911,1,0,0:0:0:0:
36,192,51911,1,0,0:0:0:0:
256,192,51911,1,0,0:0:0:0:
402,192,51911,1,0,0:0:0:0:
109,192,52254,1,0,0:0:0:0:
36,192,52254,128,0,52425:0:0:0:0:
182,192,52254,1,0,0:0:0:0:
475,192,52254,1,0,0:0:0:0:
182,192,52425,128,0,52597:0:0:0:0:
256,192,52425,1,0,0:0:0:0:
329,192,52425,1,0,0:0:0:0:
329,192,52597,128,0,52768:0:0:0:0:
402,192,52597,1,0,0:0:0:0:
475,192,52597,1,0,0:0:0:0:
256,192,52768,1,0,0:0:0:0:
475,192,52768,128,0,52940:0:0:0:0:
36,192,52768,1,0,0:0:0:0:
109,192,52940,1,0,0:0:0:0:
36,192,52940,128,0,53111:0:0:0:0:
182,192,52940,1,0,0:0:0:0:
182,192,53111,128,0,53283:0:0:0:0:
256,192,53111,1,0,0:0:0:0:
329,192,53111,1,0,0:0:0:0:
329,192,53283,128,0,53454:0:0:0:0:
402,192,53283,1,0,0:0:0:0:
475,192,53283,1,0,0:0:0:0:
475,192,53454,128,0,53625:0:0:0:0:
256,192,53454,1,0,0:0:0:0:
36,192,53454,1,0,0:0:0:0:
36,192,53625,128,0,53797:0:0:0:0:
109,192,53625,1,0,0:0:0:0:
182,192,53625,1,0,0:0:0:0:
475,192,53797,128,0,53968:0:0:0:0:
402,192,53797,1,0,0:0:0:0:
329,192,53797,1,0,0:0:0:0:
182,192,53968,128,0,54140:0:0:0:0:
256,192,53968,1,0,0:0:0:0:
109,192,53968,1,0,0:0:0:0:
329,192,54140,128,0,54311:0:0:0:0:
402,192,54140,1,0,0:0:0:0:
256,192,54140,1,0,0:0:0:0:
109,192,54311,128,0,54483:0:0:0:0:
182,192,54311,1,0,0:0:0:0:
36,192,54311,1,0,0:0:0:0:
402,192,54483,128,0,54654:0:0:0:0:
475,192,54483,1,0,0:0:0:0:
329,192,54483,1,0,0:0:0:0:
109,192,54654,1,0,0:0:0:0:
182,192,54654,128,0,54825:0:0:0:0:
36,192,54654,1,0,0:0:0:0:
256,192,54825,128,0,54997:0:0:0:0:
475,192,54825,1,0,0:0:0:0:
329,192,54825,1,0,0:0:0:0:
51,192,54997,1,0,0:0:0:0:
153,192,54997,1,0,0:0:0:0:
109,192,54997,1,0,0:0:0:0:
358,192,55083,1,0,0:0:0:0:
460,192,55083,1,0,0:0:0:0:
153,192,55168,1,0,0:0:0:0:
51,192,55168,1,0,0:0:0:0:
358,192,55254,1,0,0:0:0:0:
460,192,55254,1,0,0:0:0:0:
153,192,55340,1,0,0:0:0:0:
51,192,55340,1,0,0:0:0:0:
358,192,55425,1,0,0:0:0:0:
460,192,55425,1,0,0:0:0:0:
153,192,55511,1,0,0:0:0:0:
51,192,55511,1,0,0:0:0:0:
358,192,55597,1,0,0:0:0:0:
460,192,55597,1,0,0:0:0:0:
109,192,55683,1,0,0:0:0:0:
51,192,55683,1,0,0:0:0:0:
402,192,55768,1,0,0:0:0:0:
460,192,55768,1,0,0:0:0:0:
109,192,55854,1,0,0:0:0:0:
51,192,55854,1,0,0:0:0:0:
402,192,55940,1,0,0:0:0:0:
460,192,55940,1,0,0:0:0:0:
109,192,56025,1,0,0:0:0:0:
51,192,56025,1,0,0:0:0:0:
402,192,56111,1,0,0:0:0:0:
460,192,56111,1,0,0:0:0:0:
109,192,56197,1,0,0:0:0:0:
51,192,56197,1,0,0:0:0:0:
402,192,56283,1,0,0:0:0:0:
475,192,56283,1,0,0:0:0:0:
256,192,56368,128,0,57054:0:0:0:0:
182,192,56368,128,0,57054:0:0:0:0:
329,192,56368,128,0,57054:0:0:0:0:
109,192,56368,128,0,56540:0:0:0:0:
402,192,56540,128,0,56625:0:0:0:0:
109,192,56625,128,0,56711:0:0:0:0:
402,192,56711,128,0,56797:0:0:0:0:
109,192,56797,128,0,56883:0:0:0:0:
402,192,56883,128,0,57054:0:0:0:0:
109,192,56968,128,0,57054:0:0:0:0:
460,192,57054,1,0,0:0:0:0:
36,192,57054,128,0,57140:0:0:0:0:
475,192,57225,1,0,0:0:0:0:
36,192,57225,128,0,57311:0:0:0:0:
460,192,57397,1,0,0:0:0:0:
36,192,57397,128,0,57483:0:0:0:0:
475,192,57568,1,0,0:0:0:0:
36,192,57568,128,0,57654:0:0:0:0:
256,192,57740,1,0,0:0:0:0:
153,192,57740,1,0,0:0:0:0:
358,192,57740,1,0,0:0:0:0:
51,192,57740,1,0,0:0:0:0:
460,192,57740,1,0,0:0:0:0:
182,192,57911,1,0,0:0:0:0:
402,192,57911,1,0,0:0:0:0:
460,192,58083,1,0,0:0:0:0:
256,192,58083,1,0,0:0:0:0:
109,192,58083,1,0,0:0:0:0:
109,192,58254,1,0,0:0:0:0:
329,192,58254,1,0,0:0:0:0:
182,192,58425,1,0,0:0:0:0:
51,192,58425,1,0,0:0:0:0:
460,192,58425,1,0,0:0:0:0:
402,192,58425,1,0,0:0:0:0:
402,192,58597,1,0,0:0:0:0:
256,192,58597,1,0,0:0:0:0:
402,192,58768,1,0,0:0:0:0:
51,192,58768,1,0,0:0:0:0:
182,192,58768,1,0,0:0:0:0:
329,192,58940,1,0,0:0:0:0:
109,192,58940,1,0,0:0:0:0:
256,192,59111,1,0,0:0:0:0:
36,192,59111,128,0,59197:0:0:0:0:
475,192,59111,128,0,59197:0:0:0:0:
460,192,59283,128,0,60140:0:0:0:0:
51,192,59283,128,0,60140:0:0:0:0:
109,192,59283,1,0,0:0:0:0:
256,192,59368,1,0,0:0:0:0:
109,192,59454,1,0,0:0:0:0:
256,192,59540,1,0,0:0:0:0:
402,192,59625,1,0,0:0:0:0:
256,192,59711,1,0,0:0:0:0:
402,192,59797,1,0,0:0:0:0:
153,192,59797,1,0,0:0:0:0:
109,192,59797,1,0,0:0:0:0:
256,192,59968,1,0,0:0:0:0:
109,192,60025,1,0,0:0:0:0:
402,192,60083,1,0,0:0:0:0:
153,192,60140,128,0,60483:0:0:0:0:
358,192,60140,128,0,60483:0:0:0:0:
256,192,60140,128,0,60483:0:0:0:0:
109,192,60483,1,0,0:0:0:0:
402,192,60483,1,0,0:0:0:0:
36,192,60483,1,0,0:0:0:0:
475,192,60483,1,0,0:0:0:0:
36,192,60654,1,0,0:0:0:0:
329,192,60654,1,0,0:0:0:0:
182,192,60825,1,0,0:0:0:0:
36,192,60825,1,0,0:0:0:0:
256,192,60825,1,0,0:0:0:0:
182,192,60997,1,0,0:0:0:0:
402,192,60997,1,0,0:0:0:0:
329,192,61168,1,0,0:0:0:0:
182,192,61168,1,0,0:0:0:0:
475,192,61168,1,0,0:0:0:0:
109,192,61168,1,0,0:0:0:0:
329,192,61340,1,0,0:0:0:0:
109,192,61340,1,0,0:0:0:0:
329,192,61511,1,0,0:0:0:0:
475,192,61511,1,0,0:0:0:0:
36,192,61511,1,0,0:0:0:0:
475,192,61683,1,0,0:0:0:0:
182,192,61683,1,0,0:0:0:0:
109,192,61854,1,0,0:0:0:0:
256,192,61854,128,0,61940:0:0:0:0:
402,192,61854,1,0,0:0:0:0:
256,192,62025,128,0,62540:0:0:0:0:
36,192,62025,1,0,0:0:0:0:
182,192,62111,1,0,0:0:0:0:
475,192,62197,1,0,0:0:0:0:
329,192,62283,1,0,0:0:0:0:
475,192,62368,1,0,0:0:0:0:
329,192,62454,1,0,0:0:0:0:
475,192,62540,128,0,63168:0:0:0:0:
36,192,62540,128,0,63168:0:0:0:0:
109,192,62540,128,0,63168:0:0:0:0:
402,192,62540,128,0,63168:0:0:0:0:
182,192,62768,128,0,63168:0:0:0:0:
329,192,62768,128,0,63168:0:0:0:0:
36,192,63225,1,0,0:0:0:0:
109,192,63225,1,0,0:0:0:0:
182,192,63225,1,0,0:0:0:0:
329,192,63225,1,0,0:0:0:0:
402,192,63225,1,0,0:0:0:0:
475,192,63225,1,0,0:0:0:0:
153,192,63397,1,0,0:0:0:0:
402,192,63397,1,0,0:0:0:0:
153,192,63568,1,0,0:0:0:0:
329,192,63568,1,0,0:0:0:0:
256,192,63568,1,0,0:0:0:0:
329,192,63740,1,0,0:0:0:0:
109,192,63740,1,0,0:0:0:0:
51,192,63911,1,0,0:0:0:0:
329,192,63911,1,0,0:0:0:0:
109,192,63911,1,0,0:0:0:0:
182,192,63911,1,0,0:0:0:0:
36,192,64083,1,0,0:0:0:0:
256,192,64083,1,0,0:0:0:0:
460,192,64254,1,0,0:0:0:0:
36,192,64254,1,0,0:0:0:0:
182,192,64254,1,0,0:0:0:0:
460,192,64425,1,0,0:0:0:0:
182,192,64597,1,0,0:0:0:0:
109,192,64597,128,0,64683:0:0:0:0:
402,192,64597,128,0,64683:0:0:0:0:
358,192,64654,1,0,0:0:0:0:
256,192,64711,1,0,0:0:0:0:
402,192,64768,128,0,65283:0:0:0:0:
109,192,64768,128,0,65283:0:0:0:0:
153,192,64768,1,0,0:0:0:0:
358,192,64854,1,0,0:0:0:0:
153,192,64940,1,0,0:0:0:0:
358,192,65025,1,0,0:0:0:0:
153,192,65111,1,0,0:0:0:0:
358,192,65197,1,0,0:0:0:0:
182,192,65283,1,0,0:0:0:0:
460,192,65283,1,0,0:0:0:0:
51,192,65283,1,0,0:0:0:0:
402,192,65325,1,0,0:0:0:0:
329,192,65368,1,0,0:0:0:0:
256,192,65411,1,0,0:0:0:0:
182,192,65454,1,0,0:0:0:0:
109,192,65497,1,0,0:0:0:0:
36,192,65540,1,0,0:0:0:0:
475,192,65583,1,0,0:0:0:0:
402,192,65625,1,0,0:0:0:0:
329,192,65668,1,0,0:0:0:0:
256,192,65711,1,0,0:0:0:0:
182,192,65754,1,0,0:0:0:0:
109,192,65797,1,0,0:0:0:0:
36,192,65840,1,0,0:0:0:0:
475,192,65883,1,0,0:0:0:0:
402,192,65925,1,0,0:0:0:0:
256,192,65968,1,0,0:0:0:0:
182,192,65968,1,0,0:0:0:0:
329,192,65968,1,0,0:0:0:0:
109,192,66054,1,0,0:0:0:0:
36,192,66140,1,0,0:0:0:0:
475,192,66225,1,0,0:0:0:0:
329,192,66311,1,0,0:0:0:0:
182,192,66311,1,0,0:0:0:0:
402,192,66397,1,0,0:0:0:0:
256,192,66483,1,0,0:0:0:0:
109,192,66483,1,0,0:0:0:0:
329,192,66568,1,0,0:0:0:0:
475,192,66654,1,0,0:0:0:0:
182,192,66654,1,0,0:0:0:0:
51,192,66654,1,0,0:0:0:0:
109,192,66654,1,0,0:0:0:0:
329,192,66740,1,0,0:0:0:0:
402,192,66740,1,0,0:0:0:0:
109,192,66825,1,0,0:0:0:0:
256,192,66825,1,0,0:0:0:0:
329,192,66911,1,0,0:0:0:0:
402,192,66911,1,0,0:0:0:0:
51,192,66997,1,0,0:0:0:0:
256,192,66997,128,0,67340:0:0:0:0:
182,192,66997,1,0,0:0:0:0:
475,192,66997,1,0,0:0:0:0:
51,192,67340,1,0,0:0:0:0:
460,192,67340,1,0,0:0:0:0:
402,192,67340,1,0,0:0:0:0:
109,192,67340,1,0,0:0:0:0:
153,192,67425,1,0,0:0:0:0:
329,192,67425,1,0,0:0:0:0:
109,192,67511,1,0,0:0:0:0:
402,192,67511,1,0,0:0:0:0:
153,192,67597,1,0,0:0:0:0:
329,192,67597,1,0,0:0:0:0:
256,192,67683,1,0,0:0:0:0:
51,192,67683,1,0,0:0:0:0:
460,192,67683,1,0,0:0:0:0:
402,192,67768,1,0,0:0:0:0:
109,192,67768,1,0,0:0:0:0:
329,192,67854,1,0,0:0:0:0:
182,192,67854,1,0,0:0:0:0:
475,192,67940,1,0,0:0:0:0:
36,192,67940,1,0,0:0:0:0:
402,192,68025,1,0,0:0:0:0:
256,192,68025,1,0,0:0:0:0:
109,192,68025,1,0,0:0:0:0:
182,192,68111,1,0,0:0:0:0:
329,192,68111,1,0,0:0:0:0:
36,192,68197,1,0,0:0:0:0:
475,192,68197,1,0,0:0:0:0:
109,192,68283,1,0,0:0:0:0:
402,192,68283,1,0,0:0:0:0:
256,192,68368,1,0,0:0:0:0:
329,192,68368,1,0,0:0:0:0:
182,192,68368,1,0,0:0:0:0:
475,192,68454,1,0,0:0:0:0:
36,192,68454,1,0,0:0:0:0:
402,192,68540,1,0,0:0:0:0:
109,192,68540,1,0,0:0:0:0:
329,192,68625,1,0,0:0:0:0:
182,192,68625,1,0,0:0:0:0:
51,192,68711,1,0,0:0:0:0:
256,192,68711,1,0,0:0:0:0:
460,192,68711,1,0,0:0:0:0:
182,192,68797,1,0,0:0:0:0:
402,192,68797,1,0,0:0:0:0:
36,192,68883,1,0,0:0:0:0:
329,192,68883,1,0,0:0:0:0:
109,192,68968,1,0,0:0:0:0:
402,192,68968,1,0,0:0:0:0:
329,192,69054,1,0,0:0:0:0:
475,192,69054,1,0,0:0:0:0:
182,192,69054,1,0,0:0:0:0:
36,192,69140,1,0,0:0:0:0:
256,192,69140,1,0,0:0:0:0:
109,192,69225,1,0,0:0:0:0:
329,192,69225,1,0,0:0:0:0:
182,192,69311,1,0,0:0:0:0:
402,192,69311,1,0,0:0:0:0:
460,192,69397,1,0,0:0:0:0:
36,192,69397,1,0,0:0:0:0:
256,192,69397,1,0,0:0:0:0:
109,192,69483,1,0,0:0:0:0:
402,192,69483,1,0,0:0:0:0:
329,192,69568,1,0,0:0:0:0:
182,192,69568,1,0,0:0:0:0:
402,192,69654,1,0,0:0:0:0:
256,192,69654,1,0,0:0:0:0:
182,192,69740,1,0,0:0:0:0:
51,192,69740,1,0,0:0:0:0:
109,192,69740,1,0,0:0:0:0:
475,192,69825,1,0,0:0:0:0:
256,192,69825,1,0,0:0:0:0:
402,192,69911,1,0,0:0:0:0:
182,192,69911,1,0,0:0:0:0:
329,192,69997,1,0,0:0:0:0:
109,192,69997,1,0,0:0:0:0:
51,192,70083,1,0,0:0:0:0:
475,192,70083,1,0,0:0:0:0:
256,192,70083,128,0,70597:0:0:0:0:
109,192,70254,1,0,0:0:0:0:
36,192,70340,1,0,0:0:0:0:
182,192,70425,1,0,0:0:0:0:
475,192,70425,1,0,0:0:0:0:
402,192,70425,1,0,0:0:0:0:
36,192,70511,1,0,0:0:0:0:
109,192,70597,128,0,70854:0:0:0:0:
329,192,70597,128,0,70854:0:0:0:0:
182,192,70683,128,0,70768:0:0:0:0:
402,192,70683,128,0,70768:0:0:0:0:
475,192,70768,128,0,71025:0:0:0:0:
36,192,70768,128,0,70940:0:0:0:0:
256,192,70768,128,0,70940:0:0:0:0:
402,192,70854,128,0,71025:0:0:0:0:
182,192,70854,128,0,71025:0:0:0:0:
109,192,70940,128,0,71111:0:0:0:0:
329,192,70940,128,0,71111:0:0:0:0:
36,192,71025,128,0,71368:0:0:0:0:
256,192,71025,128,0,71197:0:0:0:0:
475,192,71111,128,0,71197:0:0:0:0:
402,192,71111,128,0,71283:0:0:0:0:
182,192,71111,128,0,71283:0:0:0:0:
109,192,71197,128,0,71368:0:0:0:0:
329,192,71197,128,0,71368:0:0:0:0:
256,192,71283,128,0,71540:0:0:0:0:
475,192,71283,128,0,71454:0:0:0:0:
402,192,71368,128,0,71540:0:0:0:0:
182,192,71368,128,0,71454:0:0:0:0:
109,192,71454,128,0,71711:0:0:0:0:
329,192,71454,128,0,71625:0:0:0:0:
36,192,71454,128,0,71625:0:0:0:0:
182,192,71540,128,0,71797:0:0:0:0:
475,192,71540,128,0,71711:0:0:0:0:
402,192,71625,128,0,71883:0:0:0:0:
256,192,71625,128,0,71711:0:0:0:0:
329,192,71711,128,0,71797:0:0:0:0:
36,192,71711,128,0,71968:0:0:0:0:
256,192,71797,128,0,72054:0:0:0:0:
475,192,71797,128,0,71968:0:0:0:0:
109,192,71797,128,0,71883:0:0:0:0:
182,192,71883,128,0,72054:0:0:0:0:
329,192,71883,128,0,72054:0:0:0:0:
109,192,71968,128,0,72140:0:0:0:0:
402,192,71968,128,0,72140:0:0:0:0:
475,192,72054,128,0,72311:0:0:0:0:
36,192,72054,128,0,72225:0:0:0:0:
182,192,72140,128,0,72311:0:0:0:0:
256,192,72140,128,0,72397:0:0:0:0:
329,192,72140,128,0,72225:0:0:0:0:
109,192,72225,128,0,72397:0:0:0:0:
402,192,72225,128,0,72397:0:0:0:0:
329,192,72311,128,0,72483:0:0:0:0:
36,192,72311,128,0,72483:0:0:0:0:
182,192,72397,128,0,72568:0:0:0:0:
475,192,72397,128,0,72654:0:0:0:0:
109,192,72483,128,0,72740:0:0:0:0:
256,192,72483,128,0,72654:0:0:0:0:
402,192,72483,128,0,72568:0:0:0:0:
36,192,72568,128,0,72740:0:0:0:0:
329,192,72568,128,0,72740:0:0:0:0:
402,192,72654,128,0,72825:0:0:0:0:
182,192,72654,1,0,0:0:0:0:
475,192,72740,128,0,72825:0:0:0:0:
256,192,72740,1,0,0:0:0:0:
36,192,72825,128,0,73425:0:0:0:0:
329,192,72825,1,0,0:0:0:0:
109,192,72825,128,0,72997:0:0:0:0:
182,192,72911,128,0,73083:0:0:0:0:
256,192,72997,128,0,73168:0:0:0:0:
329,192,73083,128,0,73254:0:0:0:0:
475,192,73168,128,0,73768:0:0:0:0:
182,192,73168,128,0,73511:0:0:0:0:
402,192,73168,128,0,73340:0:0:0:0:
256,192,73254,128,0,73511:0:0:0:0:
329,192,73340,128,0,73511:0:0:0:0:
402,192,73425,128,0,73511:0:0:0:0:
36,192,73511,128,0,74111:0:0:0:0:
109,192,73511,128,0,73683:0:0:0:0:
182,192,73597,128,0,73768:0:0:0:0:
256,192,73683,128,0,73854:0:0:0:0:
329,192,73768,128,0,73940:0:0:0:0:
475,192,73854,128,0,74111:0:0:0:0:
182,192,73854,128,0,74197:0:0:0:0:
402,192,73854,128,0,74025:0:0:0:0:
256,192,73940,128,0,74197:0:0:0:0:
329,192,74025,128,0,74197:0:0:0:0:
402,192,74111,128,0,74197:0:0:0:0:
109,192,74197,1,0,0:0:0:0:0
36,192,74197,1,0,0:0:0:0:0
475,192,74197,128,0,74540:0:0:0:0:
153,192,74540,1,0,0:0:0:0:
36,192,74540,1,0,0:0:0:0:
358,192,74540,1,0,0:0:0:0:
402,192,74625,1,0,0:0:0:0:
109,192,74625,1,0,0:0:0:0:
358,192,74711,1,0,0:0:0:0:
182,192,74711,1,0,0:0:0:0:
402,192,74797,1,0,0:0:0:0:
109,192,74797,1,0,0:0:0:0:
256,192,74883,1,0,0:0:0:0:
51,192,74883,1,0,0:0:0:0:
460,192,74883,1,0,0:0:0:0:
329,192,74968,1,0,0:0:0:0:
109,192,74968,1,0,0:0:0:0:
402,192,75054,1,0,0:0:0:0:
182,192,75054,1,0,0:0:0:0:
256,192,75140,1,0,0:0:0:0:
475,192,75140,1,0,0:0:0:0:
329,192,75225,1,0,0:0:0:0:
51,192,75225,1,0,0:0:0:0:
109,192,75225,1,0,0:0:0:0:
256,192,75311,1,0,0:0:0:0:
182,192,75311,1,0,0:0:0:0:
402,192,75397,1,0,0:0:0:0:
475,192,75397,1,0,0:0:0:0:
182,192,75483,1,0,0:0:0:0:
109,192,75483,1,0,0:0:0:0:
36,192,75568,1,0,0:0:0:0:
475,192,75568,1,0,0:0:0:0:
256,192,75568,1,0,0:0:0:0:
402,192,75654,1,0,0:0:0:0:
329,192,75654,1,0,0:0:0:0:
109,192,75740,1,0,0:0:0:0:
256,192,75740,1,0,0:0:0:0:
36,192,75825,1,0,0:0:0:0:
182,192,75825,1,0,0:0:0:0:
256,192,75911,1,0,0:0:0:0:
460,192,75911,1,0,0:0:0:0:
402,192,75911,1,0,0:0:0:0:
358,192,75997,1,0,0:0:0:0:
109,192,75997,1,0,0:0:0:0:
36,192,76083,1,0,0:0:0:0:
256,192,76083,1,0,0:0:0:0:
402,192,76168,1,0,0:0:0:0:
182,192,76168,1,0,0:0:0:0:
109,192,76254,1,0,0:0:0:0:
329,192,76254,1,0,0:0:0:0:
51,192,76254,1,0,0:0:0:0:
475,192,76340,1,0,0:0:0:0:
256,192,76340,1,0,0:0:0:0:
182,192,76425,1,0,0:0:0:0:
402,192,76425,1,0,0:0:0:0:
109,192,76511,1,0,0:0:0:0:
329,192,76511,1,0,0:0:0:0:
256,192,76597,1,0,0:0:0:0:
36,192,76597,1,0,0:0:0:0:
460,192,76597,1,0,0:0:0:0:
182,192,76683,1,0,0:0:0:0:
402,192,76683,1,0,0:0:0:0:
109,192,76768,1,0,0:0:0:0:
329,192,76768,1,0,0:0:0:0:
182,192,76854,1,0,0:0:0:0:
402,192,76854,1,0,0:0:0:0:
36,192,76940,128,0,77540:0:0:0:0:
109,192,76940,128,0,77111:0:0:0:0:
475,192,76940,1,0,0:0:0:0:
256,192,76940,1,0,0:0:0:0:
182,192,77025,128,0,77197:0:0:0:0:
256,192,77111,128,0,77283:0:0:0:0:
329,192,77197,128,0,77368:0:0:0:0:
402,192,77283,128,0,77454:0:0:0:0:
182,192,77283,128,0,77625:0:0:0:0:
475,192,77283,128,0,77883:0:0:0:0:
256,192,77368,128,0,77625:0:0:0:0:
329,192,77454,128,0,77625:0:0:0:0:
402,192,77540,128,0,77625:0:0:0:0:
109,192,77625,128,0,77797:0:0:0:0:
36,192,77625,128,0,78225:0:0:0:0:
182,192,77711,128,0,77883:0:0:0:0:
256,192,77797,128,0,77968:0:0:0:0:
329,192,77883,128,0,78054:0:0:0:0:
402,192,77968,128,0,78140:0:0:0:0:
182,192,77968,128,0,78311:0:0:0:0:
475,192,77968,128,0,78225:0:0:0:0:
256,192,78054,128,0,78311:0:0:0:0:
329,192,78140,128,0,78311:0:0:0:0:
402,192,78225,128,0,78311:0:0:0:0:
109,192,78311,1,0,0:0:0:0:0
36,192,78311,1,0,0:0:0:0:0
475,192,78311,128,0,78654:0:0:0:0:
329,192,78654,1,0,0:0:0:0:
256,192,78654,1,0,0:0:0:0:
36,192,78740,1,0,0:0:0:0:
182,192,78825,128,0,79083:0:0:0:0:
402,192,78825,128,0,79083:0:0:0:0:
109,192,78911,128,0,78997:0:0:0:0:
329,192,78911,128,0,78997:0:0:0:0:
475,192,78997,128,0,79168:0:0:0:0:
256,192,78997,128,0,79168:0:0:0:0:
36,192,78997,128,0,79254:0:0:0:0:
329,192,79083,128,0,79254:0:0:0:0:
109,192,79083,128,0,79254:0:0:0:0:
182,192,79168,128,0,79340:0:0:0:0:
402,192,79168,128,0,79340:0:0:0:0:
256,192,79254,128,0,79425:0:0:0:0:
475,192,79254,128,0,79597:0:0:0:0:
36,192,79340,128,0,79425:0:0:0:0:
109,192,79340,128,0,79511:0:0:0:0:
329,192,79340,128,0,79511:0:0:0:0:
402,192,79425,128,0,79597:0:0:0:0:
182,192,79425,128,0,79597:0:0:0:0:
36,192,79511,128,0,79683:0:0:0:0:
256,192,79511,128,0,79768:0:0:0:0:
109,192,79597,128,0,79768:0:0:0:0:
329,192,79597,128,0,79683:0:0:0:0:
402,192,79683,128,0,79940:0:0:0:0:
182,192,79683,128,0,79854:0:0:0:0:
475,192,79683,128,0,79854:0:0:0:0:
36,192,79768,128,0,79940:0:0:0:0:
329,192,79768,128,0,80025:0:0:0:0:
256,192,79854,128,0,79940:0:0:0:0:
109,192,79854,128,0,80111:0:0:0:0:
475,192,79940,128,0,80197:0:0:0:0:
182,192,79940,128,0,80025:0:0:0:0:
256,192,80025,128,0,80283:0:0:0:0:
36,192,80025,128,0,80197:0:0:0:0:
402,192,80025,128,0,80111:0:0:0:0:
329,192,80111,128,0,80283:0:0:0:0:
182,192,80111,128,0,80283:0:0:0:0:
109,192,80197,128,0,80368:0:0:0:0:
402,192,80197,128,0,80368:0:0:0:0:
475,192,80283,128,0,80454:0:0:0:0:
36,192,80283,128,0,80540:0:0:0:0:
329,192,80368,128,0,80540:0:0:0:0:
256,192,80368,128,0,80625:0:0:0:0:
182,192,80368,128,0,80454:0:0:0:0:
402,192,80454,128,0,80625:0:0:0:0:
109,192,80454,128,0,80625:0:0:0:0:
182,192,80540,128,0,80711:0:0:0:0:
475,192,80540,128,0,80711:0:0:0:0:
36,192,80625,128,0,80883:0:0:0:0:
329,192,80625,128,0,80797:0:0:0:0:
402,192,80711,128,0,80968:0:0:0:0:
256,192,80711,128,0,80883:0:0:0:0:
109,192,80711,128,0,80797:0:0:0:0:
475,192,80797,128,0,80968:0:0:0:0:
182,192,80797,128,0,80968:0:0:0:0:
329,192,80883,1,0,0:0:0:0:
109,192,80883,128,0,81054:0:0:0:0:
256,192,80968,1,0,0:0:0:0:
36,192,80968,128,0,81054:0:0:0:0:
460,192,81054,128,0,81654:0:0:0:0:
402,192,81054,1,0,0:0:0:0:
182,192,81054,1,0,0:0:0:0:
329,192,81140,1,0,0:0:0:0:
256,192,81225,1,0,0:0:0:0:
182,192,81311,1,0,0:0:0:0:
51,192,81397,128,0,82083:0:0:0:0:
402,192,81397,1,0,0:0:0:0:
109,192,81397,1,0,0:0:0:0:
182,192,81483,1,0,0:0:0:0:
256,192,81568,1,0,0:0:0:0:
329,192,81654,1,0,0:0:0:0:
460,192,81740,128,0,82083:0:0:0:0:
109,192,81740,1,0,0:0:0:0:
402,192,81740,1,0,0:0:0:0:
256,192,81740,1,0,0:0:0:0:
182,192,81825,1,0,0:0:0:0:
256,192,81911,1,0,0:0:0:0:
329,192,81997,1,0,0:0:0:0:
109,192,82083,1,0,0:0:0:0:
182,192,82083,1,0,0:0:0:0:
402,192,82083,1,0,0:0:0:0:
329,192,82168,1,0,0:0:0:0:
36,192,82254,1,0,0:0:0:0:
256,192,82254,1,0,0:0:0:0:
475,192,82254,1,0,0:0:0:0:
182,192,82340,1,0,0:0:0:0:
402,192,82425,1,0,0:0:0:0:
109,192,82425,1,0,0:0:0:0:
36,192,82425,1,0,0:0:0:0:
475,192,82425,1,0,0:0:0:0:
402,192,82597,1,0,0:0:0:0:
256,192,82768,1,0,0:0:0:0:
153,192,82768,1,0,0:0:0:0:
51,192,82768,1,0,0:0:0:0:
358,192,82940,1,0,0:0:0:0:
460,192,82940,1,0,0:0:0:0:
256,192,83111,1,0,0:0:0:0:
109,192,83111,1,0,0:0:0:0:
329,192,83111,1,0,0:0:0:0:
402,192,83283,1,0,0:0:0:0:
182,192,83368,1,0,0:0:0:0:
36,192,83454,1,0,0:0:0:0:
329,192,83540,1,0,0:0:0:0:
182,192,83625,1,0,0:0:0:0:
475,192,83625,1,0,0:0:0:0:
256,192,83625,1,0,0:0:0:0:
460,192,83797,1,0,0:0:0:0:
329,192,83797,1,0,0:0:0:0:
402,192,83797,1,0,0:0:0:0:
256,192,83968,1,0,0:0:0:0:
109,192,84140,1,0,0:0:0:0:
460,192,84140,1,0,0:0:0:0:
402,192,84140,1,0,0:0:0:0:
329,192,84311,1,0,0:0:0:0:
182,192,84311,1,0,0:0:0:0:
256,192,84483,1,0,0:0:0:0:
460,192,84483,128,0,85168:0:0:0:0:
51,192,84483,128,0,85168:0:0:0:0:
109,192,84483,1,0,0:0:0:0:
402,192,84483,1,0,0:0:0:0:
109,192,84825,128,0,85168:0:0:0:0:
402,192,84825,128,0,85168:0:0:0:0:
256,192,85168,1,0,0:0:0:0:
182,192,85168,1,0,0:0:0:0:
329,192,85168,1,0,0:0:0:0:
51,192,85340,1,0,0:0:0:0:
109,192,85340,1,0,0:0:0:0:
475,192,85425,1,0,0:0:0:0:
402,192,85425,1,0,0:0:0:0:
182,192,85511,1,0,0:0:0:0:
256,192,85511,1,0,0:0:0:0:
329,192,85511,1,0,0:0:0:0:
109,192,85511,1,0,0:0:0:0:
358,192,85854,1,0,0:0:0:0:
153,192,85854,1,0,0:0:0:0:
256,192,85854,1,0,0:0:0:0:
109,192,85940,1,0,0:0:0:0:
51,192,85940,1,0,0:0:0:0:
475,192,86025,1,0,0:0:0:0:
402,192,86025,1,0,0:0:0:0:
51,192,86111,1,0,0:0:0:0:
109,192,86111,1,0,0:0:0:0:
153,192,86197,1,0,0:0:0:0:
358,192,86197,1,0,0:0:0:0:
256,192,86197,1,0,0:0:0:0:
402,192,86197,1,0,0:0:0:0:
109,192,86540,1,0,0:0:0:0:
36,192,86540,1,0,0:0:0:0:
402,192,86711,1,0,0:0:0:0:
329,192,86711,1,0,0:0:0:0:
36,192,86883,1,0,0:0:0:0:
109,192,86883,1,0,0:0:0:0:
402,192,87054,1,0,0:0:0:0:
329,192,87054,1,0,0:0:0:0:
475,192,87225,1,0,0:0:0:0:
182,192,87225,1,0,0:0:0:0:
51,192,87311,1,0,0:0:0:0:
358,192,87311,1,0,0:0:0:0:
153,192,87397,1,0,0:0:0:0:
460,192,87397,1,0,0:0:0:0:
51,192,87483,1,0,0:0:0:0:
358,192,87483,1,0,0:0:0:0:
153,192,87568,1,0,0:0:0:0:
460,192,87568,1,0,0:0:0:0:
256,192,87568,128,0,87911:0:0:0:0:
36,192,87911,1,0,0:0:0:0:
182,192,87911,1,0,0:0:0:0:
329,192,87911,1,0,0:0:0:0:
475,192,87911,1,0,0:0:0:0:
109,192,87997,1,0,0:0:0:0:
256,192,88083,1,0,0:0:0:0:
402,192,88083,1,0,0:0:0:0:
182,192,88168,1,0,0:0:0:0:
329,192,88254,1,0,0:0:0:0:
36,192,88254,1,0,0:0:0:0:
109,192,88254,1,0,0:0:0:0:
256,192,88340,1,0,0:0:0:0:
402,192,88425,1,0,0:0:0:0:
182,192,88425,1,0,0:0:0:0:
329,192,88511,1,0,0:0:0:0:
475,192,88597,1,0,0:0:0:0:
256,192,88597,1,0,0:0:0:0:
36,192,88597,1,0,0:0:0:0:
109,192,88683,1,0,0:0:0:0:
182,192,88768,1,0,0:0:0:0:
402,192,88768,1,0,0:0:0:0:
329,192,88854,1,0,0:0:0:0:
256,192,88940,1,0,0:0:0:0:
36,192,88940,1,0,0:0:0:0:
475,192,88940,1,0,0:0:0:0:
109,192,89025,1,0,0:0:0:0:
329,192,89111,1,0,0:0:0:0:
182,192,89111,1,0,0:0:0:0:
256,192,89197,1,0,0:0:0:0:
402,192,89283,1,0,0:0:0:0:
475,192,89283,1,0,0:0:0:0:
182,192,89283,1,0,0:0:0:0:
36,192,89368,1,0,0:0:0:0:
329,192,89454,1,0,0:0:0:0:
109,192,89454,1,0,0:0:0:0:
256,192,89540,1,0,0:0:0:0:
475,192,89625,1,0,0:0:0:0:
182,192,89625,1,0,0:0:0:0:
36,192,89625,1,0,0:0:0:0:
329,192,89711,1,0,0:0:0:0:
402,192,89797,1,0,0:0:0:0:
109,192,89797,1,0,0:0:0:0:
256,192,89883,1,0,0:0:0:0:
329,192,89968,1,0,0:0:0:0:
475,192,89968,1,0,0:0:0:0:
36,192,89968,1,0,0:0:0:0:
182,192,90054,1,0,0:0:0:0:
256,192,90140,1,0,0:0:0:0:
402,192,90140,1,0,0:0:0:0:
109,192,90225,1,0,0:0:0:0:
36,192,90311,1,0,0:0:0:0:
182,192,90311,1,0,0:0:0:0:
475,192,90311,1,0,0:0:0:0:
329,192,90397,1,0,0:0:0:0:
109,192,90483,1,0,0:0:0:0:
475,192,90568,1,0,0:0:0:0:
402,192,90654,1,0,0:0:0:0:
256,192,90654,1,0,0:0:0:0:
36,192,90654,1,0,0:0:0:0:
109,192,90740,1,0,0:0:0:0:
329,192,90825,1,0,0:0:0:0:
182,192,90825,1,0,0:0:0:0:
402,192,90911,1,0,0:0:0:0:
36,192,90997,1,0,0:0:0:0:
182,192,90997,1,0,0:0:0:0:
475,192,90997,1,0,0:0:0:0:
329,192,91083,1,0,0:0:0:0:
256,192,91168,1,0,0:0:0:0:
109,192,91168,1,0,0:0:0:0:
402,192,91254,1,0,0:0:0:0:
36,192,91340,1,0,0:0:0:0:
182,192,91340,1,0,0:0:0:0:
329,192,91340,1,0,0:0:0:0:
475,192,91425,1,0,0:0:0:0:
256,192,91511,1,0,0:0:0:0:
402,192,91511,1,0,0:0:0:0:
109,192,91597,1,0,0:0:0:0:
475,192,91683,1,0,0:0:0:0:
36,192,91683,1,0,0:0:0:0:
329,192,91683,1,0,0:0:0:0:
182,192,91768,1,0,0:0:0:0:
109,192,91854,1,0,0:0:0:0:
402,192,91854,1,0,0:0:0:0:
329,192,91940,1,0,0:0:0:0:
36,192,92025,1,0,0:0:0:0:
256,192,92025,1,0,0:0:0:0:
109,192,92025,1,0,0:0:0:0:
475,192,92111,1,0,0:0:0:0:
402,192,92197,1,0,0:0:0:0:
256,192,92197,1,0,0:0:0:0:
182,192,92283,1,0,0:0:0:0:
36,192,92368,1,0,0:0:0:0:
475,192,92368,1,0,0:0:0:0:
329,192,92368,1,0,0:0:0:0:
256,192,92454,1,0,0:0:0:0:
109,192,92540,1,0,0:0:0:0:
402,192,92540,1,0,0:0:0:0:
182,192,92625,1,0,0:0:0:0:
36,192,92711,1,0,0:0:0:0:
329,192,92711,1,0,0:0:0:0:
475,192,92711,1,0,0:0:0:0:
256,192,92797,1,0,0:0:0:0:
109,192,92883,1,0,0:0:0:0:
402,192,92883,1,0,0:0:0:0:
329,192,92968,1,0,0:0:0:0:
182,192,92968,1,0,0:0:0:0:
256,192,93054,1,0,0:0:0:0:
36,192,93054,1,0,0:0:0:0:
109,192,93054,1,0,0:0:0:0:
475,192,93054,1,0,0:0:0:0:
329,192,93397,1,0,0:0:0:0:
475,192,93397,128,0,93568:0:0:0:0:
402,192,93397,1,0,0:0:0:0:
36,192,93397,1,0,0:0:0:0:
329,192,93568,128,0,93740:0:0:0:0:
256,192,93568,1,0,0:0:0:0:
182,192,93568,1,0,0:0:0:0:
109,192,93740,1,0,0:0:0:0:
36,192,93740,1,0,0:0:0:0:
182,192,93740,128,0,93911:0:0:0:0:
475,192,93911,1,0,0:0:0:0:
36,192,93911,128,0,94083:0:0:0:0:
256,192,93911,1,0,0:0:0:0:
475,192,94083,128,0,94254:0:0:0:0:
402,192,94083,1,0,0:0:0:0:
329,192,94083,1,0,0:0:0:0:
329,192,94254,128,0,94425:0:0:0:0:
182,192,94254,1,0,0:0:0:0:
256,192,94254,1,0,0:0:0:0:
109,192,94425,1,0,0:0:0:0:
36,192,94425,1,0,0:0:0:0:
182,192,94425,128,0,94597:0:0:0:0:
256,192,94597,1,0,0:0:0:0:
475,192,94597,1,0,0:0:0:0:
36,192,94597,128,0,94768:0:0:0:0:
329,192,94768,1,0,0:0:0:0:
475,192,94768,128,0,94940:0:0:0:0:
402,192,94768,1,0,0:0:0:0:
182,192,94940,1,0,0:0:0:0:
36,192,94940,128,0,95111:0:0:0:0:
109,192,94940,1,0,0:0:0:0:
256,192,95111,1,0,0:0:0:0:
329,192,95111,128,0,95283:0:0:0:0:
402,192,95111,1,0,0:0:0:0:
109,192,95283,1,0,0:0:0:0:
182,192,95283,128,0,95454:0:0:0:0:
256,192,95283,1,0,0:0:0:0:
402,192,95454,128,0,95625:0:0:0:0:
475,192,95454,1,0,0:0:0:0:
329,192,95454,1,0,0:0:0:0:
36,192,95625,1,0,0:0:0:0:
109,192,95625,128,0,95797:0:0:0:0:
182,192,95625,1,0,0:0:0:0:
475,192,95797,1,0,0:0:0:0:
402,192,95797,1,0,0:0:0:0:
329,192,95797,128,0,95968:0:0:0:0:
182,192,95968,1,0,0:0:0:0:
36,192,95968,1,0,0:0:0:0:
256,192,95968,128,0,96140:0:0:0:0:
475,192,96140,1,0,0:0:0:0:
329,192,96140,1,0,0:0:0:0:
402,192,96140,1,0,0:0:0:0:
109,192,96225,1,0,0:0:0:0:
36,192,96225,1,0,0:0:0:0:
329,192,96311,1,0,0:0:0:0:
475,192,96311,1,0,0:0:0:0:
109,192,96397,1,0,0:0:0:0:
36,192,96397,1,0,0:0:0:0:
329,192,96483,1,0,0:0:0:0:
475,192,96483,1,0,0:0:0:0:
109,192,96568,1,0,0:0:0:0:
36,192,96568,1,0,0:0:0:0:
329,192,96654,1,0,0:0:0:0:
475,192,96654,1,0,0:0:0:0:
109,192,96740,1,0,0:0:0:0:
36,192,96740,1,0,0:0:0:0:
475,192,96825,1,0,0:0:0:0:
402,192,96825,1,0,0:0:0:0:
182,192,96911,1,0,0:0:0:0:
36,192,96911,1,0,0:0:0:0:
402,192,96997,1,0,0:0:0:0:
475,192,96997,1,0,0:0:0:0:
182,192,97083,1,0,0:0:0:0:
36,192,97083,1,0,0:0:0:0:
402,192,97168,1,0,0:0:0:0:
475,192,97168,1,0,0:0:0:0:
182,192,97254,1,0,0:0:0:0:
36,192,97254,1,0,0:0:0:0:
402,192,97340,1,0,0:0:0:0:
475,192,97340,1,0,0:0:0:0:
182,192,97425,1,0,0:0:0:0:
36,192,97425,1,0,0:0:0:0:
256,192,97511,1,0,0:0:0:0:
402,192,97511,1,0,0:0:0:0:
475,192,97511,1,0,0:0:0:0:
329,192,97511,1,0,0:0:0:0:
51,192,98540,1,0,0:0:0:0:
153,192,98540,1,0,0:0:0:0:
256,192,98540,1,0,0:0:0:0:
358,192,98540,1,0,0:0:0:0:
460,192,98540,1,0,0:0:0:0:
460,192,98893,1,0,0:0:0:0:
51,192,98893,1,0,0:0:0:0:
109,192,98893,1,0,0:0:0:0:
256,192,98893,1,0,0:0:0:0:
402,192,98893,1,0,0:0:0:0:
109,192,99235,1,0,0:0:0:0:
460,192,99235,1,0,0:0:0:0:
256,192,99235,1,0,0:0:0:0:
329,192,99235,1,0,0:0:0:0:
36,192,99407,1,0,0:0:0:0:
256,192,99407,1,0,0:0:0:0:
256,192,99578,1,0,0:0:0:0:
402,192,99578,1,0,0:0:0:0:
182,192,99578,1,0,0:0:0:0:
402,192,99750,1,0,0:0:0:0:
109,192,99750,1,0,0:0:0:0:
51,192,99921,1,0,0:0:0:0:
402,192,99921,1,0,0:0:0:0:
256,192,99921,1,0,0:0:0:0:
182,192,99921,1,0,0:0:0:0:
256,192,100093,1,0,0:0:0:0:
460,192,100264,128,0,100950:0:0:0:0:
51,192,100264,1,0,0:0:0:0:
256,192,100264,1,0,0:0:0:0:
109,192,100350,1,0,0:0:0:0:
402,192,100435,128,0,101121:0:0:0:0:
51,192,100435,1,0,0:0:0:0:
109,192,100521,1,0,0:0:0:0:
329,192,100607,128,0,101293:0:0:0:0:
51,192,100607,1,0,0:0:0:0:
109,192,100693,1,0,0:0:0:0:
256,192,100778,128,0,101635:0:0:0:0:
51,192,100778,1,0,0:0:0:0:
109,192,100864,1,0,0:0:0:0:
182,192,100950,128,0,101121:0:0:0:0:
109,192,101121,1,0,0:0:0:0:
475,192,101121,1,0,0:0:0:0:
182,192,101207,128,0,101293:0:0:0:0:
109,192,101293,1,0,0:0:0:0:
475,192,101293,1,0,0:0:0:0:
36,192,101293,1,0,0:0:0:0:
109,192,101464,1,0,0:0:0:0:
182,192,101635,1,0,0:0:0:0:
402,192,101635,1,0,0:0:0:0:
36,192,101635,1,0,0:0:0:0:
329,192,101807,1,0,0:0:0:0:
153,192,101978,1,0,0:0:0:0:
460,192,101978,1,0,0:0:0:0:
109,192,101978,1,0,0:0:0:0:
402,192,101978,1,0,0:0:0:0:
153,192,102150,1,0,0:0:0:0:
329,192,102150,1,0,0:0:0:0:
402,192,102321,1,0,0:0:0:0:
358,192,102321,1,0,0:0:0:0:
36,192,102321,1,0,0:0:0:0:
402,192,102493,1,0,0:0:0:0:
182,192,102493,1,0,0:0:0:0:
51,192,102664,1,0,0:0:0:0:
460,192,102664,1,0,0:0:0:0:
182,192,102664,1,0,0:0:0:0:
109,192,102664,1,0,0:0:0:0:
109,192,102835,1,0,0:0:0:0:
51,192,103007,128,0,103693:0:0:0:0:
402,192,103007,1,0,0:0:0:0:
256,192,103007,1,0,0:0:0:0:
460,192,103178,1,0,0:0:0:0:
109,192,103178,128,0,103864:0:0:0:0:
402,192,103264,1,0,0:0:0:0:
460,192,103350,1,0,0:0:0:0:
182,192,103350,128,0,104035:0:0:0:0:
402,192,103435,1,0,0:0:0:0:
460,192,103521,1,0,0:0:0:0:
256,192,103521,128,0,104378:0:0:0:0:
402,192,103607,1,0,0:0:0:0:
329,192,103693,128,0,103864:0:0:0:0:
475,192,103864,1,0,0:0:0:0:
36,192,103864,1,0,0:0:0:0:
329,192,103950,128,0,104035:0:0:0:0:
475,192,104035,1,0,0:0:0:0:
36,192,104035,1,0,0:0:0:0:
109,192,104035,1,0,0:0:0:0:
329,192,104121,128,0,104207:0:0:0:0:
475,192,104207,1,0,0:0:0:0:
36,192,104207,1,0,0:0:0:0:
329,192,104293,128,0,104378:0:0:0:0:
36,192,104378,1,0,0:0:0:0:
109,192,104378,1,0,0:0:0:0:
475,192,104378,1,0,0:0:0:0:
182,192,104550,1,0,0:0:0:0:
109,192,104721,1,0,0:0:0:0:
153,192,104721,1,0,0:0:0:0:
460,192,104721,1,0,0:0:0:0:
36,192,104721,1,0,0:0:0:0:
109,192,104893,1,0,0:0:0:0:
329,192,104893,1,0,0:0:0:0:
109,192,105064,1,0,0:0:0:0:
402,192,105064,1,0,0:0:0:0:
256,192,105064,1,0,0:0:0:0:
402,192,105235,1,0,0:0:0:0:
182,192,105235,1,0,0:0:0:0:
329,192,105407,1,0,0:0:0:0:
460,192,105407,1,0,0:0:0:0:
402,192,105407,1,0,0:0:0:0:
182,192,105407,1,0,0:0:0:0:
329,192,105578,1,0,0:0:0:0:
329,192,105750,1,0,0:0:0:0:
51,192,105750,128,0,106693:0:0:0:0:
109,192,105750,128,0,106693:0:0:0:0:
153,192,105921,1,0,0:0:0:0:
256,192,106007,1,0,0:0:0:0:
358,192,106093,1,0,0:0:0:0:
153,192,106093,128,0,106693:0:0:0:0:
256,192,106264,128,0,106693:0:0:0:0:
475,192,106264,1,0,0:0:0:0:
402,192,106350,1,0,0:0:0:0:
358,192,106435,128,0,106693:0:0:0:0:
475,192,106435,1,0,0:0:0:0:
402,192,106521,1,0,0:0:0:0:
475,192,106607,1,0,0:0:0:0:
402,192,106693,1,0,0:0:0:0:
51,192,106778,1,0,0:0:0:0:
153,192,106778,1,0,0:0:0:0:
256,192,106778,1,0,0:0:0:0:
358,192,106778,1,0,0:0:0:0:
109,192,106778,1,0,0:0:0:0:
51,192,107121,1,0,0:0:0:0:
358,192,107121,1,0,0:0:0:0:
256,192,107121,1,0,0:0:0:0:
109,192,107207,1,0,0:0:0:0:
402,192,107207,1,0,0:0:0:0:
51,192,107293,1,0,0:0:0:0:
329,192,107293,1,0,0:0:0:0:
109,192,107378,1,0,0:0:0:0:
402,192,107378,1,0,0:0:0:0:
460,192,107464,1,0,0:0:0:0:
182,192,107464,1,0,0:0:0:0:
256,192,107464,1,0,0:0:0:0:
402,192,107550,1,0,0:0:0:0:
109,192,107550,1,0,0:0:0:0:
460,192,107635,1,0,0:0:0:0:
182,192,107635,1,0,0:0:0:0:
402,192,107721,1,0,0:0:0:0:
109,192,107721,1,0,0:0:0:0:
182,192,107807,1,0,0:0:0:0:
460,192,107807,1,0,0:0:0:0:
36,192,107807,1,0,0:0:0:0:
329,192,107807,1,0,0:0:0:0:
109,192,107978,1,0,0:0:0:0:
402,192,107978,1,0,0:0:0:0:
182,192,108064,1,0,0:0:0:0:
358,192,108064,1,0,0:0:0:0:
109,192,108150,1,0,0:0:0:0:
36,192,108150,1,0,0:0:0:0:
475,192,108150,1,0,0:0:0:0:
402,192,108150,1,0,0:0:0:0:
256,192,108321,1,0,0:0:0:0:
358,192,108493,1,0,0:0:0:0:
153,192,108493,1,0,0:0:0:0:
402,192,108493,1,0,0:0:0:0:
36,192,108493,1,0,0:0:0:0:
51,192,108664,128,0,109864:0:0:0:0:
256,192,108664,1,0,0:0:0:0:
358,192,108835,1,0,0:0:0:0:
460,192,108835,1,0,0:0:0:0:
182,192,108835,1,0,0:0:0:0:
109,192,108921,1,0,0:0:0:0:
256,192,109007,1,0,0:0:0:0:
402,192,109007,1,0,0:0:0:0:
182,192,109093,1,0,0:0:0:0:
329,192,109178,1,0,0:0:0:0:
475,192,109178,1,0,0:0:0:0:
256,192,109264,1,0,0:0:0:0:
109,192,109350,1,0,0:0:0:0:
402,192,109350,1,0,0:0:0:0:
329,192,109435,1,0,0:0:0:0:
475,192,109521,1,0,0:0:0:0:
256,192,109521,1,0,0:0:0:0:
182,192,109521,1,0,0:0:0:0:
109,192,109521,1,0,0:0:0:0:
475,192,109864,1,0,0:0:0:0:
256,192,109864,1,0,0:0:0:0:
182,192,109864,1,0,0:0:0:0:
256,192,110035,128,0,111235:0:0:0:0:
402,192,110035,1,0,0:0:0:0:
109,192,110035,1,0,0:0:0:0:
329,192,110207,1,0,0:0:0:0:
460,192,110207,1,0,0:0:0:0:
402,192,110207,1,0,0:0:0:0:
36,192,110293,1,0,0:0:0:0:
182,192,110378,1,0,0:0:0:0:
109,192,110378,1,0,0:0:0:0:
475,192,110464,1,0,0:0:0:0:
402,192,110550,1,0,0:0:0:0:
329,192,110550,1,0,0:0:0:0:
36,192,110635,1,0,0:0:0:0:
109,192,110721,1,0,0:0:0:0:
182,192,110721,1,0,0:0:0:0:
475,192,110807,1,0,0:0:0:0:
402,192,110893,1,0,0:0:0:0:
36,192,110893,1,0,0:0:0:0:
329,192,110893,1,0,0:0:0:0:
109,192,110893,1,0,0:0:0:0:
358,192,111235,1,0,0:0:0:0:
109,192,111235,1,0,0:0:0:0:
475,192,111235,1,0,0:0:0:0:
460,192,111407,128,0,112607:0:0:0:0:
153,192,111407,1,0,0:0:0:0:
51,192,111407,1,0,0:0:0:0:
36,192,111493,1,0,0:0:0:0:
182,192,111493,1,0,0:0:0:0:
358,192,111578,1,0,0:0:0:0:
402,192,111578,1,0,0:0:0:0:
256,192,111578,1,0,0:0:0:0:
109,192,111578,1,0,0:0:0:0:
256,192,111750,1,0,0:0:0:0:
402,192,111750,1,0,0:0:0:0:
402,192,111835,1,0,0:0:0:0:
256,192,111835,1,0,0:0:0:0:
109,192,111921,1,0,0:0:0:0:
329,192,111921,1,0,0:0:0:0:
36,192,111921,1,0,0:0:0:0:
182,192,111921,1,0,0:0:0:0:
51,192,112093,1,0,0:0:0:0:
153,192,112093,1,0,0:0:0:0:
36,192,112178,1,0,0:0:0:0:
182,192,112178,1,0,0:0:0:0:
109,192,112264,1,0,0:0:0:0:
358,192,112264,1,0,0:0:0:0:
402,192,112264,1,0,0:0:0:0:
256,192,112264,1,0,0:0:0:0:
36,192,112435,1,0,0:0:0:0:
256,192,112435,1,0,0:0:0:0:
329,192,112435,1,0,0:0:0:0:
182,192,112435,1,0,0:0:0:0:
182,192,112607,1,0,0:0:0:0:
109,192,112607,1,0,0:0:0:0:
402,192,112607,1,0,0:0:0:0:
256,192,112607,1,0,0:0:0:0:
36,192,112950,1,0,0:0:0:0:
329,192,112950,1,0,0:0:0:0:
460,192,112950,1,0,0:0:0:0:
256,192,112950,1,0,0:0:0:0:
109,192,113035,1,0,0:0:0:0:
182,192,113121,1,0,0:0:0:0:
329,192,113121,1,0,0:0:0:0:
402,192,113207,1,0,0:0:0:0:
256,192,113293,1,0,0:0:0:0:
109,192,113293,1,0,0:0:0:0:
329,192,113378,1,0,0:0:0:0:
153,192,113464,1,0,0:0:0:0:
51,192,113464,1,0,0:0:0:0:
402,192,113635,1,0,0:0:0:0:
460,192,113635,1,0,0:0:0:0:
109,192,113635,1,0,0:0:0:0:
329,192,113635,1,0,0:0:0:0:
51,192,113978,1,0,0:0:0:0:
475,192,113978,1,0,0:0:0:0:
256,192,113978,1,0,0:0:0:0:
153,192,114150,1,0,0:0:0:0:
358,192,114150,1,0,0:0:0:0:
36,192,114321,1,0,0:0:0:0:
460,192,114321,1,0,0:0:0:0:
402,192,114321,1,0,0:0:0:0:
256,192,114321,1,0,0:0:0:0:
182,192,114407,1,0,0:0:0:0:
109,192,114493,1,0,0:0:0:0:
329,192,114493,1,0,0:0:0:0:
256,192,114578,1,0,0:0:0:0:
182,192,114664,1,0,0:0:0:0:
402,192,114664,1,0,0:0:0:0:
329,192,114750,1,0,0:0:0:0:
256,192,114835,1,0,0:0:0:0:
402,192,114921,1,0,0:0:0:0:
51,192,115007,1,0,0:0:0:0:
109,192,115007,1,0,0:0:0:0:
460,192,115007,1,0,0:0:0:0:
182,192,115007,1,0,0:0:0:0:
329,192,115178,1,0,0:0:0:0:
402,192,115178,1,0,0:0:0:0:
182,192,115350,1,0,0:0:0:0:
460,192,115350,1,0,0:0:0:0:
51,192,115350,1,0,0:0:0:0:
256,192,115350,1,0,0:0:0:0:
329,192,115521,1,0,0:0:0:0:
109,192,115521,1,0,0:0:0:0:
182,192,115607,1,0,0:0:0:0:
402,192,115607,1,0,0:0:0:0:
475,192,115693,1,0,0:0:0:0:
256,192,115693,1,0,0:0:0:0:
36,192,115693,1,0,0:0:0:0:
109,192,115693,1,0,0:0:0:0:
109,192,115864,1,0,0:0:0:0:
460,192,115864,1,0,0:0:0:0:
256,192,115864,1,0,0:0:0:0:
36,192,115864,1,0,0:0:0:0:
153,192,116035,1,0,0:0:0:0:
358,192,116035,1,0,0:0:0:0:
460,192,116035,1,0,0:0:0:0:
36,192,116121,1,0,0:0:0:0:
153,192,116207,1,0,0:0:0:0:
109,192,116207,1,0,0:0:0:0:
402,192,116293,1,0,0:0:0:0:
475,192,116293,1,0,0:0:0:0:
256,192,116378,1,0,0:0:0:0:
358,192,116378,1,0,0:0:0:0:
182,192,116378,1,0,0:0:0:0:
36,192,116378,1,0,0:0:0:0:
109,192,116550,1,0,0:0:0:0:
402,192,116550,1,0,0:0:0:0:
153,192,116721,1,0,0:0:0:0:
358,192,116721,1,0,0:0:0:0:
256,192,116721,128,0,116893:0:0:0:0:
402,192,116721,1,0,0:0:0:0:
109,192,116721,1,0,0:0:0:0:
36,192,117064,128,0,119121:0:0:0:0:
475,192,117064,128,0,119121:0:0:0:0:
182,192,117064,128,0,118950:0:0:0:0:
256,192,117064,128,0,119035:0:0:0:0:
329,192,117064,128,0,119121:0:0:0:0:
